#TITLE:I really love you so;
#SUBTITLE:;
#ARTIST:SLAKE feat. MIKA;
#TITLETRANSLIT:;
#SUBTITLETRANSLIT:;
#ARTISTTRANSLIT:;
#CREDIT:DigiMindAxel;
#BANNER:I really love you so.png;
#BACKGROUND:I really love you so-bg.png;
#LYRICSPATH:;
#CDTITLE:ee'MALL.png;
#MUSIC:I really love you so.mp3;
#OFFSET:-6.100;
#SAMPLESTART:11.207;
#SAMPLELENGTH:12.000;
#SELECTABLE:YES;
#BPMS:0.000=82.500,8.000=165.000,184.000=82.500,192.000=165.000;
#STOPS:;
#BGCHANGES:;

//---------------dance-single - ----------------
#NOTES:
     dance-single:
     :
     Easy:
     2:
     0.160,0.258,0.087,0.140,0.000:
1001
0001
1000
0001
,
1000
0001
0100
0000
,
0100
0000
0010
0000
,
0100
0000
0010
0000
,
1000
0000
0001
0000
,
1000
0000
0001
0000
,
0100
0000
0010
0000
,
0100
0000
0010
0000
,
1000
0000
0001
0000
,
2002
0000
0000
3003
,
0010
0000
0100
0000
,
0010
0000
0000
0000
,
1000
0000
0001
0000
,
1000
0000
0000
0000
,
0010
0000
0100
0000
,
0010
0000
1000
0000
,
0001
0000
0001
0000
,
1001
0000
0000
0000
,
2000
0000
0000
0000
,
3200
0000
0000
0000
,
0320
0000
0000
0000
,
0032
0000
0000
0000
,
1003
0000
0000
0000
,
0010
0000
0100
0000
,
0001
0000
0000
0000
,
0100
0000
0010
0000
,
1000
0000
0000
0000
,
0010
0000
0100
0000
,
0001
0000
0000
0000
,
0001
0000
0000
0000
,
1001
0000
0000
0000
,
0010
0000
0100
0000
,
1000
0000
0000
0000
,
0100
0000
0010
0000
,
0001
0000
0000
0000
,
0010
0000
0100
0000
,
1000
0000
1000
0000
,
1000
0000
0000
0000
,
2002
0000
0000
0000
,
3003
0000
0000
0000
,
0220
0000
0000
0000
,
0330
0000
0000
0000
,
2002
0000
0000
0000
,
3003
0000
0000
0000
,
0220
0000
0000
0000
,
0330
0000
1000
0000
,
1000
0001
1000
0001
,
0100
0010
0100
0000
,
0100
0000
0010
0000
,
0100
0000
0000
0000
,
0001
0000
1000
0000
,
0001
0000
0000
0000
,
0010
0000
0001
0000
,
0010
0000
0100
0000
,
1000
0000
0001
0000
,
1000
0000
0000
0000
,
1000
0000
0100
0000
,
0010
0000
0000
0000
,
0001
0000
0010
0000
,
0100
0000
0000
0000
,
1001
0000
1000
0000
,
0010
0000
0100
0000
,
0010
0000
0010
0000
,
0100
0000
0100
0000
,
0220
0000
0000
0000
,
0000
0000
0000
0330
;

//---------------dance-single - ----------------
#NOTES:
     dance-single:
     :
     Hard:
     7:
     0.466,0.459,0.140,0.227,0.057:
0002
0000
0000
0000
0103
0000
0010
1000
,
0100
0000
0001
0000
0100
0000
1000
1000
,
0010
0100
0010
0000
0100
0001
0010
0000
,
0100
0010
0001
0000
1000
0100
0010
0001
,
0100
0010
0100
0000
0010
1000
0100
0000
,
0010
0100
1000
0000
0001
0010
0100
1000
,
0010
0100
0010
0000
0010
1000
0100
0020
,
0000
0001
0031
0000
0001
0010
0100
0000
,
0010
0100
0010
0000
0010
0100
0010
0001
,
1000
0001
1000
0001
,
0100
0001
1000
0000
1000
0100
0010
0000
,
0100
0010
0001
1000
0000
0000
0000
0000
,
0100
1000
0001
0000
0001
0010
0100
0000
,
0010
0100
1000
0001
0000
0000
0000
0000
,
0100
0010
0100
0000
0100
0001
0010
0200
,
0000
1000
1300
0000
1000
0100
0010
0000
,
0001
0000
0000
0100
0000
0000
0001
0000
1000
0000
0000
0000
0100
0000
0000
0000
,
1000
0000
0000
0100
0000
0000
1000
0000
0001
0000
0000
0000
0100
0000
0000
0000
,
0102
0000
0000
0203
0000
0000
0320
0000
,
0000
2030
0000
0000
3020
0000
0230
0000
,
0301
0010
0100
1000
0001
0010
0100
1000
,
0001
0000
0000
0001
0000
0000
1000
0000
0010
0000
0000
0000
0010
0000
0000
0000
,
1001
0000
2000
0000
0000
0000
0000
3001
,
0000
0100
0000
0010
1000
0100
0010
0001
,
1000
0000
0001
0200
0000
0010
0000
0310
,
0000
1000
0001
0010
0100
1000
0010
0000
,
0100
0002
0000
1000
0000
1003
0000
0001
,
0000
0100
0000
0010
1000
0100
0010
0001
,
0100
0000
0001
1000
0000
1000
0200
0000
,
0000
0000
0000
0300
,
1001
0000
0002
0000
0000
1000
0000
1003
,
0001
0010
0100
1000
0001
0010
0001
1000
,
0100
0010
0001
1000
0000
0010
0000
0100
,
0000
0001
0010
0100
1000
0001
1000
0010
,
1000
0002
0000
0100
0000
0103
0000
0001
,
1000
0010
0000
0100
0001
0010
0100
0000
,
1000
0100
0001
0100
1000
0010
0100
0001
,
0010
1000
0010
0001
0100
0000
0100
0000
,
0101
0000
0000
0110
0000
0000
2200
0000
,
0000
0000
0000
0000
3300
0000
0000
0000
1000
0000
0000
0100
0000
0000
1000
0000
,
0001
0000
0101
0000
0000
0220
0000
0000
,
0000
0000
0330
0000
,
1010
0000
0000
0110
0000
0000
0022
0000
,
0000
0000
0000
0000
0033
0000
0000
0000
0001
0000
0000
0010
0000
0000
0001
0000
,
1000
0000
1100
0000
0000
0220
0000
0000
,
0000
0000
0330
0000
,
0010
0000
0100
0000
0001
0000
0000
1000
0000
1000
0001
0000
0100
0000
0000
0000
,
0010
0000
0100
0000
0001
0000
0000
1000
0000
1000
0010
0000
0000
0000
0000
0000
,
0100
0001
0010
0000
0001
0010
0100
0000
,
0010
0100
1000
0000
0010
1000
0001
0010
,
0100
1000
0010
0000
1000
0100
0010
0000
,
0100
0010
0001
0000
0100
0010
0100
0001
,
0010
0100
1000
0000
1000
0010
0100
0001
,
0000
0001
0010
0100
1000
0010
0100
0000
,
0001
1000
0000
1000
0001
0010
0100
1000
,
0010
0000
0000
0010
0000
0000
0010
0000
0100
0000
0000
0000
0000
0000
0000
0000
,
0001
0010
1000
0010
0001
0000
1000
0100
,
0001
0100
1000
0010
0100
0000
0000
0000
,
0001
0100
1000
0100
0001
0000
1000
0010
,
0001
0010
1000
0100
0010
0000
0000
0000
,
1001
0000
0000
0000
0001
1000
0020
0000
,
1000
1030
0100
0010
0001
0100
0010
0000
,
1000
0000
0000
0100
0000
0000
0010
0000
0000
0001
0000
0000
1000
0000
0000
0000
,
0100
0000
0000
0001
0000
0000
0100
0000
1000
0000
0000
0000
1001
0000
0000
0000
,
2002
0000
0000
0000
,
0000
0000
0000
3003
;

//---------------dance-single - ----------------
#NOTES:
     dance-single:
     :
     Challenge:
     8:
     0.565,0.574,0.070,0.445,0.135: // measure 1
1001
0000
0000
0000
1000
0000
1000
0000
0010
0200
0000
0000
0301
0010
0100
1000
,  // measure 2
0001
0000
0000
0000
0001
0000
0000
0000
0100
0000
0000
0000
0000
0000
0000
0000
0100
0000
0000
0100
0000
0000
0100
0000
0010
0000
0000
0000
0100
0000
0000
0000
,  // measure 3
0001
0200
0000
0310
2000
0000
3100
0020
,  // measure 4
0000
0031
2000
0000
3001
0010
0100
1000
,  // measure 5
1000
0020
0000
0130
0002
0000
0013
0200
,  // measure 6
0000
1300
0002
0000
1003
0100
0010
0001
,  // measure 7
1000
0100
0001
0100
1000
0010
0001
0020
,  // measure 8
0000
1030
0001
0010
0100
0010
0001
0000
,  // measure 9
1000
0010
0001
0010
1000
0100
0001
0100
,  // measure 10
1000
0000
0000
1000
0000
0000
1000
0000
0010
0000
0100
0000
0010
0000
0010
0000
,  // measure 11
1000
0200
0000
0310
0002
0000
0013
0200
,  // measure 12
0000
1300
0010
0000
0010
0000
0010
0000
,  // measure 13
0100
0002
0000
1003
0020
0000
1030
0002
,  // measure 14
0000
0103
0010
0000
0010
0000
0010
0000
,  // measure 15
1000
0010
0001
0010
1000
0100
0001
0200
,  // measure 16
0000
1300
0001
0010
0100
0010
0001
0000
,  // measure 17
1000
0000
0000
1000
0000
0000
1000
0000
0010
0000
0100
0000
0010
0000
0000
0000
,  // measure 18
0100
0000
0000
0001
0000
0000
1000
0000
0001
0000
0010
0000
0100
0000
1000
0000
,  // measure 19
0020
0000
0000
1000
0000
0000
2030
0000
0000
0001
0000
0000
3002
0000
0000
0100
,  // measure 20
0000
0000
0203
0000
0000
0010
0000
0000
0320
0000
0000
1000
0000
0000
1030
0000
,  // measure 21
0001
0010
0100
1000
0001
0100
0010
1000
,  // measure 22
0001
0000
0000
0001
0000
0000
0001
0000
0100
0010
0000
0000
0100
0010
0000
0000
,  // measure 23
2001
0000
3020
0000
0000
1030
0100
0010
,  // measure 24
0000
0001
0000
0100
0000
1000
0100
0001
,  // measure 25
2000
0000
3100
1000
0001
0100
0010
0100
,  // measure 26
0000
0001
0010
1000
0010
0001
0100
0010
,  // measure 27
0000
1000
0000
0100
0001
0100
1000
0010
,  // measure 28
0100
0010
0000
0100
0000
0100
0001
0010
,  // measure 29
0100
1000
0010
0000
0100
0001
1000
0100
,  // measure 30
0020
0000
0000
0130
,  // measure 31
0110
0000
1002
0000
0000
1003
0000
0100
,  // measure 32
0000
0001
0100
1000
0010
0100
0010
1000
,  // measure 33
0100
0001
0100
1000
0010
0001
0010
1000
,  // measure 34
0000
0010
0000
0100
0000
0001
1000
0100
,  // measure 35
0000
0001
0000
0100
1000
0010
0100
0001
,  // measure 36
0010
0100
0010
0001
1000
0010
0100
0000
,  // measure 37
0001
0001
0001
1000
1000
1000
0001
0010
,  // measure 38
0100
1000
0100
0010
0001
0000
1001
0000
,  // measure 39
0102
0000
1000
2003
0000
0100
0200
0000
,  // measure 40
0000
0000
0000
0000
3300
0000
0000
0000
1000
0000
0000
0010
0000
0000
0100
0000
,  // measure 41
0002
0000
0100
0203
0000
0010
0320
0000
,  // measure 42
0000
0000
0130
0100
,  // measure 43
2010
0000
0001
3002
0000
0010
0020
0000
,  // measure 44
0000
0000
0000
0000
0033
0000
0000
0000
0001
0000
0000
0010
0000
0000
0100
0000
,  // measure 45
2000
0000
0100
3200
0000
0010
0320
0000
,  // measure 46
0000
0000
0130
0100
,  // measure 47
1000
0000
0010
0000
0100
0000
0000
0001
0000
0001
1000
0000
0100
0000
0000
0000
,  // measure 48
0010
0000
0100
0000
1000
0000
0000
0010
0000
0010
0200
0000
0000
0000
0000
0000
,  // measure 49
0301
2000
0000
3100
0020
0000
0031
0200
,  // measure 50
0000
0301
2000
0000
3100
0010
0001
0010
,  // measure 51
0100
0020
0000
0031
0200
0000
0310
2000
,  // measure 52
0000
3100
0020
0000
0031
0010
0100
0010
,  // measure 53
0001
0100
1000
0100
0010
1000
0001
0200
,  // measure 54
0000
0301
0100
1000
0100
0001
1000
0000
,  // measure 55
0001
0010
1000
0010
0100
1000
0001
0100
,  // measure 56
0010
0000
0000
0010
0000
0000
0010
0000
1000
0001
1000
0001
1000
0000
0000
0000
,  // measure 57
0010
1000
0010
0000
1000
0000
0001
0000
0010
0000
1000
0000
0010
0000
0001
0000
,  // measure 58
1000
0010
0100
0000
0100
0000
0100
0000
,  // measure 59
0100
0001
0100
0000
0001
0000
1000
0000
0010
0000
0001
0000
0010
0000
1000
0000
,  // measure 60
0100
0010
0100
1000
0001
0000
0001
0000
,  // measure 61
1001
0000
1000
0000
0001
0100
0020
0000
,  // measure 62
1030
1000
0001
0001
0010
1000
0010
0001
,  // measure 63
0100
0000
0000
0010
0000
0000
1000
0000
0000
0001
0000
0000
1000
0000
0000
0000
,  // measure 64
0001
0000
0001
0000
0010
0000
0010
0000
0100
0000
0100
0000
1000
0001
1000
0001
,  // measure 65
2000
0000
0000
0000
,  // measure 66
0000
0000
0000
3000
;

//---------------dance-single - ----------------
#NOTES:
     dance-single:
     :
     Medium:
     5:
     0.353,0.373,0.192,0.183,0.009:
1001
1000
0001
1000
,
0100
0000
0010
0000
0001
1000
0001
0000
,
0001
1000
0000
0000
1000
0000
1000
0001
,
0000
1000
0001
0000
0100
0000
0010
0000
,
1000
0001
0000
0000
0001
0000
0001
1000
,
0000
0001
1000
0000
0010
0000
0100
0000
,
0001
1000
0001
0000
0010
0000
0100
0000
,
1000
0001
0100
0010
,
1000
0001
1000
0000
0100
0000
0010
0000
,
0001
0000
0000
0001
1000
0001
0000
0000
,
1002
0000
0000
0000
1003
0000
1000
0001
,
0000
0001
0100
0000
0000
0000
0000
0000
,
2001
0000
0000
0000
3001
0000
0001
1000
,
0000
1000
0010
0000
0000
0000
0000
0000
,
1000
0001
1000
0000
0001
0000
0100
0000
,
0010
1000
0010
0100
,
0110
0100
0100
0100
,
1001
0001
0001
0001
,
2000
0000
0000
3020
0000
0000
0230
0000
,
0000
0302
0000
0000
1003
0000
0100
0000
,
0002
0000
0000
0203
0000
0000
0320
0000
,
0000
2030
0000
0000
3001
0000
1000
0000
,
2001
0001
0000
0000
,
3001
0100
0001
1000
,
0002
0000
0000
0000
,
1003
0010
1000
0001
,
2000
0001
0000
0000
,
3001
0010
0001
1000
,
0001
0010
0001
0010
,
0002
0000
0000
0000
,
2003
0100
0000
0000
,
3001
0010
0001
1000
,
0002
0000
1000
0000
,
1003
0100
1000
0001
,
2000
0001
0000
0000
,
3001
0100
0001
1000
,
0001
0100
0001
0000
1000
0000
1000
0010
,
1000
0010
0010
0010
,
0110
0000
0000
0110
0000
0000
1001
0000
,
0000
0000
0200
0000
,
0310
0000
0110
0000
0000
1001
0000
0000
,
0000
0000
0000
0000
,
1100
0000
0000
0011
0000
0000
1001
0000
,
0000
0000
0020
0000
,
0130
0000
0110
0000
0000
1001
0000
0000
,
0000
0000
0000
0000
0100
0000
0100
0010
,
0100
0000
0001
0000
0001
0000
0000
0010
0000
0000
0100
0000
1000
0000
0000
0000
,
0010
0000
1000
0000
1000
0000
0000
0100
0000
0000
0010
0000
0000
0000
0000
0000
,
0001
1000
0000
0000
1000
0000
1000
0010
,
0000
0010
0100
0000
0001
0000
1000
0000
,
0001
1000
0000
0000
1000
0000
1000
0010
,
0000
0010
0100
0000
0001
0000
1000
0000
,
1000
0001
1000
0000
0010
0000
0100
0001
,
0000
0100
0001
0000
0100
0000
0010
0000
,
1000
0001
1000
0000
0010
0000
0100
0001
,
0000
0100
0000
0100
0010
0000
0010
0000
,
1001
0000
1000
0001
0100
0000
0010
1000
,
0001
0000
1000
0001
1000
0000
0000
0000
,
1001
0000
0001
1000
0010
0000
0100
0001
,
1000
0000
0001
1000
0001
0000
0000
0000
,
1001
0000
0001
0000
1000
0100
1000
0000
,
0010
0100
0010
0100
0010
0000
1000
0000
,
0010
0000
0000
0010
0000
0000
1001
0000
,
0100
0000
0000
0100
0000
0000
1001
0000
,
2002
0000
0000
0000
,
0000
0000
0000
3003
;

//---------------dance-single - ----------------
#NOTES:
     dance-single:
     :
     Beginner:
     1:
     0.041,0.084,0.009,0.000,0.000:
0000
0000
0000
0000
,
0000
0000
0000
0000
,
1000
0000
0000
0000
,
0000
0000
0000
0000
,
0001
0000
0000
0000
,
0000
0000
0000
0000
,
1000
0000
0000
0000
,
0000
0000
0000
0000
,
1000
0000
0000
0000
,
0000
0000
0000
0000
,
0001
0000
0000
0000
,
0000
0000
0000
0000
,
0001
0000
0000
0000
,
0000
0000
0000
0000
,
1000
0000
0000
0000
,
0000
0000
0000
0000
,
0001
0000
0000
0000
,
0000
0000
0000
0000
,
0100
0000
0000
0000
,
0000
0000
0000
0000
,
0010
0000
0000
0000
,
0000
0000
0000
0000
,
0100
0000
0000
0000
,
0000
0000
0000
0000
,
0001
0000
0000
0000
,
0000
0000
0000
0000
,
1000
0000
0000
0000
,
0000
0000
0000
0000
,
0001
0000
0000
0000
,
0000
0000
0000
0000
,
0001
0000
0000
0000
,
0000
0000
0000
0000
,
1000
0000
0000
0000
,
0000
0000
0000
0000
,
1000
0000
0000
0000
,
0000
0000
0000
0000
,
0001
0000
0000
0000
,
0000
0000
0000
0000
,
0001
0000
0000
0000
,
0000
0000
0000
0000
,
1000
0000
0000
0000
,
0000
0000
0000
0000
,
1000
0000
0000
0000
,
0000
0000
0000
0000
,
0001
0000
0000
0000
,
0000
0000
0000
0000
,
0001
0000
0000
0000
,
0000
0000
0000
0000
,
0001
0000
0000
0000
,
0000
0000
0000
0000
,
1000
0000
0000
0000
,
0000
0000
0000
0000
,
1000
0000
0000
0000
,
0000
0000
0000
0000
,
0010
0000
0000
0000
,
0000
0000
0000
0000
,
0100
0000
0000
0000
,
0000
0000
0000
0000
,
0010
0000
0000
0000
,
0000
0000
0000
0000
,
0010
0000
0000
0000
,
0000
0000
0000
0000
,
1000
0000
0000
0000
,
0000
0000
0000
0000
,
1001
0000
0000
0000
;

//---------------dance-double - ----------------
#NOTES:
     dance-double:
     :
     Easy:
     3:
     0.171,0.230,0.087,0.122,0.000:
00011000
00000000
00001000
00000000
,
00010000
00000000
00001000
00000000
,
00010000
00000000
00100000
00000000
,
01000000
00000000
10000000
00000000
,
00010000
00000000
10000000
00000000
,
00010000
00000000
10000000
00000000
,
01000000
00000000
00100000
00000000
,
00010000
00000000
00001000
00000000
,
00000100
00000000
00001000
00000000
,
00022000
00000000
00000000
00033000
,
00001000
00000000
00000100
00000000
,
00001000
00000000
00000000
00000000
,
00000001
00000000
00000010
00000000
,
00000001
00000000
00000000
00000000
,
00000100
00000000
00000010
00000000
,
00000100
00000000
00000010
00000000
,
00000110
00000000
00000000
00000000
,
00001001
00000000
00000000
00000000
,
00000001
00000000
00000001
00000000
,
00001000
00000000
00001000
00000000
,
00000020
00000000
00000000
00000000
,
00000230
00000000
00000000
00000000
,
00000310
00000000
00000000
00000000
,
00000010
00000000
00000100
00000000
,
00000010
00000000
00000010
00000000
,
00001000
00000000
00000001
00000000
,
00000001
00000000
00000001
00000000
,
00000010
00000000
00000100
00000000
,
00001000
00000000
00000100
00000000
,
00001000
00000000
00000000
00000000
,
00010000
00000000
00001000
00000000
,
00010000
00000000
00100000
00000000
,
01000000
00000000
10000000
00000000
,
01000000
00000000
10000000
00000000
,
00010000
00000000
10000000
00000000
,
00010000
00000000
01000000
00000000
,
01000000
00100000
01000000
00000000
,
00100000
01000000
00100000
00000000
,
20200000
00000000
00000000
00000000
,
30300000
00000000
00010000
00000000
,
00022000
00000000
00000000
00000000
,
00033000
00000000
00001000
00000000
,
00000202
00000000
00000000
00000000
,
00000303
00000000
00000000
00000000
,
00022000
00000000
00000000
00000000
,
00033000
00000000
00000000
00000000
,
00010000
00010000
10000000
01000000
,
10000000
10000000
00010000
00000000
,
00010000
00000000
10000000
00000000
,
00010000
00000000
00001000
00000000
,
00000100
00000000
00001000
00000000
,
00000100
00000000
00001000
00000000
,
00010000
00000000
00100000
00000000
,
00010000
00000000
10000000
00000000
,
01000000
00000000
00100000
00000000
,
00010000
00000000
00000000
00000000
,
00010000
00000000
00001000
00000000
,
00010000
00000000
00000000
00000000
,
00001000
00000000
00000100
00000000
,
00000010
00000000
00000001
00000000
,
00000010
00000000
00000010
00000000
,
00000001
00000000
00001000
00000000
,
00000001
00000000
00000001
00000000
,
00000011
00000000
00001000
00000000
,
00220000
00000000
00000000
00000000
,
00000000
00000000
00000000
00330000
;
