#TITLE:炎のキン肉マン;
#SUBTITLE:(よしくんマン ver.);
#ARTIST:よしくんマン;
#TITLETRANSLIT:HONOU NO KINNIKUMAN;
#SUBTITLETRANSLIT:(YOSHIKUNMAN ver.);
#ARTISTTRANSLIT:YOSHIKUNMAN;
#CREDIT:DigiMindAxel;
#BANNER:HONOU NO KINNIKUMAN (YOSHIKUNMAN ver.).png;
#BACKGROUND:HONOU NO KINNIKUMAN (YOSHIKUNMAN ver.)-bg.png;
#LYRICSPATH:HONOU NO KINNIKUMAN (YOSHIKUNMAN ver.).lrc;
#CDTITLE:pop'n music.png;
#MUSIC:HONOU NO KINNIKUMAN (YOSHIKUNMAN ver.).mp3;
#OFFSET:-3.140;
#SAMPLESTART:53.767;
#SAMPLELENGTH:12.000;
#SELECTABLE:YES;
#BPMS:0.000=161.000;
#STOPS:;
#BGCHANGES:;

//---------------dance-single - ----------------
#NOTES:
     dance-single:
     :
     Easy:
     2:
     0.211,0.253,0.145,0.133,0.000:
2000
0000
0000
0000
,
0000
3001
1000
0001
,
0200
0000
0320
0000
,
0000
0000
0030
0000
,
0110
0000
0000
0000
,
1001
0000
0000
0000
,
0001
1000
0001
1000
,
0000
0002
0000
0000
0000
0000
0003
0000
,
1001
0000
0001
0000
,
1000
0000
0001
0000
,
0010
0000
0100
0000
,
0010
0000
0001
0000
,
1000
0000
0001
0000
,
1000
0000
0100
0000
,
0010
0000
0100
0000
,
1000
0000
0001
0000
,
1001
0000
0001
0000
,
1000
0000
0001
0000
,
1000
0000
0010
0000
,
0100
0000
0010
0000
,
1000
0000
0100
0000
,
0010
0000
0100
0000
,
1000
0000
0000
0000
0001
0000
0000
2000
,
0000
0000
0000
0000
,
3001
0000
0000
0000
,
1001
0000
0000
1000
0000
0000
0000
0000
,
0001
0000
0000
0001
0000
0000
0000
0000
,
1000
0000
0000
1000
0000
0000
0000
0000
,
0001
0000
0000
0001
0000
0000
0000
0000
,
0100
0000
0000
0010
0000
0000
0000
0000
,
0100
0000
0000
0010
0000
0000
0000
0000
,
1000
0001
1000
0001
,
2000
0000
0000
0000
,
3001
1000
0001
0000
,
1001
0000
0010
0000
,
0001
0000
0010
0000
,
0110
0000
0100
0000
,
1000
0000
0100
0000
,
2000
0000
0001
0000
,
3002
0000
0000
0003
,
1001
0000
0000
0000
0001
0000
0000
2000
,
0000
0000
3000
0000
,
1001
0000
0001
0000
,
1000
0000
0001
0000
,
0100
0000
0010
0000
,
0100
0000
0001
0000
,
2000
0000
0001
0000
,
3002
0000
0000
0003
,
1001
0000
0000
0000
1000
0000
0000
0002
,
0000
0000
0000
0003
,
1001
0000
1000
0000
,
0001
0000
1000
0000
,
0010
0000
0010
0000
,
0010
0000
0010
0000
,
0110
0000
1000
0000
,
1001
0000
0000
0000
,
0001
0000
1000
0000
0001
0000
0000
0001
;

//---------------dance-single - ----------------
#NOTES:
     dance-single:
     :
     Medium:
     6:
     0.465,0.474,0.200,0.467,0.011:
0001
0010
0100
1000
,
0001
0200
0320
0230
,
0301
0000
0000
0000
0000
0000
1000
0001
2000
0000
0000
0000
0000
0000
0000
0000
,
0000
0000
3000
0000
0010
0000
0100
0010
,
0200
0000
0000
0000
0310
0000
1000
0001
,
2000
0000
0000
0000
0000
0000
3010
0100
,
0010
0110
1000
1001
,
0000
0100
0010
0100
0100
0000
0000
0000
,
1001
0000
0001
0000
1000
0000
0000
0020
,
0000
0100
0130
0000
0110
0000
0001
0000
,
1000
0000
0010
0000
0100
0000
0000
0100
,
0000
0001
0100
0001
1000
0000
0100
0000
,
0001
0000
0100
0000
1000
0000
0000
0020
,
0000
0100
0130
0001
0010
0000
0100
0000
,
1000
0000
0010
0000
0100
0000
0000
0002
,
0000
1000
1003
0100
0010
0000
0001
0000
,
1001
0000
0001
0000
1000
0000
0010
0200
,
0000
0001
0301
0000
1001
0000
1000
0000
,
0001
0000
0010
0000
0100
0000
0000
2000
,
0000
0001
3001
0100
0001
1000
0100
0000
,
1001
0000
0001
0000
1000
0000
0000
0020
,
0000
0100
0130
0001
0010
0000
0100
0000
,
0010
0000
0001
0000
1000
0000
0000
0010
,
0000
0100
0010
0100
0000
0001
0000
1000
,
0002
0000
0000
1003
,
1200
0000
0000
1300
0000
0000
0000
0000
,
0020
0000
0000
0031
0000
0000
0000
0000
,
0200
0000
0000
0310
0000
0000
0000
0000
,
2000
0000
0000
3001
0000
0000
0000
0000
,
0200
0000
0000
0001
0000
0000
0301
0000
,
2000
0000
0000
0100
0000
0000
3100
0000
,
1000
0100
0010
0001
,
0100
0000
0010
0000
0100
0010
0100
0001
,
0000
1000
0100
1000
0000
0001
0100
0001
,
2002
0000
0000
3003
0000
0200
0000
0301
,
0100
0001
1000
0100
1000
0000
0001
0000
,
2002
0000
3003
0000
0010
0100
0010
0002
,
0000
1003
0010
0100
,
0002
0000
0100
0000
0103
0001
0100
0000
,
2020
0000
0000
3030
,
1001
0000
1000
0000
0001
0100
0000
0010
,
0000
0100
0010
0100
0000
1001
0000
0000
,
2002
0000
0000
3003
0000
0200
0000
1300
,
0100
1000
0001
0100
0001
0000
1000
0000
,
2002
0000
3003
0000
0010
0100
0010
0000
,
0001
1000
0001
0000
0100
0000
0010
0000
,
2000
0000
3010
0000
1000
0010
0000
0200
,
0000
0001
0001
0301
,
1001
0000
1000
0000
0001
0000
0100
0010
,
0000
1000
0010
0100
0001
0000
0000
0000
,
1001
0010
0100
1000
,
0001
0200
0320
0230
,
0302
0000
0000
0000
0000
0000
1003
0001
2000
0000
0000
0000
0100
0000
0000
0000
,
0100
0000
3100
0000
1001
0000
0010
0100
,
0020
0000
0000
0000
1030
0000
0001
1000
,
0002
0000
0013
0001
,
1000
0100
0010
0001
1000
0000
0010
0100
;

//---------------dance-single - ----------------
#NOTES:
     dance-single:
     :
     Hard:
     8:
     0.653,0.632,0.689,0.245,0.061: // measure 1
1100
1100
0110
0110
,  // measure 2
0011
0011
1001
0100
,  // measure 3
0101
0101
0110
0110
,  // measure 4
1010
0000
0000
0000
1010
0000
0000
0000
1001
0000
0000
0000
0100
0001
0100
0001
,  // measure 5
0200
0000
0000
0000
0310
0000
1000
0000
0200
0000
0000
0000
1300
0001
1000
0001
,  // measure 6
1000
0000
0000
0000
0100
0000
0000
0000
0010
0000
0000
0000
0100
1000
0100
1000
,  // measure 7
0100
1000
0100
0001
0100
1000
0010
0100
,  // measure 8
0000
0001
0001
1000
0100
0000
0100
0000
,  // measure 9
1001
0000
1100
0000
1001
0000
0001
0200
,  // measure 10
0000
0001
0301
0010
0100
0000
1000
0000
,  // measure 11
1001
0000
0101
0000
1001
0000
0000
1000
,  // measure 12
0000
0001
0010
1000
0010
0001
0100
0010
,  // measure 13
0110
0000
1001
0000
0110
0000
0000
0200
,  // measure 14
0000
1000
1300
0100
0001
0100
1000
0010
,  // measure 15
0110
0000
1001
0000
0110
0000
0000
0200
,  // measure 16
0000
0301
0010
1000
0010
0001
0100
0000
,  // measure 17
0110
0000
0101
0000
0110
0000
1000
0200
,  // measure 18
0000
1000
1300
0100
0010
0000
0001
0000
,  // measure 19
0110
0000
1100
0000
0110
0000
0000
0001
,  // measure 20
0000
1000
0100
0001
0100
1000
0010
0100
,  // measure 21
0110
0000
1001
0000
0110
0000
0000
0200
,  // measure 22
0000
0001
0301
0010
0100
1000
0010
0100
,  // measure 23
0110
0000
1001
0000
0110
0000
0000
0110
,  // measure 24
0000
1000
0100
0001
0000
0100
0000
1000
,  // measure 25
0002
1000
1000
1003
,  // measure 26
1001
0010
0100
2000
0000
0000
3100
0000
,  // measure 27
1000
0100
0010
0002
0000
0000
0103
0000
,  // measure 28
0010
1000
0100
0020
0000
0000
0031
0000
,  // measure 29
0100
1000
0010
0200
0000
0000
0301
0000
,  // measure 30
1000
0100
0010
0002
0000
0100
0103
0000
,  // measure 31
0001
0100
0010
2000
0000
0100
3100
0000
,  // measure 32
1000
0100
0010
0001
0100
1000
0100
0001
,  // measure 33
0010
0000
1100
0000
0001
0010
0100
0010
,  // measure 34
0000
0001
1000
1000
0100
0001
0100
1000
,  // measure 35
0001
0100
0001
1000
0000
0100
0010
0001
,  // measure 36
0000
0010
0100
0001
0100
1000
0001
0001
,  // measure 37
1000
0100
1000
0001
0000
0010
0100
1000
,  // measure 38
0000
0100
0010
1000
0010
0001
1000
1000
,  // measure 39
0001
0100
0002
0000
1003
0100
0010
0001
,  // measure 40
2000
0010
0100
3010
,  // measure 41
0110
0000
1001
0000
0010
0100
0001
1000
,  // measure 42
0000
0100
0010
0001
0000
0100
0001
0001
,  // measure 43
1000
0100
1000
0001
0000
0010
0100
1000
,  // measure 44
0000
0010
0100
1000
0100
0001
1000
1000
,  // measure 45
0001
0010
0001
1000
0000
0100
0010
0001
,  // measure 46
0000
0100
0010
0001
0010
1000
0001
0001
,  // measure 47
1000
0100
1000
0100
1000
0010
0100
0001
,  // measure 48
1000
1100
0011
1100
,  // measure 49
1002
0000
0103
0000
2100
0000
0001
3001
,  // measure 50
0000
0100
0010
1000
1000
0000
1000
0000
,  // measure 51
0101
0101
1100
1100
,  // measure 52
0110
0110
2002
3003
,  // measure 53
1100
1100
0101
0101
,  // measure 54
0110
0000
0000
0000
0110
0000
0000
0000
1000
0001
1000
0000
0100
1000
0100
1000
,  // measure 55
0200
0000
0000
0000
1300
0000
0001
0000
0100
0000
0000
0000
0001
1000
0001
1000
,  // measure 56
0002
0013
0100
0010
,  // measure 57
0001
0001
0010
0100
1000
0000
0010
0110
;

//---------------dance-single - ----------------
#NOTES:
     dance-single:
     :
     Beginner:
     1:
     0.057,0.125,0.056,0.000,0.000:
1000
0000
0000
0000
,
0000
0000
0000
0000
,
1000
0000
0000
0000
,
0000
0000
0000
0000
,
1000
0000
0000
0000
,
0000
0000
0000
0000
,
0001
0000
0000
0000
,
0000
0000
0000
0000
,
1001
0000
0000
0000
,
0000
0000
0000
0000
,
0010
0000
0000
0000
,
0000
0000
0000
0000
,
0100
0000
0000
0000
,
0000
0000
0000
0000
,
1000
0000
0000
0000
,
0000
0000
0000
0000
,
0001
0000
0000
0000
,
0000
0000
0000
0000
,
1000
0000
0000
0000
,
0000
0000
0000
0000
,
0001
0000
0000
0000
,
0000
0000
0000
0000
,
0010
0000
0000
0000
,
0100
0000
0000
0000
,
0010
0000
0000
0000
,
0001
0000
0000
0000
,
0000
0000
0000
0000
,
0001
0000
0000
0000
,
0000
0000
0000
0000
,
1000
0000
0000
0000
,
0000
0000
0000
0000
,
1000
0000
0000
0000
,
0000
0000
0000
0000
,
0000
0000
0000
0000
,
1001
0000
0000
0000
,
0000
0000
0000
0000
,
0010
0000
0000
0000
,
0000
0000
0000
0000
,
0100
0000
0000
0000
,
0000
0000
0000
0000
,
0010
0000
0000
0000
,
0000
0000
0000
0000
,
1001
0000
0000
0000
,
0000
0000
0000
0000
,
0100
0000
0000
0000
,
0000
0000
0000
0000
,
0010
0000
0000
0000
,
0000
0000
0000
0000
,
0100
0000
0000
0000
,
0000
0000
0000
0000
,
1001
0000
0000
0000
,
0000
0000
0000
0000
,
0001
0000
0000
0000
,
0000
0000
0000
0000
,
1000
0000
0000
0000
,
0001
0000
0000
0000
,
0110
0000
0000
0000
;
