#TITLE:ホネホネロック;
#SUBTITLE:;
#ARTIST:D-Crew+1;
#TITLETRANSLIT:HONE HONE ROCK;
#SUBTITLETRANSLIT:;
#ARTISTTRANSLIT:;
#CREDIT:DigiMindAxel;
#BANNER:HONE HONE ROCK.png;
#BACKGROUND:HONE HONE ROCK-bg.png;
#LYRICSPATH:HONE HONE ROCK.lrc;
#CDTITLE:pop'n music.png;
#MUSIC:HONE HONE ROCK.mp3;
#OFFSET:-10.640;
#SAMPLESTART:59.773;
#SAMPLELENGTH:12.000;
#SELECTABLE:YES;
#BPMS:0.000=180.000;
#STOPS:;
#BGCHANGES:;

//---------------dance-single - ----------------
#NOTES:
     dance-single:
     :
     Easy:
     3:
     0.235,0.384,0.386,0.009,0.000:
2000
0000
0000
0000
,
3001
0000
0000
0000
,
0110
0000
0000
0000
,
1001
0000
0000
0000
,
1001
0000
0000
0000
,
0110
0000
0000
0000
,
0110
0000
0000
0000
,
1001
0000
0000
0000
,
1001
0000
0000
0000
,
0001
0000
1000
0000
,
0001
0000
0010
0000
,
0100
0000
1000
0000
,
0001
0000
1000
0000
,
0100
0000
0010
0000
,
0001
0000
1000
0000
,
0001
0000
0100
0000
,
0001
0000
1000
0000
,
0010
0000
1000
0000
,
0010
0000
0100
0000
,
0010
0000
0100
0000
,
0010
0000
1000
0000
,
0001
0000
0010
0000
,
0100
0000
1000
0000
,
0001
0000
1000
0000
,
0010
0000
0010
0000
,
0110
0000
1000
0000
,
0010
0000
1000
0000
,
0001
0000
0100
0000
,
0001
0000
0100
0000
,
0010
0000
0100
0000
,
0010
0000
0100
0000
,
0001
0000
0001
0000
,
1000
0000
1000
0000
,
1001
0000
1000
0000
,
0100
0000
0010
0000
,
0001
0000
1000
0000
,
0001
0000
0000
0000
,
1001
0001
1001
0000
,
1001
1000
1001
0000
,
1001
0001
1001
0000
,
1001
1000
1001
0000
,
0010
0000
0100
0000
,
0010
0000
1000
0000
,
0100
0000
0010
0000
,
0001
0000
0000
0000
,
1001
1000
1001
0000
,
1001
0001
1001
0000
,
1001
1000
1001
0000
,
1001
0001
1001
0000
,
0010
0000
0100
0000
,
0010
0000
1000
0000
,
0001
0000
0010
0000
,
0100
0000
1000
0000
,
1000
0000
0000
0000
,
1001
0000
1000
0000
,
1001
0000
0001
0000
,
1001
0000
0100
0000
,
0110
0000
0010
0000
,
0110
0000
1000
0000
,
1001
0000
0001
0000
,
1001
0000
0010
0000
,
0110
0000
0100
0000
,
0110
0000
1000
0000
,
1001
0000
0001
0000
,
1001
0000
0010
0000
,
0110
0000
0100
0000
,
0110
0000
0001
0000
,
1001
0000
1000
0000
,
1001
0000
0010
0000
,
0110
0000
0000
1001
;

//---------------dance-single - ----------------
#NOTES:
     dance-single:
     :
     Medium:
     6:
     0.403,0.384,0.211,0.018,0.000:
1001
0000
0020
0000
,
0130
0000
0000
1001
0000
0000
0000
0000
,
0010
0000
0000
0010
0000
0000
0000
0000
,
0010
0000
0000
1001
0000
0000
0000
0000
,
0100
0000
0000
0100
0000
0000
0000
0000
,
0010
0000
0000
1001
0000
0000
0000
0000
,
0010
0000
0000
0010
0000
0000
0000
0000
,
0100
0000
0000
1001
0000
0000
0000
0000
,
0100
0100
0100
0100
,
1001
0100
0010
0001
,
1000
0100
0010
0001
,
1000
0001
1000
0001
,
0010
0100
1000
0001
,
1000
0010
0100
0010
,
1000
0010
0100
0010
,
1000
0001
0010
0001
,
0100
0010
0100
0001
,
0100
0010
0100
0001
,
0100
0010
0100
0001
,
0010
0100
1000
0010
,
1000
0100
1000
0010
,
1000
0100
0010
0001
,
0100
0010
0100
0001
,
0010
0100
1000
0010
,
0010
0100
0010
0000
0000
0000
0000
0000
,
1001
0000
0100
1000
0000
0000
0000
0000
,
0001
0000
0010
0001
0000
0000
1000
0000
,
0100
0000
1000
0100
0000
0000
0000
0000
,
0010
0000
0001
0010
0000
0000
0001
0000
,
0100
0000
0001
0100
0000
0000
0000
0000
,
0010
0000
1000
0010
0000
0000
1000
0000
,
0010
0000
1000
0001
0000
0000
0000
0000
,
1000
0001
1000
0001
,
1001
0001
0001
0110
,
0100
0100
1001
1000
,
1000
0110
0010
0010
,
1001
0001
0001
0001
,
1001
0000
1000
0010
1000
0000
0001
1000
,
0000
0100
0000
0001
0100
0000
1000
0000
,
1001
0000
0001
0100
0001
0000
1000
0001
,
0000
0010
0000
1000
0010
0000
0001
0000
,
0100
0010
0100
0010
0100
0000
0001
0000
,
0000
0100
0000
0000
1000
0000
0100
0000
,
1001
0010
0100
1000
,
0001
1000
0100
0010
,
1001
0000
0001
0010
0001
0000
1000
0001
,
0000
0010
0000
1000
0010
0000
0001
0000
,
1001
0000
1000
0100
1000
0000
0001
1000
,
0000
0100
0000
0001
0100
0000
1000
0000
,
0010
0100
0010
0100
0010
0000
1000
0000
,
0000
0010
0000
0000
0001
0000
0010
0000
,
1001
0100
0010
0001
,
1000
0001
0010
0100
,
2000
0000
0000
3000
,
1001
0000
0001
0010
0001
0000
1000
0000
,
0010
0000
1000
0100
1000
0000
0001
0000
,
0100
0000
0001
0010
0001
0000
1000
0100
,
0010
0001
1000
0010
,
1001
0000
1000
0100
1000
0000
0001
0000
,
0100
0000
0001
0010
0001
0000
1000
0000
,
0010
0000
1000
0001
1000
0000
0001
0010
,
0100
1000
0001
0100
,
1001
0000
0001
0100
0001
0000
1000
0000
,
0100
0000
1000
0010
1000
0000
0001
0000
,
0100
0000
0010
0100
0010
0000
1000
0000
,
0010
0000
0100
0010
0100
0000
0001
0000
,
1001
0000
1000
0010
1000
0000
0001
0000
,
0010
0000
0001
0100
0001
0000
1000
0000
,
0010
0000
0100
0010
0100
0000
0001
0000
,
0100
0000
1000
0100
0001
0000
1001
0000
;

//---------------dance-single - ----------------
#NOTES:
     dance-single:
     :
     Hard:
     7:
     0.533,0.513,0.441,0.147,0.000:
0110
0000
0000
0000
0010
0001
1000
0100
,
0010
0000
0000
0001
1000
0000
0000
0000
,
0010
0000
0000
0110
0000
0000
1000
0000
,
0010
0000
0000
1000
0001
0000
0000
0000
,
0100
0000
0000
0110
0000
0000
0001
0000
,
0100
0000
0000
0001
1000
0000
0000
0000
,
0010
0000
0000
0110
0000
0000
1000
0000
,
0010
0000
0000
1001
0000
0000
0000
0000
,
0100
0010
0100
0000
0100
0010
0100
0000
,
1001
0000
0001
1000
0010
0000
1000
0000
,
0010
0001
0010
1000
,
1001
0000
1000
0001
0100
0000
0001
0010
,
0100
0000
1000
0001
1000
0000
0001
0000
,
1001
0000
1000
0001
0100
0000
0001
0000
,
0100
1000
0100
0001
,
1001
0000
0001
1000
0010
0000
1000
0100
,
0010
0000
0001
1000
0001
0000
1000
0000
,
0110
0000
0001
0100
0010
0000
1000
0000
,
0001
0000
0100
0010
1000
0000
0001
0000
,
0110
0000
1000
0010
0100
0000
0001
0000
,
1000
0000
0010
0100
0001
0100
0001
0000
,
1001
0000
0010
0100
1000
0000
0001
0000
,
0100
0000
0001
0010
0100
0000
1000
0000
,
1001
0000
0100
0010
0001
0000
1000
0000
,
0010
0100
0010
0100
0010
0100
0010
0000
,
1001
0000
1000
0020
0000
0000
0001
0000
,
1030
0000
0001
0200
0000
0000
1000
0000
,
0301
0000
1000
0020
0000
0000
0001
0000
,
1030
0000
0001
0200
0000
0000
1000
0000
,
0301
0000
1000
0200
0000
0000
0001
0000
,
1300
0000
0001
0020
0000
0000
1000
0000
,
0031
0000
1000
0200
0000
0000
0001
0000
,
1300
1001
0100
0110
,
1001
0000
0010
1000
0010
0000
0010
0100
,
0010
0000
0010
0001
0010
0000
0100
1000
,
0100
0000
0100
0010
0100
0000
0100
0001
,
0100
0000
0010
1000
0100
0010
0001
0000
,
1001
0101
0101
1001
,
1000
0100
0010
1000
0010
0000
0101
0000
,
1001
1010
1010
1001
,
0001
0010
0100
0001
0100
0000
1010
0000
,
0010
0100
0010
1000
0000
1000
0001
0000
,
0001
0010
0000
0010
0100
0000
1000
0000
,
1002
0010
0010
0013
,
2001
0100
0100
3100
,
1001
1100
1100
1001
,
0001
0010
0100
0001
0100
0000
1010
0000
,
1001
0011
0011
1001
,
1000
0100
0010
1000
0010
0000
0101
0000
,
0100
0010
0100
0001
0000
0001
1000
0000
,
1000
0100
0000
0100
0010
0000
0001
0000
,
1002
0010
0010
0013
,
2001
0100
0100
3100
,
0220
0000
0000
0330
,
1001
0000
1000
0001
0100
0000
0001
1000
,
0010
0000
1000
0001
0100
0000
0001
0000
,
1001
0000
0001
1000
0100
0000
1000
0001
,
0010
0000
0001
1000
0100
0000
1000
0000
,
1001
0000
1000
0001
0100
0010
1000
0000
,
0001
0000
0001
1000
0010
0100
0001
0000
,
1000
0000
1000
0001
0100
0010
1000
0100
,
0020
0001
1000
0031
,
1001
0000
0001
1000
0010
0100
0001
0010
,
0100
0000
1000
0001
0100
0010
1000
0100
,
0010
0000
0001
1000
0010
0100
0001
0010
,
0100
0000
1000
0001
0100
0010
1000
0000
,
1001
0000
1000
0100
0010
0001
0010
0000
,
0200
1000
0001
1300
,
1001
0000
0001
0010
0100
1000
0100
0000
,
0020
0000
0001
0000
1030
0000
0001
1000
;

//---------------dance-single - ----------------
#NOTES:
     dance-single:
     :
     Challenge:
     8:
     0.615,0.545,0.606,0.018,0.000: // measure 1
1002
0000
0000
0000
1003
0100
0010
0001
,  // measure 2
0101
0000
0000
1000
1001
0000
0000
0000
,  // measure 3
0101
0000
0000
0110
0000
0000
0101
0000
,  // measure 4
1010
0000
0000
0001
1001
0000
0000
0000
,  // measure 5
1010
0000
0000
0110
0000
0000
1010
0000
,  // measure 6
0011
0000
0000
1000
1001
0000
0000
0000
,  // measure 7
0011
0000
0000
0110
0000
0000
0011
0000
,  // measure 8
1100
0000
0000
0001
1001
0000
0000
0000
,  // measure 9
0100
0010
0001
1000
0010
0100
0010
0000
,  // measure 10
1001
0000
1000
0001
0010
0000
0011
0000
,  // measure 11
1001
0000
0001
0010
0100
0000
1100
0000
,  // measure 12
1001
0000
0001
1000
0100
0000
1100
0000
,  // measure 13
1001
0000
1000
0100
0010
0000
0011
0000
,  // measure 14
1001
0000
1000
0001
0100
0000
0101
0000
,  // measure 15
1001
0000
0001
1000
0010
0000
1010
0000
,  // measure 16
1001
0000
0001
1000
0010
0000
1010
0000
,  // measure 17
1001
0000
1000
0001
0100
0000
1001
0000
,  // measure 18
1001
0000
1000
0001
0100
0000
0101
0000
,  // measure 19
1001
0000
0001
1000
0010
0100
0001
0000
,  // measure 20
1001
0000
0001
1000
0010
0000
1010
0000
,  // measure 21
1001
0000
1000
0001
0100
0010
1000
0000
,  // measure 22
1001
0000
0001
1000
0100
0000
1100
0000
,  // measure 23
1001
0000
1000
0001
0010
0100
1000
0000
,  // measure 24
1001
0000
1000
0001
0010
0000
0011
0000
,  // measure 25
0010
0100
1000
0001
0100
0010
0100
0000
,  // measure 26
1001
0000
0010
1000
0000
1000
0001
0000
,  // measure 27
1001
0000
0100
0001
0000
0001
1000
0100
,  // measure 28
1000
0000
0010
1000
0000
1000
0001
0000
,  // measure 29
1001
0000
0100
0001
0000
0001
1000
0100
,  // measure 30
1000
0000
0001
1000
0000
1000
0100
0000
,  // measure 31
1001
0000
1000
0001
0000
0001
0100
0010
,  // measure 32
0100
0000
0001
1000
0000
1000
0100
0000
,  // measure 33
1010
1010
0101
0101
,  // measure 34
1001
0000
1000
0001
0100
0001
0100
0001
,  // measure 35
0100
1000
0100
1000
0100
0001
1000
0000
,  // measure 36
0001
1000
0010
1000
0010
1000
0010
0001
,  // measure 37
0010
0001
0010
0001
0010
1000
0001
0000
,  // measure 38
1001
0000
1000
0100
0001
0000
1001
0000
,  // measure 39
0010
0001
1000
0100
0001
0100
1000
0000
,  // measure 40
1001
0000
0001
0010
1000
0000
1001
0000
,  // measure 41
0100
1000
0001
0100
1000
0100
0001
0000
,  // measure 42
1000
0100
1000
0001
0000
0001
0010
0000
,  // measure 43
0100
0010
0000
0100
1000
0001
0010
0100
,  // measure 44
1000
0001
1000
0000
0001
0010
0001
0000
,  // measure 45
0100
0010
0100
0001
0010
0001
1000
0000
,  // measure 46
1001
0000
0001
0010
1000
0000
1001
0000
,  // measure 47
0100
1000
0001
0010
1000
0010
0001
0000
,  // measure 48
1001
0000
1000
0100
0001
0000
1001
0000
,  // measure 49
0010
0001
1000
0100
0001
0100
1000
0000
,  // measure 50
0001
0010
0001
1000
0000
0100
0010
0000
,  // measure 51
0001
0010
0000
0100
0010
1000
0100
0010
,  // measure 52
0001
0000
1000
0100
1000
0000
0001
0100
,  // measure 53
0001
0000
1000
0010
0100
0010
1000
0001
,  // measure 54
0200
0000
0000
0300
,  // measure 55
1001
0000
1000
0100
0001
0000
0100
1000
,  // measure 56
0001
0000
0010
0100
1000
0001
0010
0100
,  // measure 57
1000
0000
0001
0010
1000
0000
0010
0001
,  // measure 58
1000
0100
0010
0001
1000
0010
0100
0000
,  // measure 59
1001
0000
0001
0010
1000
0000
0010
0001
,  // measure 60
1000
0000
0100
0010
0001
1000
0100
0010
,  // measure 61
0001
0000
1000
0100
0001
0000
0100
1000
,  // measure 62
0001
0010
0100
1000
0001
0100
0010
0000
,  // measure 63
1001
0000
1000
0100
1000
0100
1000
0001
,  // measure 64
0010
0100
0001
0100
1000
0001
0100
0010
,  // measure 65
0100
0000
0001
0010
0001
0010
0001
1000
,  // measure 66
0010
0100
1000
0100
0001
1000
0100
0000
,  // measure 67
1001
0000
1000
0010
1000
0010
1000
0001
,  // measure 68
0100
0010
0001
0010
1000
0001
0010
0100
,  // measure 69
0010
0000
0001
0100
0001
0100
0001
1000
,  // measure 70
0100
0010
1000
0010
0001
1000
0100
0010
;

//---------------dance-single - ----------------
#NOTES:
     dance-single:
     :
     Beginner:
     2:
     0.104,0.128,0.037,0.000,0.000:
0000
0000
0000
0000
,
0001
0000
0000
0000
,
0001
0000
0000
0000
,
0001
0000
0000
0000
,
0001
0000
0000
0000
,
1000
0000
0000
0000
,
1000
0000
0000
0000
,
1000
0000
0000
0000
,
1000
0000
0000
0000
,
0001
0000
0000
0000
,
1000
0000
0000
0000
,
0001
0000
0000
0000
,
1000
0000
0000
0000
,
0001
0000
0000
0000
,
0010
0000
0000
0000
,
0100
0000
0000
0000
,
0010
0000
0000
0000
,
0100
0000
0000
0000
,
1000
0000
0000
0000
,
0001
0000
0000
0000
,
1000
0000
0000
0000
,
0100
0000
0000
0000
,
0010
0000
0000
0000
,
0100
0000
0000
0000
,
0010
0000
0000
0000
,
1001
0000
0000
0000
,
0001
0000
0000
0000
,
0001
0000
0000
0000
,
0001
0000
0000
0000
,
0001
0000
0000
0000
,
1000
0000
0000
0000
,
1000
0000
0000
0000
,
1000
0000
0000
0000
,
1001
0000
0000
0000
,
0000
0000
0000
0000
,
0010
0000
0000
0000
,
0000
0000
0000
0000
,
1001
0000
0001
0000
,
0001
0000
0000
0000
,
1000
0000
1000
0000
,
1000
0000
0000
0000
,
0001
0000
0001
0000
,
0001
0000
0000
0000
,
1000
0000
1000
0000
,
1000
0000
0000
0000
,
0010
0000
0010
0000
,
0010
0000
0000
0000
,
0100
0000
0100
0000
,
0100
0000
0000
0000
,
0010
0000
0010
0000
,
0010
0000
0000
0000
,
0100
0000
0100
0000
,
0100
0000
0000
0000
,
0001
0000
0000
0000
,
1001
0000
0000
0000
,
0000
0000
0000
0000
,
0001
0000
0000
0000
,
1000
0000
0000
0000
,
0001
0000
0000
0000
,
1000
0000
0000
0000
,
0001
0000
0000
0000
,
0010
0000
0000
0000
,
0100
0000
0000
0000
,
0010
0000
0000
0000
,
0100
0000
0000
0000
,
0010
0000
0000
0000
,
0100
0000
0000
0000
,
1000
0000
0000
0000
,
0001
0000
0000
0000
,
1000
0000
0000
0010
;
