#TITLE:Gradation;
#SUBTITLE:;
#ARTIST:The Natural Mahoganies;
#TITLETRANSLIT:;
#SUBTITLETRANSLIT:;
#ARTISTTRANSLIT:;
#CREDIT:DigiMindAxel;
#BANNER:Gradation.png;
#BACKGROUND:Gradation-bg.png;
#LYRICSPATH:Gradation.lrc;
#CDTITLE:pop'n music.png;
#MUSIC:Gradation.mp3;
#OFFSET:-10.040;
#SAMPLESTART:10.020;
#SAMPLELENGTH:12.000;
#SELECTABLE:YES;
#BPMS:0.000=125.400;
#STOPS:;
#BGCHANGES:;

//---------------dance-single - ----------------
#NOTES:
     dance-single:
     :
     Easy:
     3:
     0.217,0.231,0.098,0.418,0.000: // measure 1
2000
0000
3100
0000
,  // measure 2
2000
0000
3100
0000
,  // measure 3
1000
0000
0001
0000
,  // measure 4
0020
0000
0130
0000
,  // measure 5
0002
0000
0013
0000
,  // measure 6
0002
0000
0013
0000
,  // measure 7
0001
0000
1000
0000
,  // measure 8
0020
0000
0130
0000
,  // measure 9
1002
0000
0003
1000
,  // measure 10
0200
0000
0310
0000
,  // measure 11
2001
0000
3000
0001
,  // measure 12
0020
0000
0130
0000
,  // measure 13
1002
0000
0103
0010
,  // measure 14
0200
0000
0301
1000
,  // measure 15
0200
0000
0000
0000
,  // measure 16
2300
0000
3001
0100
,  // measure 17
0002
0000
0000
0000
,  // measure 18
0023
0000
0000
0200
,  // measure 19
0030
0000
0000
0000
,  // measure 20
2300
0000
0000
0000
,  // measure 21
3002
0000
0000
0000
,  // measure 22
1003
0100
0010
0001
,  // measure 23
2000
0000
0010
0000
,  // measure 24
3020
0000
0100
0000
,  // measure 25
0230
0000
0001
0000
,  // measure 26
0302
0000
0003
0000
,  // measure 27
2002
0000
3003
0000
,  // measure 28
2002
0000
3003
0000
,  // measure 29
0220
0000
0330
0000
,  // measure 30
0220
0000
0330
0000
,  // measure 31
2002
0000
3003
0000
,  // measure 32
2002
0000
3003
0000
,  // measure 33
0200
0000
0000
0000
,  // measure 34
0320
0000
0000
0030
,  // measure 35
0100
0001
0100
0000
,  // measure 36
0010
1000
0010
0000
,  // measure 37
1000
0001
1000
0000
,  // measure 38
0020
0000
0130
0000
,  // measure 39
0001
1000
0100
0000
,  // measure 40
1000
0001
0100
0000
,  // measure 41
0001
1000
0010
1000
,  // measure 42
0002
0000
1003
0000
,  // measure 43
1002
0000
0000
1000
,  // measure 44
2003
0000
3100
0000
,  // measure 45
1000
0001
2000
0001
,  // measure 46
3002
0000
0103
0001
,  // measure 47
1000
0001
1000
0100
,  // measure 48
0020
0000
0031
1000
,  // measure 49
0020
0000
0130
0010
,  // measure 50
2000
0000
3001
0010
,  // measure 51
0100
0100
0010
0010
,  // measure 52
0002
0000
1003
0001
,  // measure 53
1001
0000
0000
0000
;

//---------------dance-single - ----------------
#NOTES:
     dance-single:
     :
     Medium:
     5:
     0.358,0.370,0.240,0.222,0.000: // measure 1
0001
0000
0001
0010
0100
0000
0000
0000
,  // measure 2
1000
0000
1000
0100
0010
0000
0000
0000
,  // measure 3
0001
0000
0001
0010
0100
0000
2000
0000
,  // measure 4
3002
0000
1003
0000
,  // measure 5
0001
0000
0001
0100
0010
0000
0000
0000
,  // measure 6
1000
0000
1000
0010
0100
0000
0000
0000
,  // measure 7
0001
0000
0001
0100
0010
0000
2000
0000
,  // measure 8
3002
0000
0000
0000
1003
0100
1000
0100
,  // measure 9
2000
0010
3010
0110
,  // measure 10
0002
0000
1003
0000
,  // measure 11
0002
0100
0103
0110
,  // measure 12
2000
0000
3001
0000
,  // measure 13
1000
0010
0100
0010
1000
0000
0002
0000
,  // measure 14
0023
0000
0000
0000
0130
0000
1000
0100
,  // measure 15
0020
0000
0130
2000
,  // measure 16
3200
0000
0310
0001
,  // measure 17
1000
0000
0000
1100
0000
2000
0000
0000
,  // measure 18
3001
0000
0000
0011
0000
0002
0000
0000
,  // measure 19
1003
0100
0001
0100
,  // measure 20
1000
0010
0001
0010
,  // measure 21
1000
0100
0010
0001
,  // measure 22
0100
0010
0100
0010
1000
0001
2000
0000
,  // measure 23
3001
0010
1000
0010
,  // measure 24
0001
0100
1000
0100
,  // measure 25
0001
0010
0100
1000
,  // measure 26
0002
0000
0000
0000
1003
0100
0010
0001
,  // measure 27
1000
0000
0000
1001
0000
0100
0010
1000
,  // measure 28
0001
0000
0000
1001
0000
0010
0100
0001
,  // measure 29
1000
0000
0000
1001
0000
0010
0100
1000
,  // measure 30
0001
0000
0000
1001
0000
0100
0010
0001
,  // measure 31
1000
0000
0000
1001
0000
0100
0010
1000
,  // measure 32
0001
0000
0000
1001
0000
0010
0100
0001
,  // measure 33
2000
0000
0000
0000
0000
3001
0010
0100
,  // measure 34
2000
0000
0001
3001
,  // measure 35
0100
0001
1000
0000
0100
0000
1100
0000
,  // measure 36
0100
0001
1000
0000
0100
0000
1100
0000
,  // measure 37
0001
0010
0100
0000
0010
0000
0011
0000
,  // measure 38
0001
0010
0100
1000
0010
0000
0110
0000
,  // measure 39
1000
0001
0100
0000
0010
0000
0110
0000
,  // measure 40
1000
0001
0100
0000
0010
0000
0110
0000
,  // measure 41
1000
0100
0010
0000
0100
0000
1100
0000
,  // measure 42
0002
0000
0000
1003
0100
0010
0001
1000
,  // measure 43
0001
0010
0100
0000
0110
0000
1000
0100
,  // measure 44
0020
0000
0130
0000
,  // measure 45
1000
0100
0010
0000
0110
0000
0001
0010
,  // measure 46
0200
0000
0000
0000
0310
0000
0001
1000
,  // measure 47
0010
0100
0010
0100
0010
0000
0110
0000
,  // measure 48
1002
0000
0000
0000
1003
0000
0001
0010
,  // measure 49
0100
0000
0110
0000
1000
0010
0100
0001
,  // measure 50
2000
0000
0000
0000
3001
0010
0100
0000
,  // measure 51
0110
1001
0110
1001
,  // measure 52
0200
0000
0000
0010
0310
1000
0001
0000
,  // measure 53
1001
0000
0000
0000
;

//---------------dance-single - ----------------
#NOTES:
     dance-single:
     :
     Hard:
     7:
     0.517,0.554,0.471,0.338,0.253: // measure 1
1000
0100
0001
0100
2000
0000
0000
0000
,  // measure 2
3001
0100
1000
0100
0002
0000
0000
0000
,  // measure 3
1003
0010
0001
0010
2000
0000
3010
0000
,  // measure 4
0210
0001
0301
1001
,  // measure 5
0001
0010
1000
0010
0001
0000
0100
0100
,  // measure 6
0001
1000
0100
0010
0100
0000
1000
1000
,  // measure 7
0001
0100
1000
0100
0002
0000
0103
0000
,  // measure 8
0120
0000
1000
0000
1030
0100
0010
0001
,  // measure 9
2000
0000
0000
0100
0000
0000
3100
0000
0010
0000
0000
0001
0000
0000
0100
0000
,  // measure 10
0002
0000
0000
0010
0000
0000
0013
0000
0100
0000
0000
1000
0000
0000
0010
0000
,  // measure 11
0200
0000
0000
0001
0000
0000
0301
0000
1000
0000
0000
0100
0000
0000
0010
0000
,  // measure 12
0200
0000
0000
1000
0000
0000
1300
0000
0010
0000
0000
0100
0000
0000
0001
0000
,  // measure 13
2000
0000
0000
0100
0000
0000
3100
0000
0010
0000
0000
0100
0000
0000
1000
0000
,  // measure 14
0002
0000
0000
0010
0000
0000
0013
0000
0100
0000
0000
0010
0000
0000
0001
0000
,  // measure 15
1000
0100
0001
0100
1000
0000
1100
0000
,  // measure 16
0001
0010
1000
0010
0001
0000
0011
0000
,  // measure 17
1100
0000
0000
0100
0000
0000
0110
0000
0000
0000
0001
0000
0000
1000
0000
0000
,  // measure 18
0011
0000
0000
0010
0000
0000
0110
0000
0000
0000
1000
0000
0001
0000
0010
0000
,  // measure 19
0100
0000
0000
0100
0000
0000
0100
0000
1000
0000
0000
1000
0000
0000
1000
0000
,  // measure 20
0001
0000
0000
0001
0000
0000
0001
0000
0010
0000
0000
0010
0000
0000
0010
0000
,  // measure 21
0100
0000
0000
0100
0000
0000
0100
0000
1000
0000
0000
1000
0000
0000
1000
0000
,  // measure 22
0001
0010
1000
0010
0100
1000
0002
0000
,  // measure 23
1003
0000
0000
1000
0000
0000
1000
0000
0010
0000
0000
0010
0000
0000
0010
0000
,  // measure 24
0100
0000
0000
0100
0000
0000
0100
0000
0001
0000
0000
0001
0000
0000
0001
0000
,  // measure 25
0010
0000
0000
0010
0000
0000
0010
0000
0100
0000
0000
0100
0000
0000
0100
0000
,  // measure 26
0010
0000
0000
0010
0000
0000
0010
0000
0001
0000
1000
0000
0100
0000
0010
0000
,  // measure 27
1001
0000
0000
1001
0000
0000
1001
0000
0000
0000
0001
0000
0010
0000
0100
0000
,  // measure 28
1001
0000
0000
1001
0000
0000
1001
0000
0000
0000
1000
0000
0100
0000
0010
0000
,  // measure 29
1001
0000
0000
1001
0000
0000
1001
0000
0000
0000
0100
0000
1000
0000
0001
0000
,  // measure 30
0011
0000
0000
0011
0000
0000
1001
0000
0000
0000
0010
0000
0001
0000
1000
0000
,  // measure 31
1100
0000
0000
1100
0000
0000
1001
0000
0000
0000
0010
0000
1000
0000
0001
0000
,  // measure 32
0101
0000
0000
0101
0000
0000
1001
0000
0000
0000
0100
0000
0001
0000
1000
0000
,  // measure 33
1010
0000
0000
1010
0000
0000
1010
0000
0000
0000
0100
0000
0010
0000
0001
0000
,  // measure 34
1001
0000
0000
1001
0000
0000
1001
0000
0000
0000
0000
0000
2000
0000
0000
0000
,  // measure 35
3001
0000
0000
0100
0000
0000
0010
0000
2020
0000
3030
0000
0202
0000
0303
0000
,  // measure 36
1000
0000
0000
0100
0000
0000
0010
0000
0022
0000
0033
0000
2200
0000
3300
0000
,  // measure 37
0001
0000
0000
0010
0000
0000
0100
0000
2200
0000
3300
0000
0022
0000
0033
0000
,  // measure 38
1000
0100
0001
0100
1000
0000
1100
0000
,  // measure 39
1001
0000
0000
0010
0000
0000
0100
0000
0202
0000
0303
0000
2020
0000
3030
0000
,  // measure 40
0001
0000
0000
0010
0000
0000
0100
0000
2200
0000
3300
0000
0022
0000
0033
0000
,  // measure 41
1000
0000
0000
0100
0000
0000
0010
0000
0022
0000
0033
0000
2200
0000
3300
0000
,  // measure 42
0001
0000
0000
0010
0000
0000
1000
0000
0010
0000
0001
0000
1000
0000
0100
0000
,  // measure 43
1100
0000
0000
0100
0000
0000
1000
0000
0001
0000
0100
0001
0000
0000
1000
0000
,  // measure 44
0100
0010
0001
0100
0110
0000
0100
0100
,  // measure 45
0001
0000
0000
0100
0000
0000
0001
0000
1000
0000
0010
1000
0000
0000
0001
0000
,  // measure 46
0010
0100
1000
0010
0110
0000
0010
0010
,  // measure 47
1000
0000
0000
0010
0000
0000
1000
0000
0001
0000
0010
0001
0000
0000
0010
0000
,  // measure 48
0100
1000
0001
0100
0110
0000
0010
0010
,  // measure 49
0001
0000
0000
0010
0000
0000
0001
0000
1000
0000
0000
0100
0000
0000
1000
0000
,  // measure 50
1010
0000
0000
0010
0000
0000
0100
0000
0001
0000
0010
0000
0100
0000
1000
0000
,  // measure 51
0001
0000
0100
0001
0000
0100
0001
0000
1000
0100
0000
1000
0100
0000
1000
0000
,  // measure 52
0001
0000
0000
0001
0000
0000
0001
0000
1000
0000
0100
0000
0010
0000
0000
0000
,  // measure 53
1001
0000
0000
0000
;

//---------------dance-single - ----------------
#NOTES:
     dance-single:
     :
     Challenge:
     8:
     0.614,0.554,0.444,0.258,0.480:
0101
0000
0000
0001
0000
0000
1000
0000
0200
0000
0000
0000
0010
0000
0000
0000
,
1300
0000
0000
1000
0000
0000
0001
0000
0020
0000
0000
0000
0100
0000
0000
0000
,
0031
0000
0000
0001
0000
0000
1000
0000
0200
0000
0000
0000
0320
0000
0000
0000
,
0031
0010
0100
1000
0010
0000
1001
0000
,
1000
0000
0001
0100
0000
0001
0100
0000
0001
0000
0000
0000
1000
0000
1000
0000
,
0001
0000
1000
0100
0000
1000
0100
0000
1000
0000
0000
0000
0001
0000
0001
0000
,
1000
0000
0010
0100
0000
0010
0100
0000
0001
0000
0000
0000
1000
0000
0010
0000
,
0200
0000
0000
0001
0000
0000
0301
0000
1000
0010
1000
0010
1000
0000
0000
0000
,
2001
0000
0000
0001
0000
0000
3001
0000
1000
0100
0000
1000
0100
0000
0010
0000
,
0002
0000
0000
0100
0000
0000
0103
0000
0010
1000
0010
1000
0010
0000
1000
0000
,
0002
0000
0000
0010
0000
0000
0013
0000
0100
0000
0010
0100
0010
0000
0100
0000
,
2000
0000
0000
0010
0000
0000
3010
0000
0100
0000
0010
0100
0010
0000
1000
0000
,
0002
0000
0000
0010
0000
0000
0013
0000
0100
1000
0000
0100
1000
0000
0001
0000
,
0200
0000
0000
0010
0000
0000
0310
0000
1000
0001
1000
0001
1000
0000
0001
0000
,
1000
0100
0010
0100
1000
0000
0010
1000
,
0001
0000
0010
0000
0100
0000
0010
0000
0001
0000
1000
0000
0010
0100
0010
0100
,
0020
0000
0000
1000
0000
0000
0130
0000
0000
0000
1100
0000
0000
0011
0000
0000
,
0200
0000
0000
0001
0000
0000
0310
0000
0000
0000
0001
0000
0010
0000
0100
0000
,
2000
0000
0000
0010
0000
0000
3010
0000
0200
0000
0000
0001
0000
0000
0301
0000
,
2000
0000
0000
0100
0000
0000
3100
0000
0020
0000
0000
0001
0000
0000
0031
0000
,
0200
0000
0000
0010
0000
0000
0310
0000
2000
0000
0000
0001
0000
0000
3001
0000
,
1000
0100
1000
0000
0001
0100
0001
0000
0100
0010
0100
0010
0200
0000
0000
0000
,
0302
0000
0000
0100
0000
0000
0103
0000
0020
0000
0000
1000
0000
0000
1030
0000
,
0002
0000
0000
0010
0000
0000
0013
0000
0200
0000
0000
1000
0000
0000
1300
0000
,
0020
0000
0000
0100
0000
0000
0130
0000
0002
0000
0000
1000
0000
0000
1003
0000
,
0020
0000
0000
0100
0000
0000
0130
0000
0001
0000
0010
0000
0100
0000
1000
0000
,
1001
0000
0000
0110
0000
0000
1001
0000
0000
0000
1000
0100
1000
0000
0001
0000
,
1001
0000
0000
0110
0000
0000
1001
0000
0000
0000
0001
0010
0001
0000
1000
0000
,
1100
0000
0000
0011
0000
0000
1001
0000
0000
0000
1000
0010
1000
0000
0001
0000
,
0101
0000
0000
1010
0000
0000
1001
0000
1000
0000
0001
0100
0001
0000
1000
0000
,
1100
0000
0000
0110
0000
0000
0011
0000
0000
0000
1000
0001
1000
0000
0001
0000
,
0101
0000
0000
0110
0000
0000
1010
0000
0000
0000
0100
0010
0100
0000
0001
0000
,
1001
0000
0000
0110
0000
0000
1001
0000
0000
0000
0010
0100
0010
0000
1000
0000
,
1001
0000
0000
0110
0000
0000
1001
0000
0001
0000
1000
0001
1000
0001
1000
0000
,
0010
0000
1000
0010
0000
0100
0010
0000
1010
0000
0010
0000
0110
0000
0000
0000
,
0100
0000
0001
0100
0000
0010
0100
0000
0101
0000
0100
0000
0110
0000
0000
0000
,
1000
0000
0001
0100
0000
0010
0100
0000
0101
0000
0100
0000
0110
0000
1000
0000
,
0002
0000
0000
0010
0000
0000
1003
0000
1010
0000
0010
0000
0110
0000
0000
0000
,
1001
0000
0001
0100
0000
0010
0100
0000
0101
0000
0100
0000
0110
0000
0000
0000
,
0001
0000
1000
0010
0000
0100
0010
0000
1010
0000
0010
0000
0110
0000
0000
0000
,
1000
0000
0001
0100
0000
0010
0100
0000
0101
0000
0100
0000
0110
0000
1000
0000
,
0002
0000
0000
0100
0000
0000
1003
0000
0010
0100
0010
0100
0010
0100
0010
0100
,
0010
0000
1000
0001
0000
0100
0001
0000
1000
0000
0100
1000
0100
0000
1000
0000
,
0001
0000
0100
0000
1000
0000
0100
0000
0001
0000
0100
0010
0100
0000
0001
0000
,
1000
0000
0001
1000
0000
0001
0100
0000
0001
0000
0100
0001
0100
0000
0001
0000
,
1000
0000
0100
0000
0001
0000
0100
0000
1000
0000
0010
0100
0010
0000
1000
0000
,
0001
0000
0100
0001
0000
1000
0100
0000
1000
0000
0010
0100
0010
0000
1000
0000
,
0001
0000
0010
0000
1000
0000
0010
0000
0001
0000
1000
0100
1000
0000
0001
0000
,
1001
0000
0100
1000
0000
0001
0100
0000
0001
0000
0100
0010
0100
0000
0001
0000
,
1001
0000
0100
0001
0000
1000
0100
0000
1000
0000
0010
0100
0010
0000
1000
0000
,
1001
0000
0100
1000
0000
1000
0100
0000
0010
0001
0000
0001
0100
0000
0010
0000
,
0110
0000
0000
0110
0000
0000
0100
0000
0001
0000
0100
0000
1000
0000
0000
0000
,
1001
0000
0000
0000
;

//---------------dance-single - ----------------
#NOTES:
     dance-single:
     :
     Beginner:
     1:
     0.076,0.139,0.098,0.000,0.000: // measure 1
1000
0000
0000
0000
,  // measure 2
0001
0000
0000
0000
,  // measure 3
1000
0000
0000
0000
,  // measure 4
0010
0000
0000
0000
,  // measure 5
0010
0000
0000
0000
,  // measure 6
0100
0000
0000
0000
,  // measure 7
0010
0000
0000
0000
,  // measure 8
0010
0000
0000
0000
,  // measure 9
1001
0000
0000
0000
,  // measure 10
0001
0000
0000
0000
,  // measure 11
0001
0000
0000
0000
,  // measure 12
1000
0000
0000
0000
,  // measure 13
1000
0000
0000
0000
,  // measure 14
1000
0000
0000
0000
,  // measure 15
0010
0000
0000
0000
,  // measure 16
0100
0000
0000
0000
,  // measure 17
1001
0000
0000
0000
,  // measure 18
0000
0000
0000
0000
,  // measure 19
0001
0000
0000
0000
,  // measure 20
0000
0000
0000
0000
,  // measure 21
1000
0000
0000
0000
,  // measure 22
0001
0000
0000
0000
,  // measure 23
0100
0000
0000
0000
,  // measure 24
0100
0000
0000
0000
,  // measure 25
0010
0000
0000
0000
,  // measure 26
0100
0000
0000
0000
,  // measure 27
1001
0000
0000
0000
,  // measure 28
1001
0000
0000
0000
,  // measure 29
1001
0000
0000
0000
,  // measure 30
1001
0000
0000
0000
,  // measure 31
1001
0000
0000
0000
,  // measure 32
1001
0000
0000
0000
,  // measure 33
0001
0000
0000
0000
,  // measure 34
1000
0000
0000
0000
,  // measure 35
0001
0000
0000
0000
,  // measure 36
0010
0000
0000
0000
,  // measure 37
0100
0000
0000
0000
,  // measure 38
1000
0000
0000
0000
,  // measure 39
1001
0000
0000
0000
,  // measure 40
1000
0000
0000
0000
,  // measure 41
0001
0000
0000
0000
,  // measure 42
1000
0000
0000
0000
,  // measure 43
1001
0000
0000
0000
,  // measure 44
0000
0000
0000
0000
,  // measure 45
0010
0000
0000
0000
,  // measure 46
0000
0000
0000
0000
,  // measure 47
0100
0000
0000
0000
,  // measure 48
0010
0000
0000
0000
,  // measure 49
0100
0000
0000
0000
,  // measure 50
1001
0000
0000
0000
,  // measure 51
0001
0000
0000
0000
,  // measure 52
1000
0000
0000
0000
,  // measure 53
1000
0000
0000
0000
;
