#TITLE:Geiselhaus;
#SUBTITLE:;
#ARTIST:Sarastro;
#TITLETRANSLIT:;
#SUBTITLETRANSLIT:;
#ARTISTTRANSLIT:;
#CREDIT:DigiMindAxel;
#BANNER:Geiselhaus.png;
#BACKGROUND:Geiselhaus-bg.png;
#LYRICSPATH:;
#CDTITLE:pop'n music.png;
#MUSIC:Geiselhaus.mp3;
#OFFSET:-5.900;
#SAMPLESTART:11.227;
#SAMPLELENGTH:12.000;
#SELECTABLE:YES;
#BPMS:0.000=90.000,72.000=180.000;
#STOPS:;
#BGCHANGES:;

//---------------dance-single - ----------------
#NOTES:
     dance-single:
     :
     Easy:
     3:
     0.245,0.286,0.208,0.199,0.000:
2000
0000
0000
3000
,
0000
1001
0000
1001
0000
1001
0000
0000
,
1001
1000
0001
0000
,
0100
0001
0100
0000
,
0010
1000
0010
0000
,
0100
0100
0110
0100
,
0020
0000
0230
0000
,
0301
0010
0100
0000
,
2000
0000
3002
0000
,
0103
0000
0000
0000
,
0000
0000
0000
0000
,
0110
0100
0110
0010
,
1000
0100
0010
0001
,
0110
0100
0110
0010
,
1000
0001
2000
0000
,
3001
1000
0002
0000
,
0203
0000
0320
0000
,
0230
0000
0302
0000
,
1003
0100
1000
0100
,
1000
0001
1000
0001
,
0100
0001
0100
0001
,
0100
0010
0100
0010
,
1000
0100
0000
1000
,
0100
0010
0000
0001
,
2000
0000
0001
0000
,
0001
0000
3001
0000
,
0001
0010
0000
0001
,
0010
0100
0000
1000
,
0002
0000
1000
0000
,
1000
0000
1003
0000
,
0000
1001
0000
1001
,
0000
1001
0000
1001
,
0000
0110
0000
0110
,
0000
0110
0000
0110
,
0000
0001
0000
1000
,
0100
0010
0000
0001
,
0010
0100
0000
1000
,
0010
1000
0010
0100
,
0002
0000
0023
0000
,
0230
0000
2300
0000
,
3002
0000
0000
0000
,
1003
0100
0010
0001
,
1000
0000
1001
0000
,
0001
0000
1001
0000
,
1000
0000
0110
0000
,
0001
0000
0110
0000
,
1000
0100
1000
0000
,
0001
0100
0001
0000
,
1000
0010
1000
0000
,
0001
0010
0001
0000
,
0200
0000
0010
0000
,
0010
0000
0010
0000
,
0320
0000
0100
0000
,
0100
0000
0130
0000
,
2000
0000
0001
0000
,
0001
0000
3001
0010
,
0100
1000
0000
1001
,
0000
0110
0000
0010
,
0220
0000
0000
0000
,
0000
0000
0000
0000
,
0330
0000
0000
0000
;

//---------------dance-single - ----------------
#NOTES:
     dance-single:
     :
     Medium:
     5:
     0.361,0.494,0.225,0.260,0.000:
0001
0001
0001
0001
,
0001
1001
0000
0110
0000
1001
0000
1000
,
1001
0000
1100
0000
0100
1000
0100
0000
,
0020
0230
2300
3001
,
0010
0000
0011
0000
0010
0001
0010
0000
,
0200
0320
0032
1003
,
0100
1000
0001
0100
,
0001
0100
0001
0000
1000
0010
1000
0000
,
0001
0000
0010
0100
0010
0000
0001
1000
,
0002
0000
0000
0000
,
0000
0000
0003
0000
,
1000
0001
0100
0001
0000
1000
0100
1000
,
0000
0010
0100
0010
1000
0001
0010
0100
,
2000
0000
3020
0000
0230
0000
0301
0001
,
1000
0000
1000
0010
1000
0000
1000
0000
,
0001
0000
0001
0100
0001
0000
0001
0000
,
0202
0000
0303
1000
2200
0000
3300
0001
,
2002
0000
3003
0000
1000
0100
0010
0001
,
1000
0000
0010
1000
0010
0000
1000
0001
,
1000
0100
0010
0001
,
1000
0000
0010
1000
0010
0000
1000
0001
,
1000
0100
0010
0001
,
1000
0020
0000
0130
,
0001
0020
0000
0031
,
1000
0100
1000
0100
,
0010
0001
0010
0001
,
1000
0020
0000
0130
,
0001
0020
0000
0031
,
1000
0010
1000
0010
,
0100
0001
0100
0001
,
1000
1100
0000
1100
,
0000
0011
0000
0011
,
0000
1010
0000
1010
,
0000
0101
0000
0101
,
0001
0200
0000
0310
,
1000
0200
0000
1300
,
0100
0010
0001
1000
,
0100
0001
0100
1000
,
0001
0000
0100
0001
0100
0000
0010
0100
,
0010
0000
1000
0010
1000
0000
0000
0000
,
0001
1000
0001
1000
,
0001
0010
0001
0000
1000
0100
1000
0100
,
1000
0000
0010
0100
0010
0000
1000
0000
,
0001
0000
0100
0010
0100
0000
0001
0000
,
1000
0000
0010
0100
0010
0000
1000
0000
,
0100
0010
0001
1000
,
0020
0000
0130
0001
,
2000
0000
3001
0010
,
0200
0000
0310
0001
,
1000
0100
1000
0001
,
0200
0001
0001
0001
,
0001
0001
0301
1000
,
0020
1000
1000
1000
,
1000
1000
1030
0001
,
0200
0010
0010
0010
,
0310
1010
0110
0101
,
1001
1100
0000
0101
,
0000
1100
0000
1001
,
2002
0000
0000
0000
,
0000
0000
0000
0000
,
3003
0000
0000
0000
;

//---------------dance-single - ----------------
#NOTES:
     dance-single:
     :
     Hard:
     8:
     0.579,0.624,0.147,0.191,0.217: // measure 1
1000
0100
1000
0100
0010
0001
0010
0001
,  // measure 2
0100
0000
0101
0000
0000
0000
0101
0000
0000
0000
1100
0000
1000
0000
0001
1000
,  // measure 3
0001
0000
0100
0001
0100
0000
0010
1000
0010
0000
1000
0000
0011
0000
0000
0000
,  // measure 4
0100
0000
0010
0100
0010
0000
1000
0001
1000
0000
0010
0100
0001
1000
0001
1000
,  // measure 5
0001
0000
0100
0001
0100
0000
0010
1000
0010
0000
1000
0000
0011
0000
0000
0000
,  // measure 6
0100
0000
0010
0100
0010
0000
1000
0001
1000
0000
0010
0100
0001
1000
0001
1000
,  // measure 7
0001
0100
0001
0100
0010
1000
0010
1000
,  // measure 8
0001
0010
0100
1000
0100
0001
0100
1000
,  // measure 9
0002
0000
0000
0000
0103
0000
0001
0000
0100
0010
0100
0010
1000
0001
1000
0001
,  // measure 10
2000
0000
0000
3200
0000
0000
0000
0302
0000
0000
0103
0000
1000
0000
0010
0000
,  // measure 11
0100
0000
0000
0000
0010
0000
0000
0000
0100
0000
0000
0000
0010
0000
0000
0000
1000
0000
0000
0000
0001
0000
0000
0000
1000
0000
0000
0010
0000
0000
0100
0000
,  // measure 12
0001
0000
0010
0100
1000
0000
0001
0000
0001
0000
0010
0100
1000
0000
0001
0000
,  // measure 13
0001
1000
0001
0010
0100
1000
0100
0000
1000
0001
1000
0100
0010
0001
0010
0000
,  // measure 14
0001
0010
0100
1000
0001
0001
1000
1000
,  // measure 15
0110
0000
0000
0000
0101
0000
0100
0000
0001
0000
0010
0000
0100
0000
1000
0010
,  // measure 16
0100
0000
0000
0000
1010
0000
0010
0000
1000
0000
0100
0000
0010
0000
0001
0100
,  // measure 17
0020
0000
0000
0000
1030
0000
1000
0010
0200
0000
0000
0000
0301
0000
0001
0100
,  // measure 18
0020
0000
0000
0000
1030
0000
1000
0000
0010
0100
0010
0100
0001
1000
0001
1000
,  // measure 19
0001
0100
0001
0000
1000
0100
1000
0000
,  // measure 20
0001
0010
0100
1000
0010
0100
0010
0000
,  // measure 21
1000
0010
1000
0000
0001
0010
0001
0000
,  // measure 22
1000
0100
0010
0001
0100
0010
0100
0000
,  // measure 23
0001
0010
0200
0000
0010
0000
0310
0000
,  // measure 24
1000
0100
0020
0000
0100
0000
0130
0000
,  // measure 25
0001
1000
0001
1000
0001
1000
0001
0010
,  // measure 26
0100
1000
0010
1000
0010
0100
0001
0100
,  // measure 27
0001
0010
0200
0000
0010
0000
0310
0000
,  // measure 28
1000
0100
0020
0000
0100
0000
0130
0000
,  // measure 29
0001
1000
0001
1000
0001
1000
0001
0010
,  // measure 30
0100
1000
0010
1000
0010
0100
0001
0100
,  // measure 31
0001
0000
0000
0000
1000
0100
0000
0000
1000
0000
0000
0000
0001
0100
0000
0000
,  // measure 32
0001
0000
0000
0000
1000
0100
0000
0000
1000
0000
0000
0000
0001
0100
0000
0000
,  // measure 33
0001
0000
0000
0000
1000
0010
0000
0000
1000
0000
0000
0000
0001
0010
0000
0000
,  // measure 34
0001
0000
0000
0000
1000
0010
0000
0000
1000
0000
0010
0000
0100
0000
0000
0000
,  // measure 35
0001
0010
0200
0000
0310
0000
1100
0000
,  // measure 36
1000
0100
0020
0000
0130
0000
0011
0000
,  // measure 37
0001
1000
0001
1000
0001
1000
0001
1000
,  // measure 38
0020
0000
0000
1030
0100
0001
0100
1000
,  // measure 39
0001
0000
1000
0100
0001
0000
0100
1000
,  // measure 40
0001
0000
1000
0100
0001
0000
0100
1000
,  // measure 41
0010
0100
0010
0100
0010
0100
0010
0100
,  // measure 42
0001
0010
0100
1000
0100
0001
0100
1000
,  // measure 43
0020
0000
1030
0100
0020
0000
0031
0010
,  // measure 44
0200
0000
1300
0100
0020
0000
0031
0010
,  // measure 45
0200
0000
1300
0100
0020
0000
0031
0010
,  // measure 46
0100
1100
0101
0110
,  // measure 47
0100
0001
0010
0001
0100
0001
0010
0100
,  // measure 48
1000
0010
0100
0010
1000
0100
0010
0001
,  // measure 49
0100
0010
0001
0010
0100
0001
0010
0100
,  // measure 50
1000
0010
0100
1000
0100
0010
1000
0001
,  // measure 51
1000
0100
0010
0100
1000
0100
0001
0100
,  // measure 52
1000
0100
0010
0100
1000
0100
0010
0000
,  // measure 53
0001
0010
0100
0010
0001
0010
1000
0010
,  // measure 54
0001
0010
0100
0010
0001
0010
0100
0000
,  // measure 55
1000
0100
0010
0100
1000
0001
0010
0100
,  // measure 56
0010
0001
0100
0000
0101
0000
1100
0000
,  // measure 57
0110
0000
0000
0000
0001
1000
0000
0000
0000
0000
0000
0000
0010
0100
0000
0000
,  // measure 58
0000
0000
0000
0000
0001
1000
0000
0000
0000
0000
0000
0000
0010
0100
0000
0000
,  // measure 59
2002
0000
0000
0000
,  // measure 60
0000
0000
0000
0000
,  // measure 61
3003
0000
0000
0000
;

//---------------dance-single - ----------------
#NOTES:
     dance-single:
     :
     Beginner:
     1:
     0.072,0.151,0.052,0.000,0.000:
1000
0000
0000
0000
,
0000
0000
0000
0000
,
1001
0000
0001
0000
,
1000
0000
0001
0000
,
0001
0000
1000
0000
,
1000
0000
0000
0000
,
0010
0000
0000
0000
,
0100
0000
0000
0000
,
0010
0000
0000
0000
,
0110
0000
0000
0000
,
0000
0000
0000
0000
,
1000
0000
1000
0000
,
1000
0000
0000
0000
,
0001
0000
0001
0000
,
0001
0000
0000
0000
,
0100
0000
0000
0000
,
0010
0000
0100
0000
,
0010
0000
0000
0000
,
1000
0000
0000
0000
,
0001
0000
0000
0000
,
1000
0000
0000
0000
,
1000
0000
0000
0000
,
0001
0000
0000
0000
,
0001
0000
0000
0000
,
1000
0000
0000
0000
,
0001
0000
0000
0000
,
0100
0000
0000
0000
,
0100
0000
0000
0000
,
0010
0000
0000
0000
,
0100
0000
0000
0000
,
0000
0010
0000
0000
,
0000
0000
0000
0000
,
0000
0010
0000
0000
,
0000
0000
0000
0000
,
0100
0000
0000
0000
,
0100
0000
0000
0000
,
0001
0000
0000
0000
,
0000
0000
0000
0000
,
1000
0000
0000
0000
,
0000
0000
0000
0000
,
0001
0000
0000
0000
,
0000
0000
0000
0000
,
1000
0000
0000
0000
,
0000
1000
0000
0000
,
1000
0000
0000
0000
,
1000
0000
0000
0000
,
0001
0000
0000
0000
,
0000
0000
0000
0000
,
0001
0000
0000
0000
,
0000
0000
0000
0000
,
1001
0000
0000
0000
,
0000
0000
0000
0000
,
0110
0000
0000
0000
,
0000
0000
0000
0000
,
1001
0000
0000
0000
,
0000
0000
0000
0000
,
1000
0000
0000
0000
,
0000
0000
0000
0000
,
1001
0000
0000
0000
;

//---------------dance-single - ----------------
#NOTES:
     dance-single:
     :
     Challenge:
     9:
     0.698,0.806,0.139,0.095,0.442:
0001
0010
0001
0010
0100
1000
0100
1000
0001
0010
0001
0010
0100
1000
0100
1000
,
0010
0000
0110
0000
0000
0000
1001
0000
0000
0000
0110
0000
1000
0000
1000
0001
,
1000
0000
0100
1000
0100
0000
0010
0100
0010
0000
0100
1000
0100
0000
0010
0000
,
0001
0000
0100
0010
1000
0000
0010
1000
0100
0000
0010
0001
0010
0100
1000
0010
,
0100
0000
0001
0010
0001
0000
0010
0100
0010
0000
0001
0010
0001
0000
1000
0000
,
0010
0000
1000
0010
0100
0000
0001
0010
0100
0000
1000
0100
0010
0001
1000
0010
,
2000
0000
3001
0010
0100
0000
1000
0000
0002
0000
1003
0100
0010
0000
0001
0000
,
0100
0010
0100
0001
0010
1000
0010
0001
,
1001
0000
0000
0000
1000
0000
0010
0000
0100
0001
0010
0100
1000
0001
1000
0001
,
2000
0000
0000
3002
0000
0000
0000
0103
0010
0000
1000
0000
0100
0000
0010
0000
,
0001
0000
0000
0000
0100
0000
0000
0000
0010
0000
0000
0000
0100
0000
0000
0000
0001
0000
0000
0000
1000
0000
0000
0000
0001
0000
0000
0001
0000
0000
0001
0000
,
1000
0000
0001
0100
1000
0000
0100
0000
0101
0000
1000
0100
0001
0000
0100
0000
,
1000
0010
1000
0010
0100
0001
0100
0001
0010
0100
1000
0001
0010
0100
1000
0000
,
0001
0010
0001
0010
0100
1000
0100
1000
0001
0100
0010
1000
0010
0100
0001
0000
,
2000
0000
0001
0000
3001
0000
0100
0001
0100
0000
0010
0100
0010
0000
0100
0001
,
2000
0000
0001
0000
3001
0000
0010
0001
0010
0000
0100
0010
0100
0000
0010
0001
,
2000
0000
0001
0000
3001
0000
0100
1000
0002
0000
1000
0000
1003
0000
0010
0100
,
0002
0000
1000
0000
1003
0000
0100
0010
1000
0100
0010
0001
0010
0100
1000
0010
,
1000
0010
0100
0010
1000
0100
0001
0100
,
1000
0100
0010
0001
0100
0010
0100
0000
,
0001
0100
0010
0100
0001
0100
1000
0100
,
0001
0010
0100
1000
0010
0100
0010
0000
,
1000
0100
0001
0000
0101
0000
1100
0000
,
0001
0100
1000
0000
1100
0000
0101
0000
,
1000
0100
0001
0100
1000
0100
0001
0100
,
1000
0001
0010
0100
0010
0001
0100
0010
,
1000
0100
0001
0000
0101
0000
1100
0000
,
0001
0100
1000
0000
1100
0000
0101
0000
,
1000
0100
0001
0100
1000
0100
0001
0100
,
1000
0001
0010
0100
0010
0001
0100
0010
,
0100
0000
0000
0000
0001
0100
0001
0000
1000
0000
0000
0000
0001
0100
0001
0000
,
1000
0000
0000
0000
0010
0100
0010
0000
1000
0000
0000
0000
0010
0100
0010
0000
,
1000
0000
0001
0000
1000
0100
1000
0000
0001
0000
0000
0000
1000
0100
1000
0000
,
0001
0000
0000
0000
1000
0100
1000
0000
0001
0000
0100
0000
0010
0000
1000
0000
,
0001
0100
0001
0000
1000
0000
0100
0000
1000
0000
0100
0000
1000
0000
0001
0000
,
1000
0010
1000
0000
0001
0000
0010
0000
0001
0000
0010
0000
0001
0000
1000
0000
,
0001
0100
1000
0100
0001
0100
1000
0100
,
0001
0010
0100
1000
0100
0010
0100
1000
,
0001
0100
0001
0000
1000
0000
0100
0000
1000
0000
0010
0000
0100
0000
0001
0000
,
1000
0100
1000
0000
0001
0000
0010
0000
0001
0000
0100
0000
0010
0000
1000
0000
,
0001
1000
0001
0000
0010
0000
1000
0000
0010
0000
0001
0000
0100
0000
0010
0000
,
1000
0100
0010
0001
1000
1000
0001
0001
,
1000
0100
1000
0100
1000
0000
0010
0000
0100
0000
0100
0000
0001
0000
1000
0000
,
0001
0010
0001
0010
0001
0000
0100
0000
0010
0000
0010
0000
1000
0000
0001
0000
,
1000
0010
1000
0010
1000
0000
0100
0000
0010
0000
0010
0000
0001
0000
1000
0000
,
0001
0100
0001
0100
0001
0000
0010
0000
0100
1000
0100
1000
0100
0000
1000
0000
,
0010
0100
0010
0000
1000
0000
0010
0000
0100
0000
0010
0000
1000
0000
0001
0000
,
0100
0010
0100
0000
0001
0000
0100
0000
0010
0000
0100
0000
0001
0000
1000
0000
,
0001
0100
0001
0000
1000
0000
0100
0000
0010
0000
0001
0000
1000
0000
0001
0000
,
1000
0010
1000
0000
0001
0000
0010
0000
0100
0000
1000
0000
0001
1000
0001
0000
,
1000
0010
1000
0000
0001
0000
0010
0000
1000
0000
0010
0000
0001
0000
1000
0000
,
0100
0000
0001
0000
0100
0000
1000
0000
0010
0100
0010
0100
0010
0000
1000
0000
,
0001
0100
0001
0000
1000
0000
0100
0000
0001
0000
0100
0000
1000
0000
0001
0000
,
0010
0000
1000
0000
0010
0000
0001
0000
0100
0010
0100
0010
0100
0000
0001
0000
,
1000
0100
1000
0000
0001
0000
0010
0000
1000
0000
0010
0000
0001
0000
1000
0000
,
0100
0001
0100
1000
0010
0000
0110
0000
,
1001
0000
0000
0000
1000
0100
1000
0000
0001
0000
0010
0000
0100
0010
0100
0000
,
0010
0000
0001
0000
0100
0001
0100
0000
0001
0000
1000
0000
0010
0100
0010
0000
,
2002
0000
0000
0000
,
0000
0000
0000
0000
,
3003
0000
0000
0000
;
