#TITLE:Gee;
#SUBTITLE:;
#ARTIST:Girls' Generation;
#TITLETRANSLIT:;
#SUBTITLETRANSLIT:;
#ARTISTTRANSLIT:;
#CREDIT:DigiMindAxel;
#BANNER:Gee.png;
#BACKGROUND:Gee-bg.png;
#LYRICSPATH:Gee.lrc;
#CDTITLE:DMAxel original simfile.png;
#MUSIC:Gee.mp3;
#OFFSET:-11.200;
#SAMPLESTART:58.540;
#SAMPLELENGTH:12.000;
#SELECTABLE:YES;
#BPMS:0.000=100.000,16.000=200.000;
#STOPS:;
#BGCHANGES:-19.000=Gee.avi=1.000=1=0=1,
99999=-nosongbg-=1.000=0=0=0 // don't automatically add -songbackground-
;

//---------------dance-single - ----------------
#NOTES:
     dance-single:
     :
     Easy:
     4:
     0.279,0.304,0.167,0.147,0.000: // measure 1
2000
0000
0000
3000
,  // measure 2
0200
0000
0000
0300
,  // measure 3
0020
0000
0000
0030
,  // measure 4
0001
1000
0002
0000
,  // measure 5
1003
0001
1000
0000
,  // measure 6
0010
0100
0010
0000
,  // measure 7
1000
0001
1000
0000
,  // measure 8
0100
0000
0010
0000
,  // measure 9
0001
0001
0001
0001
,  // measure 10
2002
0000
0000
3003
,  // measure 11
1000
1000
1000
1000
,  // measure 12
2002
0000
0000
3003
,  // measure 13
1000
0001
1000
0000
,  // measure 14
0010
0100
0010
0000
,  // measure 15
1000
0001
1000
0000
,  // measure 16
0010
0100
0010
0000
,  // measure 17
1000
1000
1000
1000
,  // measure 18
2002
0000
0000
3003
,  // measure 19
0001
0001
0001
0001
,  // measure 20
2002
0000
0000
3003
,  // measure 21
1000
0000
0001
0000
,  // measure 22
1000
0000
0100
0000
,  // measure 23
0010
0000
0001
0000
,  // measure 24
1000
0000
0001
0000
,  // measure 25
0010
0000
0100
0000
,  // measure 26
1000
0000
0001
0000
,  // measure 27
1000
0000
1000
0000
,  // measure 28
0001
0000
0001
0000
,  // measure 29
0100
0000
0010
0000
,  // measure 30
1000
0000
0010
0000
,  // measure 31
0110
0000
0001
0000
,  // measure 32
0100
0000
0010
0000
,  // measure 33
0110
0000
0001
0000
,  // measure 34
0010
0000
0100
0000
,  // measure 35
1000
0001
1000
0001
,  // measure 36
1000
0000
0000
0000
,  // measure 37
0001
0000
1001
0000
,  // measure 38
2000
0000
3001
0000
,  // measure 39
0001
0001
0001
0001
,  // measure 40
1001
0000
1000
0000
,  // measure 41
0010
0000
1000
0000
,  // measure 42
0001
0000
0100
0000
,  // measure 43
0010
0010
0010
0010
,  // measure 44
0110
0000
1000
0001
,  // measure 45
1000
0000
1001
0000
,  // measure 46
1000
0000
0001
1000
,  // measure 47
0010
0010
0010
0010
,  // measure 48
0110
0000
0010
0000
,  // measure 49
1000
0000
0001
0000
,  // measure 50
0010
0000
0100
0000
,  // measure 51
1000
0000
0001
0000
,  // measure 52
0100
0010
0100
0010
,  // measure 53
0100
0000
1001
0000
,  // measure 54
0001
0000
1000
0000
,  // measure 55
0010
0010
0010
0010
,  // measure 56
0110
0000
0100
0000
,  // measure 57
0001
0000
1000
0000
,  // measure 58
0001
0000
1000
0000
,  // measure 59
0010
0010
0010
0010
,  // measure 60
0110
0000
0100
0000
,  // measure 61
0100
0000
1001
0000
,  // measure 62
1000
0000
0001
0000
,  // measure 63
0100
0100
0100
0100
,  // measure 64
0110
0000
0001
0100
,  // measure 65
0001
0000
1000
0000
,  // measure 66
0001
0000
1000
0010
,  // measure 67
1000
0000
0010
0100
,  // measure 68
0010
0010
0010
0000
,  // measure 69
2002
0000
0000
0000
,  // measure 70
3003
0000
0000
0000
;

//---------------dance-single - ----------------
#NOTES:
     dance-single:
     :
     Hard:
     7:
     0.549,0.575,0.774,0.157,0.000: // measure 1
1000
0100
0000
0100
0000
0100
1000
1000
,  // measure 2
0001
0010
0000
0010
0000
0010
0001
0001
,  // measure 3
1000
0100
0000
0100
0000
0100
1000
1000
,  // measure 4
1010
0000
0101
0000
1001
1000
0001
0001
,  // measure 5
1000
0000
0100
0000
0001
0000
0100
2000
,  // measure 6
0000
3001
0100
0010
,  // measure 7
1000
0000
0100
0000
0001
0000
0100
2000
,  // measure 8
0000
3010
0100
0010
,  // measure 9
0101
0101
0101
0101
,  // measure 10
1000
0000
0010
0100
0000
0010
0100
0000
,  // measure 11
1010
1010
1010
1010
,  // measure 12
0001
0000
0100
0010
0000
0100
0010
0000
,  // measure 13
1000
0001
1000
0000
0100
0000
0001
0200
,  // measure 14
0000
1300
0010
0100
,  // measure 15
0001
1000
0001
0000
0100
0000
1000
0200
,  // measure 16
0000
0301
1000
0001
,  // measure 17
0011
0011
0011
0011
,  // measure 18
1000
0000
0010
0100
0000
0010
0100
0000
,  // measure 19
1100
1100
1100
1100
,  // measure 20
0001
0000
0100
0010
0000
0100
0010
0100
,  // measure 21
0002
0000
0100
0000
0103
0000
0100
0010
,  // measure 22
0100
0000
0001
1000
0001
0000
0001
0000
,  // measure 23
2000
0000
0010
0000
3010
0000
0010
0100
,  // measure 24
0010
0000
1000
0001
1000
0000
1000
0000
,  // measure 25
0010
0100
0010
0100
0010
0100
0010
0000
,  // measure 26
1010
0000
0100
0000
0101
0000
1000
0100
,  // measure 27
1000
1001
0001
1001
,  // measure 28
0100
0010
0100
0000
0001
1000
0001
0000
,  // measure 29
1001
0000
0000
0000
0000
0000
1000
0010
,  // measure 30
1000
0010
1000
0000
1001
0000
0110
0000
,  // measure 31
1001
0000
0000
0000
0000
0000
0001
0100
,  // measure 32
0001
0100
0001
0000
1001
0000
0110
0000
,  // measure 33
1001
0000
0000
1000
,  // measure 34
1000
0000
1001
0000
0010
0001
0010
0001
,  // measure 35
0100
0010
0100
0000
0001
1000
0001
0000
,  // measure 36
1001
0000
0100
0100
,  // measure 37
0110
0000
0000
0000
1001
0000
0100
2000
,  // measure 38
0000
3001
0010
0100
,  // measure 39
1100
1001
1100
1001
,  // measure 40
1100
0000
1000
0100
,  // measure 41
0010
0000
1001
0000
0001
0000
0010
0002
,  // measure 42
0000
1003
0100
1000
,  // measure 43
0101
1001
0101
1001
,  // measure 44
0101
0000
0100
0100
,  // measure 45
0110
0000
0000
0000
1001
0000
0010
0002
,  // measure 46
0000
1003
0010
0100
,  // measure 47
0101
1001
0101
1001
,  // measure 48
0101
0000
1000
1000
,  // measure 49
0010
1000
0010
0000
1000
0000
0110
0000
,  // measure 50
1001
0000
0001
0001
,  // measure 51
0100
0001
0100
0000
0110
0000
1001
0000
,  // measure 52
1001
0110
0101
1100
,  // measure 53
1001
0000
0000
0000
1001
0000
0010
2000
,  // measure 54
0000
0000
3001
0000
0100
0001
0100
0000
,  // measure 55
0110
0110
1001
1001
,  // measure 56
0110
0000
0100
0010
,  // measure 57
1000
0000
1000
0000
0001
0000
0100
0002
,  // measure 58
0000
0000
1003
0000
0100
1000
0100
0000
,  // measure 59
1000
0001
1000
0000
0100
1000
0100
0000
,  // measure 60
0010
0001
0010
0000
1001
0000
0110
0000
,  // measure 61
1001
0000
0000
0000
1001
0000
0010
0002
,  // measure 62
0000
0000
1003
0000
0010
1000
0010
0000
,  // measure 63
1001
0110
1001
0110
,  // measure 64
1001
0000
0000
0000
0100
1000
0100
0000
,  // measure 65
2000
0000
0000
3001
0000
0000
0100
0000
,  // measure 66
0110
0000
0000
0000
0010
0001
0010
0000
,  // measure 67
0002
0000
0000
1003
0000
0000
0010
0100
,  // measure 68
0010
1000
0001
0000
1001
0000
0000
0000
,  // measure 69
2002
0000
0000
0000
,  // measure 70
3003
0000
0000
0000
;

//---------------dance-single - ----------------
#NOTES:
     dance-single:
     :
     Challenge:
     8:
     0.626,0.710,0.627,0.167,0.015: // measure 1
0001
0000
0100
0000
0001
0000
0100
0000
0010
0000
1000
0100
1000
0000
0001
0000
,  // measure 2
1000
0000
0010
0000
1000
0000
0010
0000
0100
0000
0001
0010
0001
0000
1000
0000
,  // measure 3
0001
0000
0010
0000
0001
0000
0010
0000
0001
0000
1000
0010
1000
0000
0001
0000
,  // measure 4
0101
0100
0101
0100
1100
0001
0001
0001
,  // measure 5
1000
0010
1000
0010
1000
0000
0001
0200
,  // measure 6
0000
0301
0010
0100
1000
0000
1001
0000
,  // measure 7
0001
0100
0001
0100
0001
0000
1000
0020
,  // measure 8
0000
1030
0010
0110
,  // measure 9
0001
0100
0001
0100
0001
0010
0100
1000
,  // measure 10
0001
0000
0100
0010
0000
1000
0001
0000
,  // measure 11
1000
0010
1000
0010
1000
0100
0010
0001
,  // measure 12
1000
0000
0010
0100
0000
0001
1000
0000
,  // measure 13
0001
0010
0001
0010
0001
0000
0100
0020
,  // measure 14
0000
1030
0100
0010
0001
0000
1001
0000
,  // measure 15
1000
0100
1000
0100
1000
0000
0010
0200
,  // measure 16
0000
0301
0110
1001
,  // measure 17
1000
0100
1000
0100
1000
0010
0100
0001
,  // measure 18
1000
0000
0010
0100
0000
0001
1000
0000
,  // measure 19
0001
0010
0001
0010
0001
1000
0010
0100
,  // measure 20
0002
0000
1000
1003
0000
1000
0010
0100
,  // measure 21
0002
0000
1000
0000
1003
0000
0100
1000
,  // measure 22
0001
0100
0001
0000
0101
0000
1001
0000
,  // measure 23
2000
0000
0001
0000
3001
0000
0010
0001
,  // measure 24
1000
0010
1000
0000
1010
0000
1001
0000
,  // measure 25
0100
1000
0100
1000
0001
0100
0001
0100
,  // measure 26
0001
1001
1000
1100
,  // measure 27
0010
0001
0010
0000
0001
1000
0001
0000
,  // measure 28
1000
0100
0001
0100
,  // measure 29
1001
0000
0001
0100
0001
0000
0100
0001
,  // measure 30
0010
0100
1000
0000
1001
0000
0110
0000
,  // measure 31
1001
0000
1000
0010
1000
0000
0010
1000
,  // measure 32
0100
0010
0001
0000
1001
0000
0110
0000
,  // measure 33
1001
0000
0001
1000
0001
0000
1000
0001
,  // measure 34
0010
0100
1000
0000
0000
0010
0100
0010
,  // measure 35
1000
0100
0010
0000
0001
0010
0100
0000
,  // measure 36
1000
0100
0010
0000
1001
0000
0110
0000
,  // measure 37
1001
0000
0000
0000
1001
0000
1000
0002
,  // measure 38
0000
0000
0103
0000
0010
1000
0100
0000
,  // measure 39
1001
0101
1001
0101
,  // measure 40
1001
0000
0000
0000
0100
1000
0100
0000
,  // measure 41
1001
0000
0001
0000
1000
0000
0001
2000
,  // measure 42
0000
0000
3010
0000
0100
0001
0010
0000
,  // measure 43
0100
1000
0010
0000
0100
0001
0010
0000
,  // measure 44
0100
1000
0010
0000
1001
0000
0110
0000
,  // measure 45
1001
0000
0000
0000
1001
0000
0001
2000
,  // measure 46
0000
0000
3100
0000
0010
0001
0100
0000
,  // measure 47
1001
1100
1001
1100
,  // measure 48
1001
0000
0000
0000
0100
0010
0100
0000
,  // measure 49
0002
1000
1003
0110
,  // measure 50
1001
0000
0000
0000
0010
0100
0010
0000
,  // measure 51
1000
0100
0010
0000
0001
0010
0100
0000
,  // measure 52
1000
0100
0010
0000
1001
0000
0110
0000
,  // measure 53
1001
0000
0000
0000
1001
0000
1000
0002
,  // measure 54
0000
0000
0103
0000
0010
1000
0100
0000
,  // measure 55
1001
1100
1001
1100
,  // measure 56
1001
0000
0000
0000
0100
0010
0100
0000
,  // measure 57
0001
0100
0001
0000
1000
0100
1000
0002
,  // measure 58
0000
0000
0103
0000
0010
1000
0100
0000
,  // measure 59
1000
0100
0010
0000
0001
0010
0100
0000
,  // measure 60
1000
0100
0010
0000
1001
0000
0110
0000
,  // measure 61
1001
0000
0000
0000
1001
0000
0001
2000
,  // measure 62
0000
0000
3100
0000
0010
0001
0100
0000
,  // measure 63
1001
1100
1001
1100
,  // measure 64
1001
0000
0000
0000
0010
1000
0001
0000
,  // measure 65
2000
0001
3001
0110
,  // measure 66
1001
0000
0000
0000
0100
0001
1000
0000
,  // measure 67
0100
1000
0010
0100
0010
0000
0100
0010
,  // measure 68
0100
0001
0010
0100
1000
0000
1001
0000
,  // measure 69
0220
0000
0000
0000
,  // measure 70
0330
0000
0000
0000
;

//---------------dance-single - ----------------
#NOTES:
     dance-single:
     :
     Beginner:
     2:
     0.123,0.167,0.069,0.000,0.000: // measure 1
1000
0000
0000
0000
,  // measure 2
0001
0000
0000
0000
,  // measure 3
1000
0000
0000
0000
,  // measure 4
0000
0000
0000
0000
,  // measure 5
0001
0000
0001
0000
,  // measure 6
0001
0000
0000
0000
,  // measure 7
1000
0000
1000
0000
,  // measure 8
1000
0000
0000
0000
,  // measure 9
0001
0000
1000
0000
,  // measure 10
0001
0000
0000
0000
,  // measure 11
0100
0000
0010
0000
,  // measure 12
0100
0000
0000
0000
,  // measure 13
0010
0000
0010
0000
,  // measure 14
0010
0000
0000
0000
,  // measure 15
0100
0000
0100
0000
,  // measure 16
0100
0000
0000
0000
,  // measure 17
0001
0000
1000
0000
,  // measure 18
0001
0000
0000
0000
,  // measure 19
1000
0000
0001
0000
,  // measure 20
1000
0000
0000
0000
,  // measure 21
0001
0000
0000
0000
,  // measure 22
0000
0000
0000
0000
,  // measure 23
1000
0000
0000
0000
,  // measure 24
0000
0000
0000
0000
,  // measure 25
0001
0000
0000
0000
,  // measure 26
0000
0000
0000
0000
,  // measure 27
1000
0000
1000
0000
,  // measure 28
1000
0000
0000
0000
,  // measure 29
0001
0000
0001
0000
,  // measure 30
0001
0000
0000
0000
,  // measure 31
1000
0000
1000
0000
,  // measure 32
1000
0000
0000
0000
,  // measure 33
0001
0000
0001
0000
,  // measure 34
0001
0000
0000
0000
,  // measure 35
1000
0000
0001
0000
,  // measure 36
1000
0000
0000
0000
,  // measure 37
0000
0000
1001
0000
,  // measure 38
0000
0000
0000
0000
,  // measure 39
0010
0000
0010
0000
,  // measure 40
0010
0000
0000
0000
,  // measure 41
0100
0000
0100
0000
,  // measure 42
0100
0000
0000
0000
,  // measure 43
0001
0000
1000
0000
,  // measure 44
0001
0000
0000
0000
,  // measure 45
0000
0000
1001
0000
,  // measure 46
0000
0000
0000
0000
,  // measure 47
0100
0000
0100
0000
,  // measure 48
0100
0000
0000
0000
,  // measure 49
1001
0000
0000
0000
,  // measure 50
0000
0000
0000
0000
,  // measure 51
0110
0000
0000
0000
,  // measure 52
1000
0000
0000
0000
,  // measure 53
0000
0000
1001
0000
,  // measure 54
0001
0000
0001
0000
,  // measure 55
0001
0000
0000
0000
,  // measure 56
0000
0000
0000
0000
,  // measure 57
1000
0000
1000
0000
,  // measure 58
1000
0000
0000
0000
,  // measure 59
0010
0000
0100
0000
,  // measure 60
0010
0000
0000
0000
,  // measure 61
0000
0000
1001
0000
,  // measure 62
0001
0000
0001
0000
,  // measure 63
0001
0000
0000
0000
,  // measure 64
0000
0000
0000
0000
,  // measure 65
1000
0000
0000
0000
,  // measure 66
0100
0000
0000
0000
,  // measure 67
0010
0000
0000
0000
,  // measure 68
0001
0000
0000
0000
,  // measure 69
1001
0000
0000
0000
;

//---------------dance-single - ----------------
#NOTES:
     dance-single:
     :
     Medium:
     6:
     0.410,0.507,0.519,0.059,0.000: // measure 1
0001
1000
0000
0100
0000
1000
0000
0100
,  // measure 2
1000
0001
0000
0010
0000
0001
0000
0010
,  // measure 3
0001
1000
0000
0010
0000
1000
0000
0001
,  // measure 4
1001
0000
1001
0000
1001
0100
0100
0100
,  // measure 5
0001
1000
0001
1000
,  // measure 6
0100
0010
0001
0000
,  // measure 7
1000
0001
1000
0001
,  // measure 8
0010
0100
1000
0000
,  // measure 9
1001
1001
1001
1001
,  // measure 10
0001
0000
0000
0100
0000
0000
0001
0000
,  // measure 11
1001
1001
1001
1001
,  // measure 12
1000
0000
0000
0010
0000
0000
1000
0000
,  // measure 13
0010
0100
0010
1000
,  // measure 14
0010
0100
0010
0000
,  // measure 15
0100
0010
0100
0001
,  // measure 16
0100
0010
0100
0000
,  // measure 17
1001
1001
1001
1001
,  // measure 18
0100
0000
0000
0001
0000
0000
0100
0000
,  // measure 19
1001
1001
1001
1001
,  // measure 20
0010
0000
0000
1000
0000
0000
0010
0000
,  // measure 21
0100
0001
1000
0100
,  // measure 22
1000
0010
0100
0000
,  // measure 23
0001
0010
0001
0100
,  // measure 24
0001
0010
0001
0000
,  // measure 25
0100
0010
0100
0001
,  // measure 26
0100
0010
0100
0000
,  // measure 27
0010
0100
0010
1000
,  // measure 28
0010
0100
0010
0000
,  // measure 29
1000
0100
0010
0001
,  // measure 30
0100
0100
0100
0001
,  // measure 31
1001
0000
0001
0010
,  // measure 32
0100
1000
0001
1000
,  // measure 33
1001
0000
0001
0000
,  // measure 34
0010
0000
0100
0000
,  // measure 35
1000
0001
1000
0001
,  // measure 36
1000
0000
0010
0010
,  // measure 37
0010
0000
1001
0000
,  // measure 38
1000
0001
0010
0001
,  // measure 39
1001
1001
1001
1001
,  // measure 40
1001
0000
0001
1000
,  // measure 41
0100
1000
0001
0000
,  // measure 42
1000
0000
0010
0100
,  // measure 43
0001
1001
1001
1001
,  // measure 44
1001
0000
0100
0100
,  // measure 45
0100
0000
1001
0000
,  // measure 46
1000
0001
0100
0001
,  // measure 47
1001
1001
1001
1001
,  // measure 48
1001
0000
0001
0010
,  // measure 49
0200
0000
1300
0010
,  // measure 50
0110
0000
1000
0100
,  // measure 51
0020
0000
0031
0100
,  // measure 52
0110
0000
0010
0010
,  // measure 53
0010
0000
1001
0000
,  // measure 54
1000
0010
0100
0001
,  // measure 55
1001
1001
1001
1001
,  // measure 56
1001
0000
0001
0100
,  // measure 57
0010
1000
0010
0100
,  // measure 58
0010
0000
0100
0010
,  // measure 59
1000
1001
1001
1001
,  // measure 60
1001
0000
0010
0010
,  // measure 61
0010
0000
1001
0000
,  // measure 62
1000
0000
0010
0100
,  // measure 63
0001
1001
1000
1001
,  // measure 64
0001
0000
1000
0001
,  // measure 65
0020
0000
0130
1000
,  // measure 66
0001
0000
1000
0001
,  // measure 67
0020
0000
0130
1000
,  // measure 68
0100
0010
0001
0000
,  // measure 69
2002
0000
0000
0000
,  // measure 70
3003
0000
0000
0000
;
