#TITLE:GIGA BREAK;
#SUBTITLE:;
#ARTIST:96;
#TITLETRANSLIT:;
#SUBTITLETRANSLIT:;
#ARTISTTRANSLIT:;
#CREDIT:DigiMindAxel;
#BANNER:GIGA BREAK.png;
#BACKGROUND:GIGA BREAK-bg.png;
#LYRICSPATH:;
#CDTITLE:jubeat.png;
#MUSIC:GIGA BREAK.mp3;
#OFFSET:-10.280;
#SAMPLESTART:21.813;
#SAMPLELENGTH:12.000;
#SELECTABLE:YES;
#BPMS:0.000=135.000,2.000=270.000;
#STOPS:;
#BGCHANGES:;

//---------------dance-single - ----------------
#NOTES:
     dance-single:
     :
     Easy:
     5:
     0.348,0.414,0.109,0.278,0.000:
1000
1000
0001
0010
,
0100
1000
0001
0000
,
0001
0000
1000
0100
,
0010
0001
1000
0000
,
1000
0000
0010
0100
,
0010
1000
0100
0000
,
0100
0000
0010
0001
,
0100
0010
0100
0000
,
0100
0000
0001
0010
,
0100
1000
0001
0000
,
0001
0000
1000
0100
,
0010
0001
1000
0000
,
1000
0000
0020
0000
,
0000
2000
0030
0000
,
0000
3002
0000
0000
,
0000
0000
0103
0000
,
0020
0000
0000
0230
,
0000
0000
0000
0302
,
0000
0000
0000
0000
,
1003
0000
0020
0000
,
0000
2030
0000
0000
,
0000
3200
0000
0000
,
0000
0000
0310
0000
,
0002
0000
0000
0203
,
0000
0000
0000
0320
,
0000
0000
0000
0000
,
1030
0000
0001
1000
,
0001
1000
0001
0000
,
0000
1000
0001
1000
,
0001
1000
0000
0000
,
0010
0100
0010
0100
,
0010
0000
0000
1000
,
0100
1000
0100
1000
,
0000
0000
0002
0000
,
0000
2003
0000
0000
,
0000
3200
0000
0000
,
0320
0000
0000
0032
,
0000
0000
0000
2003
,
0000
0000
3200
0000
,
0000
0320
0000
0000
,
0000
0032
0000
0000
,
2003
0000
0000
0000
,
3020
0000
0000
0230
,
0000
0000
0000
0302
,
0000
0000
0023
0000
,
0000
0230
0000
0000
,
2300
0000
0000
0000
,
3001
0000
0100
0000
0001
0000
0000
1000
,
0000
0000
1000
0100
,
1000
0000
0000
0001
0000
0000
0000
0000
,
1000
0001
0010
0001
,
0000
1000
0000
0000
0000
0000
1000
0000
,
0010
0000
1000
0000
0000
0001
0000
0000
,
0000
0000
0100
0000
0000
0010
0000
0000
,
1000
0000
0100
0000
0000
1000
0000
0001
,
0000
0100
0001
0100
,
0000
0001
0000
1000
0000
0000
0001
0000
,
0100
0000
0010
0000
0100
0000
0000
0001
,
0000
1000
0000
0000
0010
0000
0100
0000
,
0010
0000
0000
1000
0000
0001
0000
0000
,
0100
0000
0000
0100
0000
0000
0100
0000
,
0000
0100
0010
0100
,
0010
0100
0001
0100
,
0001
0100
0010
1000
,
0010
1000
0001
1000
,
0001
1000
0001
0010
,
0001
0010
0100
1000
,
0100
1000
0000
1000
,
0000
1000
0000
1000
,
0000
0001
0000
0001
,
0000
0001
0000
0001
,
0000
0100
0000
0100
,
0000
0100
0000
0100
,
0000
0010
0000
0010
,
0000
0010
0000
0010
,
0000
0100
0010
0100
,
0010
1000
0001
1000
,
0001
0100
0010
0100
,
0010
1000
0100
0010
,
0001
1000
0000
0000
,
1100
0000
0000
0000
0000
0000
0000
1001
,
0000
0000
0000
0101
,
0000
0000
0000
0000
0000
0001
0000
0000
,
0000
0000
0101
0000
,
0000
0000
0000
1001
0000
0000
0000
0000
,
0000
1100
0000
0000
,
1000
0000
0000
0000
0000
0000
0000
1100
,
0000
0000
0000
1001
,
0000
0000
0000
0000
0000
0101
0000
0000
,
0000
0000
0000
0001
0000
0000
0000
0000
,
0000
1001
0000
0000
,
0000
0110
0000
0000
0000
0000
0000
0000
,
0100
0001
1000
0000
;

//---------------dance-single - ----------------
#NOTES:
     dance-single:
     :
     Medium:
     7:
     0.507,0.507,0.030,0.338,0.000:
0001
1001
0100
0001
,
0100
0001
1000
0100
,
1000
0000
0010
1000
,
0010
1000
0001
0010
,
0001
0000
0100
0001
,
0010
0100
1000
0001
,
1000
0000
0010
1000
,
0100
0010
0001
1000
,
0001
0000
0010
0100
,
1000
0001
0100
0001
,
1000
0000
0100
0010
,
0001
1000
0010
0100
,
0001
0000
0100
0001
,
1000
0200
0000
1300
,
0100
0020
0000
0000
,
0000
0031
0000
0000
,
0010
0001
0100
0020
,
0000
1030
0100
0010
,
0002
0000
2003
0000
,
3001
0000
0010
0001
,
0010
0200
0000
1300
,
0010
0200
0000
0000
,
0000
0301
0000
0000
,
0100
0001
0010
0200
,
0000
1300
0001
1000
,
0001
0001
1000
1000
,
0020
0000
0000
0000
1030
0000
0000
1000
,
0000
0000
0001
0000
0200
0000
0000
0001
,
0000
0000
0301
0000
0000
0001
0000
0000
,
1000
0000
0020
0000
0000
1000
0000
0000
,
1030
0000
0000
0001
0000
0000
0100
0000
,
0020
0000
0000
1000
0000
0000
1030
0000
,
0000
0001
0000
0000
0100
0000
0020
0000
,
0000
1000
0000
0000
1030
0000
0000
0001
,
0000
0100
0000
0001
0000
0000
0100
0000
,
0010
0000
0100
0000
0000
0010
0000
1000
,
0000
0010
0000
1000
0000
0010
0000
0100
,
0000
0001
0010
0001
,
0000
0100
0000
0010
0000
0100
0000
0000
,
0001
1000
0001
0010
,
0100
0000
1000
0000
0000
0001
0000
0010
,
0000
0002
0000
0000
0103
0000
0010
0000
,
0200
0000
0000
0310
0000
1000
0000
0010
,
0000
0100
0000
0001
0000
1000
0000
0000
,
0100
0000
1000
0000
0200
0000
0000
1300
,
0000
0001
0000
2000
0000
0000
3001
0000
,
0010
0002
0000
0000
,
1003
0000
0100
0000
0010
0000
0001
1000
,
0000
1000
0000
0000
0001
0000
0010
0000
,
0100
0000
1000
0001
0000
0001
0000
0000
,
1000
0001
1000
0000
0100
0000
0010
0000
,
0001
1000
0000
1000
0000
0000
0001
0000
,
0010
0000
0100
0000
1000
0001
0000
0001
,
0000
0000
1000
0001
1000
0000
0010
0000
,
0100
0000
0010
0000
1000
0001
0000
1000
,
0000
0010
0100
0010
,
1000
0001
0000
1000
0000
0000
0001
1000
,
0001
0000
0010
0000
0100
0000
1000
0010
,
0000
0100
0000
0000
0001
0000
0010
0000
,
0100
0000
1000
0010
0000
0100
0000
0000
,
1001
0000
0000
1001
0000
0000
0001
0000
,
1000
0001
0100
0001
,
0100
0010
0100
0010
,
1000
0010
1000
0100
,
0010
0001
1000
0100
,
0010
0001
0010
0100
,
1000
0001
0010
0100
,
1000
0002
0000
1000
,
0000
1000
0000
0000
0000
0000
1003
0000
,
0000
0020
0000
0100
,
0000
0100
0000
0000
0000
0000
0130
0000
,
0000
2000
0000
0001
,
0000
0001
0000
0000
0000
0000
3001
0000
,
0000
0200
0000
0010
,
0000
0010
0000
0000
0000
0000
0310
0000
,
0000
1000
0100
0001
,
0100
1000
0100
0010
,
0001
0010
0100
1000
,
0001
0100
0010
1000
,
0001
0000
0200
0000
0000
0001
0000
0001
,
0000
0302
0000
0000
1000
0000
1000
0000
,
2003
0000
0000
0010
0000
3010
0000
0010
,
0100
0010
0100
0010
0000
2000
0000
0000
,
0001
0000
0001
0000
3002
0000
0000
0100
,
0000
0100
0000
0203
0000
0000
0010
0000
,
0310
0000
0010
0100
0010
0100
0010
0000
,
2000
0000
0000
0100
0000
0100
0000
3200
,
0000
0010
0010
0320
,
0000
0001
0000
0031
0000
0001
1000
0001
,
1000
0001
0000
0200
0000
0000
0010
0000
,
0010
0000
0320
0000
0000
1000
0000
1000
,
0000
2030
0000
0000
0001
0000
0001
0000
,
3001
0100
0001
1000
0100
1000
0000
0000
;

//---------------dance-single - ----------------
#NOTES:
     dance-single:
     :
     Hard:
     9:
     0.727,0.788,0.408,0.219,0.000: // measure 1
1001
0000
1100
0000
0001
0010
0001
0010
,  // measure 2
0001
1000
0010
0000
1000
0010
1000
0010
,  // measure 3
1000
0001
0010
0000
0001
0010
0001
0000
,  // measure 4
1000
0100
1000
0000
0001
0100
0001
0000
,  // measure 5
1000
0010
1000
0000
0010
0100
0010
1000
,  // measure 6
0001
0010
0100
0000
1000
0001
1000
0100
,  // measure 7
0010
0001
1000
0000
0010
0000
1000
0010
,  // measure 8
0000
0010
0100
0000
0001
0100
0000
0001
,  // measure 9
1000
0000
0001
0100
0000
0100
0010
0000
,  // measure 10
1000
0010
0000
1000
0001
0000
1000
0010
,  // measure 11
0000
0010
0100
0000
0001
0010
0000
0001
,  // measure 12
1000
0000
0001
0100
0000
0100
0010
0000
,  // measure 13
1000
0100
0000
1000
0001
0000
0010
0000
,  // measure 14
0100
2000
0000
3100
,  // measure 15
0010
0002
0000
1003
,  // measure 16
0100
0020
0000
0130
,  // measure 17
1000
0001
0100
0020
,  // measure 18
0000
1030
0100
0010
,  // measure 19
0001
0000
0001
0000
1000
0010
1000
0000
,  // measure 20
1001
0000
0000
0000
0001
0100
0010
0000
,  // measure 21
1000
2001
0000
3100
,  // measure 22
0010
1002
0000
1003
,  // measure 23
0010
0000
0100
0000
0001
1000
0001
0000
,  // measure 24
0010
0100
1000
0002
,  // measure 25
0000
1003
0100
0010
,  // measure 26
0001
0000
0001
0000
1000
0001
1000
0000
,  // measure 27
0020
0000
0000
0000
1030
0000
0010
0100
,  // measure 28
0000
0010
0100
0000
0001
0000
0000
1001
,  // measure 29
0000
0000
1000
0000
0001
0100
0000
0001
,  // measure 30
0100
0000
0001
0000
0000
1001
0000
0000
,  // measure 31
0001
0000
1000
0010
0000
1000
0010
0000
,  // measure 32
1000
0000
0000
1001
0000
0000
0001
0000
,  // measure 33
0100
0010
0000
0100
0010
0000
1000
0010
,  // measure 34
1000
0010
1000
0001
1000
0001
0000
1000
,  // measure 35
0000
0010
0000
0110
0000
0000
0001
0000
,  // measure 36
0100
0000
0110
0000
0000
1000
0000
0100
,  // measure 37
0000
0001
0000
0100
1000
0001
0100
0001
,  // measure 38
0000
1000
0010
0110
,  // measure 39
0000
0001
0000
0100
0000
0110
0000
0000
,  // measure 40
0001
0000
0100
0000
1000
0000
0100
0001
,  // measure 41
1000
0100
1000
0000
0000
1100
0000
0100
,  // measure 42
0000
1001
0000
0000
0101
0000
0100
0000
,  // measure 43
1001
0000
0000
1000
0000
0100
0000
0001
,  // measure 44
0000
0100
1000
0001
0100
0001
0000
0000
,  // measure 45
0101
0000
0100
0000
1001
0000
0000
1100
,  // measure 46
0000
0100
0000
1001
0000
0000
1000
0000
,  // measure 47
0100
0002
0000
0103
,  // measure 48
1000
0000
0010
0000
0100
0000
0001
1000
,  // measure 49
0000
1000
0010
0100
0010
0000
1000
0000
,  // measure 50
0010
0000
0100
0001
0000
0001
0100
0010
,  // measure 51
0100
0010
0100
0000
0001
0000
0100
0000
,  // measure 52
0001
1000
0000
1000
0010
0100
0010
0000
,  // measure 53
1000
0000
0010
0000
0100
0001
0000
0001
,  // measure 54
0100
0010
0100
0010
0100
0010
0100
0000
,  // measure 55
0001
0000
0001
0000
0100
0010
0000
1000
,  // measure 56
0010
0100
0010
0000
1000
0000
1000
0000
,  // measure 57
0001
0100
0000
0001
0100
0010
0100
0010
,  // measure 58
0100
0000
0001
0000
0100
0000
0010
1000
,  // measure 59
0000
1000
0001
0010
0001
0000
0010
0000
,  // measure 60
0100
0000
1000
0001
0000
0001
1000
0100
,  // measure 61
1000
0000
0001
0100
0000
0001
1000
0000
,  // measure 62
0001
1000
0010
0100
0010
0000
1000
0000
,  // measure 63
0010
0000
1000
0100
0010
0000
0001
0000
,  // measure 64
0100
0000
0001
0010
0100
0000
1000
0000
,  // measure 65
0001
0000
0100
0001
1000
0000
0100
0000
,  // measure 66
1000
0000
0100
1000
0001
0000
0100
0000
,  // measure 67
0010
0000
0100
0001
0010
0000
0100
1000
,  // measure 68
0010
0000
1000
0001
0000
0000
0100
0001
,  // measure 69
0000
1000
0000
0100
0000
1000
0100
0000
,  // measure 70
1000
0001
1000
0000
0000
0000
0010
1000
,  // measure 71
0000
0001
0000
0010
0000
0001
0010
0000
,  // measure 72
0001
1000
0001
0000
0000
0000
0010
0001
,  // measure 73
0000
1000
0000
0010
0000
0100
0010
0000
,  // measure 74
1000
0001
1000
0000
0000
0000
0100
1000
,  // measure 75
0000
0001
0000
0100
0000
0010
0100
0000
,  // measure 76
0010
0100
0001
0100
0001
0100
0010
1000
,  // measure 77
0010
1000
0001
0010
0001
0010
0100
1000
,  // measure 78
0100
1000
0010
0100
0010
1000
0100
0010
,  // measure 79
0001
1000
0010
0100
0001
0010
0100
1000
,  // measure 80
0001
0000
2100
0000
0000
3001
0000
1001
,  // measure 81
0000
0102
0000
0000
1003
0000
1001
0000
,  // measure 82
2010
0000
0000
3001
0000
1001
0000
1000
,  // measure 83
0100
0010
0001
1000
0100
2000
0000
0000
,  // measure 84
3001
0000
1001
0000
0102
0000
0000
1003
,  // measure 85
0000
1001
0000
2010
0000
0000
3001
0000
,  // measure 86
1001
0000
0001
0010
0100
1000
0001
0010
,  // measure 87
0002
0000
0000
1003
0000
1001
0000
2100
,  // measure 88
0000
3001
1001
0102
,  // measure 89
0000
1003
0000
1001
0000
1000
0100
0010
,  // measure 90
0001
1000
0010
2000
0000
0000
3001
0000
,  // measure 91
1001
0000
0102
0000
0000
1003
0000
1001
,  // measure 92
0000
2010
0000
0000
3001
0000
1001
0000
,  // measure 93
1000
0100
0010
0001
1000
0020
0000
0000
,  // measure 94
0000
0030
0000
0000
;

//---------------dance-single - ----------------
#NOTES:
     dance-single:
     :
     Beginner:
     2:
     0.128,0.183,0.089,0.000,0.000:
0000
0000
1000
0000
,
0000
0000
0001
0000
,
0000
0000
1000
0000
,
0000
0000
1000
0000
,
0000
0000
0000
0001
,
0000
0000
0000
1000
,
0000
0000
0001
0000
,
0000
0000
0001
0000
,
0000
0000
0100
0000
,
0000
0000
0010
0000
,
0000
0000
0100
0000
,
0000
0000
0100
0000
,
0000
0000
0001
0000
,
0000
1000
0000
0000
,
0000
0100
0000
0000
,
0000
0010
0000
0000
,
0001
0000
0000
1000
,
0000
0000
0000
0010
,
0000
0000
0000
0100
,
0000
0000
0001
0000
,
0000
0010
0000
0000
,
0000
0100
0000
0000
,
0000
1000
0000
0000
,
0001
0000
0000
1000
,
0000
0000
0000
0001
,
0000
0000
0000
0000
,
0000
0000
1000
0000
,
0000
0000
1000
0000
,
0000
0000
0100
0000
,
0000
0000
0100
0000
,
0000
0010
0000
0000
,
0000
0010
0000
0000
,
0001
0000
0000
0000
,
0001
0000
0000
1000
,
0000
0000
0001
0000
,
0000
1000
0000
0000
,
0010
0000
0000
0000
,
0100
0000
0000
0001
,
0000
0000
0100
0000
,
0000
0010
0000
0000
,
0000
1000
0000
0000
,
0100
0000
0000
1000
,
0000
0000
0001
0000
,
0000
1000
0000
0000
,
0000
0001
0000
0000
,
1000
0000
0000
0100
,
0000
0000
0000
0000
,
1000
0000
0000
0000
,
0000
0000
0100
0000
,
0000
0000
0000
0000
,
0010
0000
0000
0000
,
0000
0000
0000
0001
,
0000
0000
0000
0000
,
0000
0000
0000
0100
,
0000
0000
0000
0000
,
0000
0010
0000
0000
,
0000
0000
0000
1000
,
0000
0000
0000
0000
,
0000
0000
0001
0000
,
0000
0000
0000
0000
,
1000
0000
0000
0000
,
0000
0001
0000
0000
,
0000
0000
0000
0100
,
0000
0000
0000
0000
,
0000
0001
0000
0000
,
0000
0000
0000
1000
,
0000
0000
0000
0000
,
0000
0010
0000
0000
,
0000
0000
0000
0000
,
0000
0010
0000
0000
,
0000
0000
0000
0000
,
0000
0100
0000
0000
,
0000
0000
0000
0000
,
0000
0100
0000
0000
,
0000
0000
0000
0000
,
0000
0010
0000
0000
,
0000
0100
0000
0000
,
0000
0010
0000
0000
,
0000
1000
0000
0000
,
0000
1001
0000
0000
,
0000
0000
0000
0000
,
1001
0000
0000
0000
,
0000
0000
0000
0000
0000
1001
0000
0000
,
0000
0000
0000
0000
,
0000
0000
0000
1001
0000
0000
0000
0000
,
0000
0000
0000
0000
,
1001
0000
0000
0000
,
0000
0000
0000
0110
,
0000
0000
0000
0000
,
0000
0000
0000
0110
0000
0000
0000
0000
,
0000
0000
0000
0000
,
0000
1001
0000
0000
0000
0000
0000
0000
,
1001
0000
0000
0000
;
