#TITLE:月光蝶;
#SUBTITLE:;
#ARTIST:あさき;
#TITLETRANSLIT:GEKKOU CHOU;
#SUBTITLETRANSLIT:;
#ARTISTTRANSLIT:Asaki;
#CREDIT:DigiMindAxel;
#BANNER:GEKKOU CHOU.png;
#BACKGROUND:GEKKOU CHOU-bg.png;
#LYRICSPATH:GEKKOU CHOU.lrc;
#CDTITLE:GUITAR FREAKS & drummania.png;
#MUSIC:GEKKOU CHOU.mp3;
#OFFSET:-7.760;
#SAMPLESTART:54.820;
#SAMPLELENGTH:15.000;
#SELECTABLE:YES;
#DISPLAYBPM:109:218;
#BPMS:0.000=109.000,5.000=54.500,6.000=218.000,291.000=109.000;
#STOPS:162.000=0.820
;
#BGCHANGES:-16.000=GEKKOU CHOU.AVI=1.000=1=1=0,
99999=-nosongbg-=1.000=0=0=0 // don't automatically add -songbackground-
;

//---------------dance-single - ----------------
#NOTES:
     dance-single:
     :
     Easy:
     3:
     0.205,0.188,0.031,0.083,0.000: // measure 1
0000
0000
0000
0000
,  // measure 2
0000
0000
1000
0000
,  // measure 3
1000
0000
0001
0000
,  // measure 4
1000
0000
0000
0001
,  // measure 5
0000
0001
0000
1000
,  // measure 6
0000
0010
0000
0010
,  // measure 7
0000
1000
0000
1000
,  // measure 8
0000
0001
0000
0001
,  // measure 9
0000
0100
0000
0100
,  // measure 10
0001
0000
0100
0000
,  // measure 11
0010
0000
1000
0000
,  // measure 12
0001
0000
0100
0000
,  // measure 13
0010
0000
0100
0000
,  // measure 14
0001
0000
0010
0000
,  // measure 15
0100
0000
1000
0000
,  // measure 16
0001
0000
1000
0000
,  // measure 17
0001
0000
0000
0000
,  // measure 18
1000
0000
0100
0000
,  // measure 19
0010
0000
0100
0000
,  // measure 20
0001
0000
1000
0000
,  // measure 21
0100
0000
0010
0000
,  // measure 22
1000
0000
0001
0000
,  // measure 23
0010
0000
0100
0000
,  // measure 24
0001
0000
1000
0000
,  // measure 25
0001
0000
0000
0000
,  // measure 26
0010
0000
0000
0000
,  // measure 27
1000
0000
0000
0000
,  // measure 28
0100
0000
0000
0000
,  // measure 29
0001
0000
0000
0000
,  // measure 30
1000
0000
0000
0000
,  // measure 31
0001
0000
0000
0000
,  // measure 32
1000
0000
2002
0000
,  // measure 33
0000
0000
0000
0000
,  // measure 34
0000
3003
0100
0000
,  // measure 35
0001
0000
0100
0000
,  // measure 36
1000
0000
0010
0000
,  // measure 37
0001
0000
1000
0000
,  // measure 38
0010
0000
0001
0000
,  // measure 39
0001
0000
1000
0000
,  // measure 40
1000
0000
0220
0000
,  // measure 41
0000
0330
0000
1000
,  // measure 42
0000
0010
0000
0001
,  // measure 43
0000
0010
0000
0100
,  // measure 44
0000
0001
0000
1000
,  // measure 45
0000
0010
0000
0001
,  // measure 46
0000
0100
0000
1000
,  // measure 47
0000
0010
0000
0100
,  // measure 48
0000
0001
0000
0010
,  // measure 49
0000
0001
0000
1000
,  // measure 50
0000
0010
0000
0100
,  // measure 51
0000
0010
0000
1000
,  // measure 52
0000
0001
0000
0100
,  // measure 53
0000
1000
0000
0100
,  // measure 54
0000
0001
0000
0010
,  // measure 55
0000
1000
0000
0002
,  // measure 56
0000
0000
0003
2000
,  // measure 57
0000
0000
3000
0100
,  // measure 58
0100
0000
0001
0000
,  // measure 59
1000
0000
0010
0000
,  // measure 60
0100
0000
0001
0000
,  // measure 61
0010
0000
0001
0000
,  // measure 62
1000
0000
0010
0000
,  // measure 63
0001
0000
0010
0000
,  // measure 64
1000
0000
0100
0000
,  // measure 65
0001
0000
1000
0000
,  // measure 66
0010
0000
0001
0000
,  // measure 67
0100
0000
0010
0000
,  // measure 68
1000
0000
0100
0000
,  // measure 69
1000
0000
0010
0000
,  // measure 70
1000
0000
0001
0000
,  // measure 71
0010
0000
0100
0200
,  // measure 72
0000
0000
0300
0020
,  // measure 73
0000
0000
0030
1001
;

//---------------dance-single - ----------------
#NOTES:
     dance-single:
     :
     Medium:
     5:
     0.365,0.417,0.093,0.052,0.005: // measure 1
0000
0000
0000
0000
,  // measure 2
0000
0000
1000
0100
,  // measure 3
0010
0000
0001
0010
,  // measure 4
0100
0000
0000
1001
,  // measure 5
0100
0010
0001
1000
,  // measure 6
0010
0000
1000
0100
,  // measure 7
0010
0001
0000
0010
,  // measure 8
0100
1000
0000
0100
,  // measure 9
0010
0100
1000
0001
,  // measure 10
0010
0001
0100
1000
,  // measure 11
0001
0100
0000
0010
,  // measure 12
1000
0100
0010
0001
,  // measure 13
1000
0010
0000
1000
,  // measure 14
0001
0010
0100
0001
,  // measure 15
0010
0001
0000
0001
,  // measure 16
1000
0010
1000
0000
,  // measure 17
0001
0000
0000
1001
0000
0000
1000
0000
,  // measure 18
0001
0100
0001
1000
,  // measure 19
0001
0010
0000
0001
,  // measure 20
0100
0001
1000
0100
,  // measure 21
1000
0010
0000
1000
,  // measure 22
0001
0010
1000
0010
,  // measure 23
0001
1000
0000
0001
,  // measure 24
0010
0100
0010
0001
,  // measure 25
0100
1000
0000
0100
,  // measure 26
0001
0000
0000
0000
1000
0000
0000
0001
,  // measure 27
0000
0010
0000
0001
,  // measure 28
1000
0000
0000
0000
0100
0000
0000
1000
,  // measure 29
0000
0010
0000
1000
,  // measure 30
0001
0000
0000
0000
0010
0000
0000
0001
,  // measure 31
0000
0100
0000
0010
,  // measure 32
1000
0000
0000
0000
0001
0000
0000
1000
,  // measure 33
0000
1001
0000
0001
,  // measure 34
0100
0010
0000
1001
,  // measure 35
0100
1000
0000
0001
,  // measure 36
1000
0010
0000
0001
,  // measure 37
1000
0100
0000
0010
,  // measure 38
1000
0000
0100
0000
0001
0000
0000
1000
,  // measure 39
0000
0000
0100
0000
0010
0000
0000
0001
,  // measure 40
0000
0000
0100
0000
2000
0000
0000
0002
,  // measure 41
3003
0110
0000
1000
,  // measure 42
0001
0010
0100
0000
,  // measure 43
0010
0001
1000
0000
,  // measure 44
0100
1000
0010
0000
,  // measure 45
0001
0010
1000
0100
,  // measure 46
0001
0010
0100
1000
,  // measure 47
0010
1000
0001
0010
,  // measure 48
0100
0000
1000
0000
0000
0010
0000
0000
,  // measure 49
0001
0000
0000
1000
0000
0110
0000
0000
,  // measure 50
1000
0100
0001
0000
,  // measure 51
0100
0010
1000
0000
,  // measure 52
0100
0001
0010
1000
,  // measure 53
0001
0000
0000
0100
0000
1001
0000
0000
,  // measure 54
0010
1000
0001
0000
,  // measure 55
1000
0100
1000
0010
,  // measure 56
0100
1000
0010
0001
,  // measure 57
0010
1000
0000
0100
,  // measure 58
1000
0010
0100
0000
,  // measure 59
0010
0100
0001
0100
,  // measure 60
1000
0010
0100
0000
,  // measure 61
0001
0010
0100
0000
,  // measure 62
0100
1000
0010
0001
,  // measure 63
0010
1000
0100
0001
,  // measure 64
0010
0000
0001
0000
0000
1000
0000
0000
,  // measure 65
0010
0000
0000
1000
0000
0001
0000
0000
,  // measure 66
1000
0001
0010
0000
,  // measure 67
0100
0010
0001
0000
,  // measure 68
1000
0001
0100
0000
,  // measure 69
0001
0000
0000
0010
0000
1001
0000
0000
,  // measure 70
0010
1000
0001
0000
,  // measure 71
1000
0100
1000
0000
,  // measure 72
0100
1000
0010
0001
,  // measure 73
0010
0000
0000
0000
0100
0000
0000
0000
1001
0000
0000
0000
2000
0000
0000
0020
,  // measure 74
3000
0200
0030
0301
0000
0000
0000
0000
;

//---------------dance-single - ----------------
#NOTES:
     dance-single:
     :
     Hard:
     7:
     0.522,0.493,0.217,0.103,0.015: // measure 1
0000
0000
0000
0000
,  // measure 2
0000
0000
0001
0010
,  // measure 3
0100
1000
0001
0100
,  // measure 4
0001
1000
0000
0001
0000
0000
1001
0000
,  // measure 5
0100
0010
0001
1000
,  // measure 6
0010
0100
0000
0002
0000
0000
1003
0000
,  // measure 7
0100
0000
0010
0100
0000
0000
1000
0000
,  // measure 8
0100
0000
0010
0100
0000
0000
1000
0001
,  // measure 9
1000
0001
1000
0002
0000
0000
0010
0000
,  // measure 10
0010
0013
1001
1000
,  // measure 11
0001
0000
0100
0010
0000
0001
0000
0010
,  // measure 12
0000
1000
0100
0000
0010
0000
0001
0000
,  // measure 13
1000
0000
0010
0100
0000
0010
0000
1000
,  // measure 14
0000
0001
0010
0000
0100
0000
0001
0000
,  // measure 15
0010
0000
0001
0100
0000
1000
0000
0001
,  // measure 16
0000
1000
0010
0000
1000
0000
0100
0010
,  // measure 17
0100
0000
0001
0100
0000
0000
1000
0000
,  // measure 18
0001
0110
0001
1000
,  // measure 19
0001
0000
0010
0100
0000
0010
0000
0001
,  // measure 20
0000
0100
0001
0000
1000
0000
0100
0000
,  // measure 21
0010
0000
0100
1000
0000
0010
0000
1000
,  // measure 22
0000
0001
0010
0000
1000
0000
0010
0000
,  // measure 23
0001
0000
1000
0010
0000
0100
0000
0001
,  // measure 24
0000
0010
0100
0000
0010
0000
0001
0100
,  // measure 25
0001
0000
1000
0010
0000
0000
1000
0000
,  // measure 26
0010
0000
0000
0000
0100
0000
0000
0000
0010
0000
0000
0000
1010
0000
0000
0000
0000
0000
0000
0000
0000
0011
0000
0000
,  // measure 27
0000
0120
0000
0001
,  // measure 28
1000
0000
0130
0000
1001
0000
0000
1100
,  // measure 29
0000
0102
0000
0010
,  // measure 30
1000
0000
0103
0000
1010
0000
0000
1001
,  // measure 31
0000
2100
0000
0001
,  // measure 32
0100
0000
3010
0000
0001
0000
0000
1000
,  // measure 33
0000
1001
0010
0001
,  // measure 34
0100
0000
0001
1000
0000
0000
0101
0000
,  // measure 35
0010
0000
1000
0100
0000
0000
0001
0000
,  // measure 36
1000
0000
0010
0100
0000
0000
0010
0000
,  // measure 37
1000
0000
0001
0010
0000
0000
0001
0000
,  // measure 38
1000
0100
1000
0000
0001
0000
0000
1000
,  // measure 39
0000
0000
0100
0010
0100
0000
0000
1000
,  // measure 40
0000
0000
0001
0010
0002
0000
0000
2000
,  // measure 41
3003
0110
0000
0100
,  // measure 42
0001
0000
0010
0000
0100
0010
0000
0001
,  // measure 43
0010
0000
0001
0000
1000
0100
0000
0100
,  // measure 44
1000
0000
0001
0000
0100
0010
0000
0010
,  // measure 45
0001
0000
0010
0000
1000
0001
0000
0100
,  // measure 46
0001
0000
0010
0000
0100
1000
0000
0100
,  // measure 47
0010
0000
1000
0000
0001
0010
0000
0000
,  // measure 48
0100
0000
1000
0000
0010
1000
0000
0001
,  // measure 49
0010
0000
0001
1000
0000
0110
0000
0000
,  // measure 50
1000
0000
0100
0000
0010
0001
0000
0000
,  // measure 51
1000
0000
0010
0000
1000
0100
0000
1000
,  // measure 52
0000
0001
0000
0010
0000
0100
0000
0010
,  // measure 53
0001
0010
0000
0110
0000
1001
0000
0100
,  // measure 54
0010
0000
1000
0000
0001
0010
0000
0001
,  // measure 55
1000
0000
0100
0000
1000
0001
0000
0010
,  // measure 56
0000
0100
0000
1000
0000
0010
0001
1000
,  // measure 57
0001
0000
1000
0001
1000
0000
0100
0000
,  // measure 58
1000
0000
0010
0000
0100
0001
0000
1000
,  // measure 59
0010
0000
0100
0000
0001
0100
0000
0100
,  // measure 60
0001
0000
0010
0000
0100
0010
0000
0010
,  // measure 61
0001
0010
0000
0100
0000
1000
0000
0001
,  // measure 62
0100
0000
0010
0000
0100
0001
0000
0001
,  // measure 63
0010
0000
1000
0000
0100
0010
0100
0000
,  // measure 64
1000
0001
1000
0001
1000
0010
0000
0001
,  // measure 65
0010
0000
1000
0100
0000
0011
0000
0000
,  // measure 66
1000
0000
0001
0000
0010
0100
0000
1000
,  // measure 67
0100
0000
0010
0000
0001
0100
0000
0001
,  // measure 68
1000
0000
0001
0000
0100
0010
0000
1000
,  // measure 69
0100
1000
0000
0110
0000
1001
0000
0100
,  // measure 70
0010
0000
1000
0000
0001
0010
0000
0001
,  // measure 71
1000
0000
0100
0000
1000
0001
0000
0000
,  // measure 72
0100
0010
0100
0010
0100
0000
0001
1000
,  // measure 73
0010
0000
0100
0000
0010
0000
1000
0000
0001
0000
0000
0000
2000
0000
0000
0020
,  // measure 74
3000
0200
0030
0301
0000
0000
0000
0000
;

//---------------dance-single - ----------------
#NOTES:
     dance-single:
     :
     Challenge:
     8:
     0.683,0.653,0.393,0.258,0.015: // measure 1
2000
0000
0000
0000
0000
3002
0000
0000
,  // measure 2
0000
0000
0003
0000
0001
0010
0001
0010
,  // measure 3
0001
1000
0010
1000
0010
1000
0100
0010
,  // measure 4
0001
1000
0000
1001
0000
0000
1000
0100
,  // measure 5
1000
0001
0100
0001
0100
0001
0010
0100
,  // measure 6
1000
0001
0000
0001
0000
0000
1001
0000
,  // measure 7
0100
0010
0100
2000
0000
0000
3001
0000
,  // measure 8
0010
0100
0010
0002
0000
0000
1003
0000
,  // measure 9
0100
0010
0100
2000
0000
0000
3001
0000
,  // measure 10
0100
0010
0100
0010
0100
0001
1000
0000
,  // measure 11
0100
0000
0001
0000
0100
0000
1000
0001
,  // measure 12
1000
0000
0010
0100
0001
0000
0100
0000
,  // measure 13
1000
0100
0001
0010
,  // measure 14
0100
1000
0001
0000
1002
0000
0000
0000
,  // measure 15
1000
0000
1003
0010
0000
0100
0001
0010
,  // measure 16
0100
0000
1100
0000
0001
0100
0001
1000
,  // measure 17
0100
0010
0001
2000
0000
0000
0001
0000
,  // measure 18
0001
0000
3001
0000
1000
0100
1000
0000
,  // measure 19
0001
0100
0001
0010
0100
1000
0001
0000
,  // measure 20
0101
0000
1001
0000
0001
0010
0001
0000
,  // measure 21
1000
0010
1000
0100
0010
0001
1000
0000
,  // measure 22
1010
0000
1001
0000
0010
0100
0010
0001
,  // measure 23
0010
0100
1000
0002
0000
0000
1000
0000
,  // measure 24
1000
0000
1003
0000
0100
0010
0100
1000
,  // measure 25
0100
0010
0001
2000
0000
0000
0000
0000
,  // measure 26
3001
0000
0000
0000
0010
0000
0000
0000
0100
0000
0000
0000
1000
0000
0000
0000
0000
0000
0000
0000
0000
1100
0000
0000
,  // measure 27
0000
1002
0000
1003
,  // measure 28
0100
0000
0001
0000
0100
0000
0000
0101
,  // measure 29
0000
0000
2001
0000
0000
0000
3001
0010
,  // measure 30
0100
1000
0001
0000
1001
0000
0000
0011
,  // measure 31
0000
1002
0000
0000
,  // measure 32
1003
0100
0010
0000
1001
0000
0000
0110
,  // measure 33
0000
0000
2001
0000
0000
0000
3001
0010
,  // measure 34
0100
1000
0001
0100
0000
0000
1001
0000
,  // measure 35
0100
1000
0010
0000
0100
0010
0100
0000
,  // measure 36
0010
0100
0001
0010
0100
0000
1001
0000
,  // measure 37
0010
0001
0100
0000
0010
0100
0010
0000
,  // measure 38
0100
0010
1000
0100
0010
0001
0010
0001
,  // measure 39
1000
0100
1000
0100
0001
0100
1000
0100
,  // measure 40
0010
0001
1000
0000
1001
0000
0000
0110
,  // measure 41
0000
0100
0010
1000
0001
0000
1001
0000
,  // measure 42
1100
0000
0010
0001
0010
0100
0000
1000
,  // measure 43
0001
0000
0100
0001
0010
0000
0100
1000
,  // measure 44
0010
0000
0100
0010
0100
0001
0010
0100
,  // measure 45
1000
0000
0010
0100
0010
1000
0000
0000
,  // measure 46
1001
0000
0010
1000
0001
0010
0100
0000
,  // measure 47
1001
0000
0100
0001
1000
0100
0010
0000
,  // measure 48
1001
0000
0001
0010
0100
2000
0000
0000
,  // measure 49
3001
1000
0100
0010
0000
1001
0000
0000
,  // measure 50
1001
0000
0010
0001
1000
0100
0010
0001
,  // measure 51
0100
0000
0010
1000
0001
0010
0000
0001
,  // measure 52
0000
1000
0000
0010
0000
0100
0000
0001
,  // measure 53
1000
0010
0000
1010
0000
1002
0000
0000
,  // measure 54
1003
0000
0100
1000
0010
0100
0000
0010
,  // measure 55
0100
0001
0010
0100
1000
0010
0100
0010
,  // measure 56
1000
0000
0001
0100
0010
0100
0001
0010
,  // measure 57
0100
1000
0001
0010
0100
0010
0001
0000
,  // measure 58
0100
0010
0100
0001
0000
0100
0000
0010
,  // measure 59
1000
0001
0010
0100
0000
1001
0000
0000
,  // measure 60
1001
0000
0010
0100
0010
2000
0000
3100
,  // measure 61
0010
0002
0000
0000
0000
2003
0000
0000
,  // measure 62
3001
0000
0100
0001
0100
0010
0000
1000
,  // measure 63
0000
0100
0000
1000
0000
0001
1000
0100
,  // measure 64
1000
0100
0001
0100
0001
0100
0000
1000
,  // measure 65
0100
0010
0001
1000
0000
1001
0000
0000
,  // measure 66
1001
0000
0010
1000
0010
0200
0000
0000
,  // measure 67
0301
0010
0100
1000
0010
0100
0020
0000
,  // measure 68
1000
0000
1030
0100
0010
0001
0000
1000
,  // measure 69
0001
0100
0000
0101
0000
1002
0000
0000
,  // measure 70
1003
0100
0010
0100
0000
1001
0000
0000
,  // measure 71
0010
0100
0010
0001
1000
0010
1000
0100
,  // measure 72
0010
0001
0100
1000
0100
0001
0010
0100
,  // measure 73
0010
0000
0001
0000
0100
0000
0010
0000
1000
0000
0000
0000
0020
0000
0000
0230
,  // measure 74
0000
0302
0000
2000
0000
0000
0000
0000
,  // measure 75
0000
0000
0000
3003
0000
0000
0000
0000
;

//---------------dance-single - ----------------
#NOTES:
     dance-single:
     :
     Beginner:
     1:
     0.086,0.075,0.021,0.000,0.000: // measure 1
0000
0000
0000
0000
,  // measure 2
0000
0000
1000
0000
,  // measure 3
0000
0000
0000
0000
,  // measure 4
0000
0000
0000
0001
,  // measure 5
0000
0000
0000
0000
,  // measure 6
0000
0000
0000
1000
,  // measure 7
0000
0000
0000
0100
,  // measure 8
0000
0000
0000
1000
,  // measure 9
0000
0000
0000
0000
,  // measure 10
0000
0000
0001
0000
,  // measure 11
0000
0000
0000
0000
,  // measure 12
0000
0000
0010
0000
,  // measure 13
0000
0000
0000
0000
,  // measure 14
0000
0000
0001
0000
,  // measure 15
0000
0000
0000
0000
,  // measure 16
0000
0000
1000
0000
,  // measure 17
0000
0000
0000
0000
,  // measure 18
0000
0000
1000
0000
,  // measure 19
0000
0000
0000
0000
,  // measure 20
0000
0000
0001
0000
,  // measure 21
0000
0000
0000
0000
,  // measure 22
0000
0000
0001
0000
,  // measure 23
0000
0000
0000
0000
,  // measure 24
0000
0000
0100
0000
,  // measure 25
0000
0000
0000
0000
,  // measure 26
0000
0000
0110
0000
,  // measure 27
0000
0000
0000
0000
,  // measure 28
0000
0000
1000
0000
,  // measure 29
0000
0000
0000
0000
,  // measure 30
0000
0000
1001
0000
,  // measure 31
0000
0000
0000
0000
,  // measure 32
0000
0000
0001
0000
,  // measure 33
0000
0000
0000
0000
,  // measure 34
0000
0000
0000
1000
,  // measure 35
0000
0000
0000
0001
,  // measure 36
0000
0000
0000
1000
,  // measure 37
0000
0000
0000
0000
,  // measure 38
0001
0000
1000
0000
,  // measure 39
0000
0000
0100
0000
,  // measure 40
0000
0000
0010
0000
,  // measure 41
0000
0000
0000
0001
,  // measure 42
0000
0000
0000
1000
,  // measure 43
0000
0000
0000
0001
,  // measure 44
0000
0000
0000
1000
,  // measure 45
0000
0000
0000
0010
,  // measure 46
0000
0000
0000
0100
,  // measure 47
0000
0000
0000
0010
,  // measure 48
0000
0000
0100
0000
,  // measure 49
0000
0000
0000
0001
,  // measure 50
0000
0000
0000
1000
,  // measure 51
0000
0000
0000
0001
,  // measure 52
0000
0000
0000
1000
,  // measure 53
0000
0000
0000
0010
,  // measure 54
0000
0000
0000
0100
,  // measure 55
0000
0000
0000
0010
,  // measure 56
0000
0000
0000
0000
,  // measure 57
0000
0000
0000
1000
,  // measure 58
0000
0000
0000
1000
,  // measure 59
0000
0000
0000
0001
,  // measure 60
0000
0000
0000
0001
,  // measure 61
0000
0000
0000
0010
,  // measure 62
0000
0000
0000
0100
,  // measure 63
0000
0000
0000
0010
,  // measure 64
0000
0000
0000
0100
,  // measure 65
0000
0000
0000
1000
,  // measure 66
0000
0000
0000
0001
,  // measure 67
0000
0000
0000
1000
,  // measure 68
0000
0000
0000
0001
,  // measure 69
0000
0000
0000
0100
,  // measure 70
0000
0000
0000
0010
,  // measure 71
0000
0000
0000
0100
,  // measure 72
0000
0000
0000
0100
,  // measure 73
0000
0000
0000
0100
;
