#TITLE:Fly Away To India;
#SUBTITLE:;
#ARTIST:Baby Weapon feat. KAJIL;
#TITLETRANSLIT:;
#SUBTITLETRANSLIT:;
#ARTISTTRANSLIT:;
#CREDIT:DigiMindAxel;
#BANNER:Fly Away To India.png;
#BACKGROUND:Fly Away To India-bg.png;
#LYRICSPATH:;
#CDTITLE:beatmaniaIIDX.png;
#MUSIC:Fly Away To India.mp3;
#OFFSET:-11.190;
#SAMPLESTART:73.393;
#SAMPLELENGTH:12.000;
#SELECTABLE:YES;
#BPMS:0.000=133.000;
#STOPS:;
#BGCHANGES:;

//---------------dance-single - ----------------
#NOTES:
     dance-single:
     :
     Easy:
     3:
     0.228,0.228,0.072,0.036,0.000:
1000
0001
0000
0001
,
0000
0001
0010
0100
,
1000
0001
0000
0001
,
0000
0000
0000
0000
,
1001
0100
0010
0001
,
1000
0100
1000
0000
,
0010
0100
0000
0100
,
0000
0100
0010
0100
,
0001
1000
0001
1000
,
0001
0100
0001
1000
,
0010
0100
0000
0100
,
0010
0100
0010
0001
,
1000
0001
0000
0001
,
0000
1000
0000
1000
,
0010
0100
0010
0000
,
1000
0100
0010
0001
,
1000
0100
0000
0100
,
0000
0010
0000
0001
,
1000
0001
1000
0001
,
0010
0100
1000
0001
,
0100
0220
0000
0330
,
0001
1000
0001
0010
,
0100
1000
0100
0000
,
0010
0001
0100
0010
,
0100
0220
0000
0330
,
0010
1000
0010
1000
,
0100
0010
0001
0100
,
0010
0100
0001
1000
,
0100
0100
0110
0000
,
0000
0000
1000
0100
,
0010
0001
1001
0000
,
0000
0000
1001
0000
,
0000
0000
1001
0000
,
0001
0000
1000
0100
,
0010
0001
1000
1000
,
0001
0001
0100
0010
,
0100
0000
0001
0001
,
1000
1000
0010
0100
,
0010
0000
1000
1000
,
0001
0001
0100
0010
,
0100
0000
0001
0001
,
1000
1000
0010
0100
,
0010
1000
0100
0010
,
0001
1000
0100
1000
,
0100
1000
0001
0100
,
0001
0100
0010
0100
,
0010
0000
1000
0100
,
1000
0100
0010
0001
,
0010
0001
0100
0010
,
0100
0010
1000
1000
,
0001
0001
1001
0000
;

//---------------dance-single - ----------------
#NOTES:
     dance-single:
     :
     Medium:
     6:
     0.379,0.374,0.217,0.063,0.000:
1000
0000
1000
0001
1000
0000
1000
0001
,
1000
0000
0001
1000
0001
0000
0001
1000
,
0001
0000
0100
0010
0100
0000
0100
0010
,
2000
0000
0000
3001
,
1001
0010
0100
1000
,
0001
0100
0010
0100
0001
1000
0100
0000
,
0000
0000
1000
0001
1000
0000
1000
0001
,
1000
0000
0010
0100
0010
0000
0010
0100
,
0010
1000
0100
0010
,
0001
0100
0010
0100
0001
1000
0100
0000
,
0000
0000
1000
0001
1000
0000
1000
0001
,
1000
0000
0010
0100
0010
0100
0010
0000
,
1000
0010
0100
0010
1000
0001
0010
0000
,
0001
0000
1000
0001
0000
1000
0001
0000
,
0102
0000
0000
1000
2000
0000
0003
0000
,
3001
0000
0010
0000
0100
0000
1000
0001
,
1000
0010
0100
0010
1000
0001
0010
0000
,
0001
0000
1000
0001
0000
0100
0010
0000
,
0110
0000
0100
0000
0100
0001
1000
0000
,
1001
1001
1001
1001
,
1001
2000
0100
3100
,
0010
0001
0010
0000
0100
1000
0100
0000
,
1000
0000
0100
0000
0001
0000
0100
1000
,
0000
0010
0000
0100
0000
0001
0000
0000
,
1001
0002
0010
0013
,
0100
1000
0100
0000
0010
0001
0010
0000
,
0001
0000
0100
0000
1000
0000
0100
0001
,
0000
0100
0000
0010
0000
1000
0000
0000
,
0100
0100
1001
0001
,
1000
0000
0001
0000
0100
0001
0100
0001
,
1000
0100
1000
0100
0010
0000
0001
0000
,
0110
0000
0100
1000
,
0110
0000
1001
0001
,
0110
0000
1000
0000
0010
1000
0010
1000
,
0001
0010
0001
0010
0100
0000
1000
0000
,
0100
0000
0001
0000
0100
1000
0010
0100
,
0010
0100
0010
0000
1000
0000
0100
0000
,
0001
0000
0100
1000
0001
0000
1001
0000
,
1000
1001
1000
0001
,
0100
0000
1000
0000
0100
0001
0100
0010
,
0100
0010
0100
0000
0001
0000
0100
0000
,
1000
0000
0100
0001
1000
0000
1001
0000
,
0001
0000
1001
0000
0001
0100
0001
0100
,
0010
1000
0010
1000
0001
0010
0100
1000
,
0001
0000
0011
0000
1000
0100
1000
0100
,
0010
0001
0010
0001
1000
0100
0010
0000
,
0100
0010
0001
0000
1000
0000
1100
0000
,
0001
0011
0100
0110
,
0010
1001
1000
0100
,
0001
0100
1000
0000
0001
0100
0001
0100
,
0001
1000
0100
1000
2002
0000
0000
0000
,
0000
0000
0000
3003
;

//---------------dance-single - ----------------
#NOTES:
     dance-single:
     :
     Hard:
     7:
     0.465,0.420,0.199,0.162,0.104: // measure 1
0001
0000
0001
1000
0100
0000
0001
1000
,  // measure 2
0100
0000
0001
1000
0100
0001
0100
1000
,  // measure 3
0010
0000
1000
0001
0100
0000
1000
0001
,  // measure 4
0100
0000
0000
0100
0000
0000
0100
0000
0000
0100
0000
0000
1001
0000
0000
0000
,  // measure 5
0210
0302
0203
0302
,  // measure 6
1003
0100
1000
0010
0100
0001
0010
0000
,  // measure 7
1001
0000
0100
0001
1000
0000
0100
0001
,  // measure 8
1000
0000
0000
0000
0100
0000
0001
0000
1000
0000
0000
1000
0000
0000
1000
0000
,  // measure 9
0010
0100
0010
1000
0200
0000
0320
0000
,  // measure 10
0032
0000
1003
0100
0010
0001
1000
0000
,  // measure 11
1000
0000
0100
1000
0001
0000
0100
1000
,  // measure 12
0001
0000
0010
0000
0001
0000
0000
1000
0000
1000
0000
0000
0010
0000
0000
0000
,  // measure 13
1001
0000
0100
1000
0020
0000
0230
0000
,  // measure 14
0301
0010
0100
1000
0100
0010
0001
0000
,  // measure 15
2001
0000
0000
0001
0002
0000
3000
0000
,  // measure 16
1003
0100
0001
0100
1000
0001
0010
0100
,  // measure 17
1000
0010
0100
0010
2000
0000
3002
0000
,  // measure 18
0013
0100
1000
0001
0100
0010
0100
0000
,  // measure 19
1002
0000
1000
0000
1003
0100
0010
0001
,  // measure 20
1000
1000
0001
0001
0010
0100
1000
0001
,  // measure 21
0101
0000
1001
0000
1000
0100
1000
0010
,  // measure 22
0000
0100
0001
0001
1000
1000
0001
0100
,  // measure 23
0000
0010
0100
0001
0010
0100
1000
0010
,  // measure 24
0000
0110
0000
0010
0000
0110
0000
0000
,  // measure 25
1010
0000
1001
0000
0001
0010
0001
0100
,  // measure 26
0000
0010
1000
1000
0001
0001
1000
0010
,  // measure 27
0000
0100
0010
1000
0100
0010
0001
0100
,  // measure 28
0000
0110
0000
0100
0000
0110
0000
0000
,  // measure 29
1001
0000
1001
0000
1000
0010
0100
0000
,  // measure 30
0001
0010
0100
0000
1000
1000
0001
0001
,  // measure 31
0100
0000
0000
0010
1000
0000
0010
0000
0120
0000
0000
0000
1000
0000
0000
1000
,  // measure 32
0000
1000
0000
0000
1030
0000
0000
0000
0210
0000
0000
0000
0001
0000
0000
0001
,  // measure 33
0000
0000
0000
0301
0000
0000
0000
0000
0000
0000
0000
0000
0001
0000
0000
0000
1000
0000
0000
0000
0001
0000
0000
0000
1000
0000
0000
0000
0000
0000
0000
0000
0000
0000
0000
0000
0010
0000
0000
0000
0000
0000
0100
0000
0000
0000
0000
0000
,  // measure 34
0001
0000
0001
0000
1000
1000
0001
0001
,  // measure 35
0100
0000
0000
0010
1000
0000
0010
0000
0110
0000
0000
0000
0101
0000
0000
0000
,  // measure 36
0010
1000
0100
0000
0001
0100
1000
0100
,  // measure 37
0010
0100
1000
0000
0010
0100
0001
0000
,  // measure 38
0100
1000
0100
0001
1000
1000
0001
0001
,  // measure 39
1000
0100
0010
0001
0100
0000
1100
0000
,  // measure 40
0010
0001
0100
0000
1000
0100
0001
0010
,  // measure 41
0100
0010
0001
0000
0100
0010
1000
0000
,  // measure 42
0100
0001
0100
1000
0001
0001
1000
1000
,  // measure 43
0001
0010
0100
1000
0001
0001
0100
0100
,  // measure 44
0010
0010
1000
1000
0001
0010
0100
1000
,  // measure 45
0010
0000
0000
0100
0000
0001
0100
0000
0001
0000
0010
0000
0100
0000
1000
0000
,  // measure 46
0010
0000
0000
0100
0000
0001
0100
0000
0001
0000
0001
0000
0100
0000
1000
0000
,  // measure 47
0100
0000
0001
0000
1000
0000
1000
0000
0010
0000
0000
0100
0000
0000
0010
0000
,  // measure 48
0000
0100
0000
0000
0001
0000
1000
0000
0001
0000
0000
1000
0000
0000
0001
0000
,  // measure 49
0000
1000
0000
0000
0010
0000
0100
0000
0000
0000
0001
0000
0000
1000
0000
0000
,  // measure 50
0001
0010
0100
1000
0001
0100
0100
0010
,  // measure 51
0010
0000
0000
1000
0001
0000
1000
0000
2002
0000
0000
0000
0000
0000
0000
0000
,  // measure 52
0000
0000
0000
3003
;

//---------------dance-single - ----------------
#NOTES:
     dance-single:
     :
     Beginner:
     1:
     0.071,0.114,0.081,0.000,0.000:
1000
0000
0000
0000
,
0000
0000
0000
0000
,
1000
0000
0000
0000
,
0000
0000
0000
0000
,
1001
0000
0000
0000
,
0001
0000
0000
0000
,
1000
0000
0000
0000
,
0001
0000
0000
0000
,
0001
0000
0000
0000
,
0001
0000
0000
0000
,
1000
0000
0000
0000
,
0001
0000
0000
0000
,
1000
0000
0000
0000
,
0000
0000
0000
0000
,
1001
0000
0000
0000
,
0010
0000
0000
0000
,
0110
0000
0000
0000
,
0000
0000
0000
0000
,
0010
0000
0000
0000
,
0100
0000
0000
0000
,
0110
0000
0000
0000
,
0000
0000
0000
0000
,
0001
0000
0000
0000
,
1000
0000
0000
0000
,
1001
0000
0000
0000
,
0001
0000
0000
0000
,
0001
0000
0000
0000
,
1000
0000
0000
0000
,
1000
0000
0000
0000
,
0000
0000
0010
0000
,
0000
0000
0010
0000
,
0000
0000
0010
0000
,
0000
0000
0010
0000
,
0010
0000
0010
0000
,
0000
0000
1001
0000
,
0000
0000
0000
0000
,
0000
0000
1000
0000
,
0000
0000
0001
0000
,
0000
0000
1001
0000
,
0000
0000
1000
0000
,
0000
0000
0001
0000
,
0000
0000
1000
0000
,
0000
0000
1000
0000
,
0000
0000
1000
0000
,
0000
0000
0001
0000
,
0000
0000
0001
0000
,
0000
0000
0110
0000
,
0000
0000
0100
0000
,
0000
0000
0010
0000
,
0000
0000
0010
0000
,
0000
0000
1001
0000
;

//---------------dance-single - ----------------
#NOTES:
     dance-single:
     :
     Challenge:
     9:
     0.566,0.514,0.180,0.063,0.397: // measure 1
0001
0000
0000
0001
0100
0000
0001
0000
1000
0000
0000
0001
0100
0000
0001
0000
,  // measure 2
1000
0000
0000
0001
0100
0000
0001
0000
1000
0000
0010
0100
0010
0000
1000
0000
,  // measure 3
0001
0000
0000
1000
0010
0000
1000
0000
0001
0000
0000
1000
0010
0000
1000
0000
,  // measure 4
0001
0010
0000
0001
0010
0000
0100
1000
0000
0100
1000
0000
0001
0000
0001
0000
,  // measure 5
1000
0100
0010
0100
1000
0010
0001
0010
,  // measure 6
1000
0010
0100
0010
1000
0001
0010
0100
,  // measure 7
1000
0000
0000
0010
1000
0000
0001
0000
1000
0000
0000
0010
1000
0000
0001
0000
,  // measure 8
1000
0000
0000
0010
0100
0000
0001
0000
1000
0100
0000
0000
1000
0000
1000
0000
,  // measure 9
0001
0010
0100
0010
0001
0100
1000
0100
,  // measure 10
0001
0100
0010
0100
0001
0010
0100
1000
,  // measure 11
0001
0000
0000
0100
0001
0000
1000
0000
0001
0000
0000
0100
0001
0000
1000
0000
,  // measure 12
0001
0010
0000
0000
0001
0000
1000
0100
0000
1000
0000
0010
0100
0000
0001
0000
,  // measure 13
0001
0010
0100
1000
0100
0001
0100
1000
,  // measure 14
0100
0010
0001
1000
0100
0010
0001
0100
,  // measure 15
0010
0000
0000
1000
0100
0000
0010
0000
0100
0000
0000
1000
0100
0000
0010
0000
,  // measure 16
0100
0000
1000
0001
1000
0000
0001
0000
0001
0000
0010
0000
0100
0000
1000
0000
,  // measure 17
0001
0100
1000
0100
0010
1000
0100
0001
,  // measure 18
0100
0010
0001
1000
0100
0010
0001
1000
,  // measure 19
0020
0000
0130
0000
0100
0001
2000
0000
,  // measure 20
3001
0000
0001
0000
1000
0000
1000
0000
0100
0010
0000
0100
0010
0000
0001
0000
,  // measure 21
1001
0000
2100
0000
0001
0000
3001
0010
,  // measure 22
0100
0000
1000
0000
0001
0000
0100
0010
0100
0000
0001
1000
0001
0000
1000
0000
,  // measure 23
1000
0100
0001
0100
0010
0001
1000
1100
,  // measure 24
0000
0101
0000
1100
0000
0101
0000
0000
,  // measure 25
1001
0000
0012
0000
1000
0000
1003
0100
,  // measure 26
0010
0000
0001
0000
1000
0000
0010
0100
0010
0000
1000
0001
1000
0000
0001
0000
,  // measure 27
0001
0100
1000
0100
0010
1000
0001
0101
,  // measure 28
0000
1100
0000
0101
0000
1100
0000
0000
,  // measure 29
1001
0000
0000
0000
1001
0000
0000
0000
1000
0000
0000
0001
0100
0000
0001
0000
,  // measure 30
0001
0000
0000
1000
0010
0000
1000
0000
1000
0000
0100
1000
0100
0000
0010
0001
,  // measure 31
0010
0000
0100
0000
1000
0000
0010
0000
0110
0000
0000
0000
0200
0000
0000
0010
,  // measure 32
0000
0310
1000
0000
1000
0000
0000
0000
1001
0000
0000
0001
1000
0000
1000
0001
,  // measure 33
0000
0000
0000
1000
0000
0000
0010
0000
0000
0000
0000
0000
0100
0000
0000
0000
0001
0000
0000
0000
0100
0000
0000
0000
0001
0000
0000
1000
0000
0000
0000
0000
0000
0000
0000
0000
0100
0000
0000
0000
0000
0000
0010
0000
0000
0000
0000
0000
,  // measure 34
0110
0000
0000
0001
1000
0000
0010
0000
1000
0000
1000
0000
0001
0000
0001
0000
,  // measure 35
0010
0100
0000
0010
0100
0000
1000
0000
0001
0000
0000
0001
0100
0000
0000
0100
,  // measure 36
1000
0000
0000
1000
0100
0000
0000
0100
0001
0000
0010
0000
0100
0000
1000
0000
,  // measure 37
0001
0000
0100
0000
0110
0000
0000
0000
1000
0000
0000
1000
0100
0000
0000
0100
,  // measure 38
0001
0000
0000
0001
0100
0000
0000
0100
1000
0000
0100
0000
0010
0000
0001
0000
,  // measure 39
0100
0000
0010
0100
0010
0000
1000
0000
0001
0000
0000
0001
0100
0000
0000
0100
,  // measure 40
1000
0000
0000
1000
0100
0000
0000
0100
0001
0000
0010
0000
0100
0000
1000
0000
,  // measure 41
0001
0000
0100
0000
0110
0000
0000
0000
1000
0000
0000
1000
0100
0000
0000
0100
,  // measure 42
0001
0000
0000
0001
0100
0000
0000
0100
1000
0000
0001
0100
0001
0000
1000
0000
,  // measure 43
0100
0000
0010
0001
0010
0000
0001
0000
1000
0000
0100
0000
0001
0000
0100
0000
,  // measure 44
1000
0100
0001
0100
1000
0100
0010
0001
,  // measure 45
0100
0010
0000
1000
0000
0010
0100
0000
0001
0000
0100
0000
0010
0000
1000
0000
,  // measure 46
0010
0100
0000
0001
0000
0100
0010
0000
1000
0000
0100
1000
0100
0000
0010
0000
,  // measure 47
0001
0000
0100
0000
1000
0000
0100
0000
0001
0100
0000
0001
0100
0000
0010
1000
,  // measure 48
0000
0010
1000
0000
0010
0100
0010
0000
1000
0100
0000
1000
0100
0000
0010
0001
,  // measure 49
0000
0010
0001
0000
0010
0001
0010
0100
0000
0000
1000
0000
0010
0100
0000
0010
,  // measure 50
1000
0000
0010
1000
0100
0010
0000
0001
0100
0000
0010
1000
0010
0000
1000
0000
,  // measure 51
0001
0000
0100
0001
0100
0000
0100
0000
2002
0000
0000
0000
0000
0000
0000
0000
,  // measure 52
0000
0000
0000
3003
;
