#TITLE:First Day;
#SUBTITLE:;
#ARTIST:Timo Maas;
#TITLETRANSLIT:;
#SUBTITLETRANSLIT:;
#ARTISTTRANSLIT:;
#CREDIT:DigiMindAxel;
#BANNER:First Day.png;
#BACKGROUND:First Day-bg.png;
#LYRICSPATH:First Day.lrc;
#CDTITLE:beatmaniaIIDX.png;
#MUSIC:First Day.mp3;
#OFFSET:-7.980;
#SAMPLESTART:46.820;
#SAMPLELENGTH:12.000;
#SELECTABLE:YES;
#BPMS:0.000=125.000;
#STOPS:;
#BGCHANGES:-18.000=First Day.avi=1.000=1=1=0,
99999=-nosongbg-=1.000=0=0=0 // don't automatically add -songbackground-
;

//---------------dance-single - ----------------
#NOTES:
     dance-single:
     :
     Easy:
     2:
     0.182,0.186,0.081,0.072,0.000:
1000
0100
1000
0000
,
0001
0100
0001
0000
,
1000
0001
1000
0000
,
0010
0100
0010
1000
,
0000
0002
0000
0000
,
0203
0000
0300
0000
,
0000
0020
0000
0000
,
2030
0000
3000
0000
,
0000
0200
0000
0000
,
0320
0000
0030
0000
,
0000
0002
0000
0000
,
2003
0000
3000
0000
,
1001
0000
0001
0000
,
1000
0000
0001
0000
,
0010
0000
0100
0000
,
0010
0000
0001
0000
,
1000
0000
0100
0000
,
0010
0000
0100
0000
,
1000
0000
0001
0000
,
1000
0000
0001
0000
,
1000
0000
0010
0110
,
0010
0000
1000
0001
,
1000
0000
0010
0110
,
0010
0000
1000
0001
,
1000
0000
0100
0110
,
0100
0000
0001
1000
,
0001
0000
0100
0110
,
0100
0000
0001
1000
,
0001
0000
0100
0000
,
0001
0000
1000
0000
,
0100
0000
0010
0000
,
0001
0000
1000
0000
,
0100
0000
1000
0000
,
0010
0000
0100
0000
,
0001
0000
1000
0000
,
0001
0000
0010
0000
,
0100
0010
0100
0010
,
0110
0000
0001
0000
,
1000
0010
0100
0010
,
0110
0000
1000
0000
,
0001
0100
0010
0100
,
0110
0000
0001
0000
,
1000
0010
0100
0010
,
0110
0000
1000
0000
,
0001
0010
0001
0010
,
0000
0001
0000
1000
,
0100
1000
0100
1000
,
0000
0010
0000
0100
,
0001
0100
0001
0100
,
0000
0001
0000
1000
,
0000
0010
1000
0010
,
1000
0000
0001
0000
,
0100
0000
0000
0000
;

//---------------dance-single - ----------------
#NOTES:
     dance-single:
     :
     Medium:
     5:
     0.380,0.373,0.206,0.143,0.000:
0001
0000
1000
0010
1000
0000
1001
0000
,
1000
0000
0001
0100
0001
0000
1001
0000
,
0001
0000
1000
0100
1000
0000
1001
0000
,
1000
0000
0001
0010
0001
0000
1001
0000
,
0000
0000
0200
0000
0000
0320
0000
0000
,
0230
0000
0000
2300
0000
0000
3001
0000
,
0000
0000
0020
0000
0000
0230
0000
0000
,
0320
0000
0000
0032
0000
0000
1003
0000
,
0000
0000
0020
0000
0000
2030
0000
0000
,
3200
0000
0000
2300
0000
0000
3001
0000
,
0000
0000
0200
0000
0000
0302
0000
0000
,
0023
0000
0000
0032
0000
0000
0003
0000
,
1000
0000
1001
0000
0001
0100
0001
0000
,
0010
0100
1000
0000
0010
0100
0010
0000
,
1000
0100
0001
0100
,
1000
0000
1001
0000
0010
0100
0010
0000
,
1000
0100
0010
0000
0001
1000
0001
0000
,
0100
1000
0100
0001
,
0100
0110
1000
0001
,
0100
0110
1000
0001
,
0101
0000
1000
0100
1000
0000
1100
0000
,
0001
0000
1000
0001
1000
0001
1000
0000
,
1100
0000
0001
0100
0001
0000
0101
0000
,
1000
0000
0001
1000
0001
1000
0001
0000
,
0010
0000
0001
0010
0100
0000
1100
0000
,
0001
0000
1000
0010
1000
0010
1000
0000
,
0100
0000
1000
0100
0010
0000
0011
0000
,
1000
0000
0001
0100
0001
0100
0001
0000
,
1000
0000
0100
0010
0100
0000
1000
0000
,
0001
0000
0010
0100
0010
0000
0001
0000
,
1000
0000
0010
0100
0010
0000
1000
0000
,
0001
0000
0100
0010
0100
0000
0001
0000
,
1000
0000
0100
0010
0001
0000
0100
0000
,
0001
0000
0010
0100
1000
0000
0010
0000
,
1000
0000
0010
0100
0001
0000
0010
0000
,
0001
0000
0100
0010
1000
0000
0100
0000
,
1100
0000
0001
0010
0100
0000
0011
0000
,
1100
0000
0010
0100
0010
0100
0010
0100
,
0001
0000
1000
0100
0010
0000
1100
0000
,
0011
0000
0100
0010
0100
0010
0100
0010
,
1000
0000
0001
0100
0010
0000
0101
0000
,
1010
0000
0010
0100
0010
0100
0010
0100
,
0001
0000
1000
0010
0100
0000
1010
0000
,
0101
0000
0100
0010
0100
0010
0100
0010
,
1000
0000
0001
1000
0100
0000
0001
0000
,
0100
0000
1000
0100
0010
0001
1000
0001
,
1000
0000
0001
1000
0100
0000
0001
0000
,
0100
0000
1000
0100
0010
0001
1000
0001
,
1000
0000
0001
1000
0010
0000
0001
0000
,
0010
0000
1000
0100
0010
0001
1000
0100
,
1000
0000
0001
1000
0010
0000
0001
0000
,
0010
0000
1000
0100
0010
0001
1000
0010
,
1000
0000
0000
0000
;

//---------------dance-single - ----------------
#NOTES:
     dance-single:
     :
     Hard:
     7:
     0.442,0.373,0.161,0.179,0.049: // measure 1
0001
0000
0100
0001
0010
0000
0110
0000
,  // measure 2
1000
0000
0010
1000
0100
0000
1000
0100
,  // measure 3
0001
0000
0100
1000
0010
0000
0110
0000
,  // measure 4
0001
0000
0100
0001
0010
0000
0220
0000
,  // measure 5
0330
0000
2000
0000
3010
0200
0010
0000
,  // measure 6
0302
0000
0103
0020
0100
0000
1030
0100
,  // measure 7
0010
0000
0002
0000
0103
0020
0100
0000
,  // measure 8
2030
0000
3010
0200
0010
0000
0301
0010
,  // measure 9
0100
0000
2000
0000
3001
0200
0010
0000
,  // measure 10
0302
0000
1003
0020
0100
0000
1030
0010
,  // measure 11
0100
0000
0002
0000
1003
0200
0010
0000
,  // measure 12
2300
0000
3001
0020
0100
0000
0031
0000
,  // measure 13
0100
0010
1000
0100
0000
0010
0000
0100
,  // measure 14
1000
0010
0000
0100
0000
0000
0010
1000
,  // measure 15
0100
0010
0000
0001
0000
0100
0000
0010
,  // measure 16
0100
0001
0000
0100
0000
0100
0000
0000
,  // measure 17
0001
0010
0100
0010
0000
0001
0000
0100
,  // measure 18
0010
1000
0000
0100
0000
0000
1000
0000
,  // measure 19
0010
1000
0100
0010
0100
0000
1000
0010
,  // measure 20
0100
0001
0000
1000
0000
1000
0010
0100
,  // measure 21
0110
0000
0100
0100
0001
0000
1100
0000
,  // measure 22
0100
0000
1000
0100
0001
0100
1000
0001
,  // measure 23
1000
0000
0100
0100
1000
0000
0101
0000
,  // measure 24
0100
0000
0001
0100
1000
0100
0001
1000
,  // measure 25
0001
0000
0100
0100
0010
0000
1001
0000
,  // measure 26
1000
0000
0100
0010
0100
1000
0001
0100
,  // measure 27
0010
0000
0100
0100
0010
0000
1001
0000
,  // measure 28
1000
0001
0010
0100
0010
0001
1000
0010
,  // measure 29
0110
0000
0000
0000
0010
0000
1000
0000
0100
0000
0000
0001
0000
0000
0100
0000
,  // measure 30
0000
0000
0000
0000
1000
0000
0001
0000
0100
0000
0000
1000
0000
0000
0100
0000
,  // measure 31
0002
0000
0000
0000
0013
0000
0100
0000
1000
0000
0000
0010
0000
0000
0001
0000
,  // measure 32
0020
0000
0000
0000
1030
0000
0001
0000
0010
0000
0000
1000
0000
0000
0010
0000
,  // measure 33
0001
0000
0000
0000
0010
0000
0100
0000
1000
0000
0000
0100
0000
0000
0001
0000
,  // measure 34
0100
0000
0000
0000
1000
0000
0100
0000
0010
0000
0000
0001
0000
0000
0010
0000
,  // measure 35
1000
0000
0000
0000
0010
0000
0001
0000
1000
0000
0000
0100
0000
0000
0001
0000
,  // measure 36
0100
1000
0100
0010
0100
1000
0001
0100
,  // measure 37
0101
0000
1000
1000
0010
0000
0101
0000
,  // measure 38
1001
0000
1000
0100
0001
0100
0010
0001
,  // measure 39
1000
0000
0001
0001
0100
0000
1010
0000
,  // measure 40
1001
0000
0001
0100
1000
0100
0010
1000
,  // measure 41
0001
0000
1000
1000
0100
0000
0011
0000
,  // measure 42
1001
0000
1000
0100
0001
0100
0010
0001
,  // measure 43
1000
0000
0001
0001
0010
0000
1100
0000
,  // measure 44
1001
0000
0001
0010
1000
0010
0100
1000
,  // measure 45
0001
0000
0000
0000
1000
0000
1000
0000
0010
0000
0000
0100
0000
0000
0001
0000
,  // measure 46
1000
0000
0100
0001
0100
1000
0010
0100
,  // measure 47
0001
0000
0000
0000
1000
0000
1000
0000
0100
0000
0000
0010
0000
0000
0001
0000
,  // measure 48
1000
0010
0001
0010
1000
0100
0010
0001
,  // measure 49
1000
0000
0000
0000
0010
0000
0010
0000
0100
0000
0000
0001
0000
0000
1000
0000
,  // measure 50
0010
0000
0100
0001
0010
1000
0010
0001
,  // measure 51
1000
0000
0000
0000
0010
0000
0010
0000
0100
0000
0000
0001
0000
0000
1000
0000
,  // measure 52
0001
0010
0001
0100
1000
0100
0001
1000
,  // measure 53
0010
0000
0000
0000
;

//---------------dance-single - ----------------
#NOTES:
     dance-single:
     :
     Beginner:
     1:
     0.067,0.093,0.027,0.000,0.000:
1000
0000
0000
0000
,
1000
0000
0000
0000
,
1000
0000
0000
0000
,
1000
0000
0000
0000
,
0000
0001
0000
0000
,
0000
0000
0000
0000
,
0000
0010
0000
0000
,
0000
0000
0000
0000
,
0000
0100
0000
0000
,
0000
0000
0000
0000
,
0000
1000
0000
0000
,
0000
0000
0000
0000
,
0001
0000
0000
0000
,
1000
0000
0000
0000
,
0001
0000
0000
0000
,
0010
0000
0000
0000
,
0100
0000
0000
0000
,
0010
0000
0000
0000
,
0001
0000
0000
0000
,
1000
0000
0000
0000
,
1001
0000
0000
0000
,
1000
0000
0000
0000
,
0001
0000
0000
0000
,
1000
0000
0000
0000
,
0010
0000
0000
0000
,
0100
0000
0000
0000
,
0001
0000
0000
0000
,
0010
0000
0000
0000
,
1001
0000
0000
0000
,
0001
0000
0000
0000
,
0001
0000
0000
0000
,
0001
0000
0000
0000
,
1000
0000
0000
0000
,
1000
0000
0000
0000
,
1000
0000
0000
0000
,
1000
0000
0000
0000
,
1001
0000
0000
0000
,
0010
0000
0000
0000
,
0100
0000
0000
0000
,
0010
0000
0000
0000
,
1000
0000
0000
0000
,
0001
0000
0000
0000
,
1000
0000
0000
0000
,
0100
0000
0000
0000
,
0010
0000
0000
0000
,
0001
0000
0000
0000
,
0010
0000
0000
0000
,
0100
0000
0000
0000
,
1000
0000
0000
0000
,
0010
0000
0000
0000
,
0100
0000
0000
0000
,
0001
0000
0000
0000
,
1000
0000
0000
0000
;
