#TITLE:Feel The Light;
#SUBTITLE:;
#ARTIST:TOMOSUKE;
#TITLETRANSLIT:;
#SUBTITLETRANSLIT:;
#ARTISTTRANSLIT:;
#CREDIT:DigiMindAxel;
#BANNER:Feel The Light.png;
#BACKGROUND:Feel The Light-bg.png;
#LYRICSPATH:;
#CDTITLE:beatmania.png;
#MUSIC:Feel The Light.mp3;
#OFFSET:-7.800;
#SAMPLESTART:15.154;
#SAMPLELENGTH:12.000;
#SELECTABLE:YES;
#BPMS:0.000=130.000;
#STOPS:;
#BGCHANGES:;

//---------------dance-single - ----------------
#NOTES:
     dance-single:
     :
     Easy:
     2:
     0.166,0.192,0.044,0.088,0.000:
0002
0000
0000
0000
,
0023
0000
0000
0000
,
0230
0000
0000
0000
,
2300
0000
0000
3000
,
1001
1000
1000
0000
,
0010
0000
0010
0000
,
1000
0001
1000
0000
,
0100
0000
0100
0000
,
1000
0001
1000
0000
,
0010
0000
0010
0000
,
0100
0010
0100
0000
,
0001
0000
0001
0000
,
1001
0000
1000
0000
,
1000
0000
0100
0000
,
0100
0000
0010
0000
,
0010
0000
0001
0000
,
0001
0000
1000
0000
,
0001
0000
0100
0000
,
0010
0000
1000
0000
,
0001
0000
1000
0000
,
1001
0000
1000
0000
,
0010
0000
0100
0000
,
0010
1000
0010
0000
,
0100
0000
0100
0000
,
0100
0001
0100
0000
,
0010
0100
0010
0000
,
1000
0100
1000
0000
,
0001
0010
0001
0000
,
1002
0000
0000
0000
,
0010
0000
0000
0000
,
2003
0000
0000
0000
,
0100
0000
0000
0000
,
3002
0000
0000
0000
,
0010
0000
0000
0000
,
2003
0000
0000
0000
,
0100
0000
3000
0000
,
1000
0001
1000
0000
,
0010
0100
0001
0000
,
0100
0010
1000
0000
,
0001
1000
0001
0000
,
0010
0100
1000
0000
,
0010
0100
0010
0000
,
1000
0100
0010
0000
,
0001
1000
0001
0010
;

//---------------dance-single - ----------------
#NOTES:
     dance-single:
     :
     Medium:
     5:
     0.331,0.337,0.066,0.088,0.000: // measure 1
0001
0000
0010
0000
,  // measure 2
1000
0000
0100
0000
,  // measure 3
0001
0000
0010
0000
,  // measure 4
0100
0000
1000
0000
,  // measure 5
1001
1000
1000
0010
,  // measure 6
1000
0100
1000
0001
,  // measure 7
0010
0001
0100
0001
,  // measure 8
0010
0100
1000
0010
,  // measure 9
1000
0010
1000
0100
,  // measure 10
1000
0010
1000
0100
,  // measure 11
0010
0001
0100
0001
,  // measure 12
0010
0001
0100
1000
,  // measure 13
1001
0000
1000
0000
0010
0100
0010
0000
,  // measure 14
1000
0000
1000
0000
0010
0100
0010
0000
,  // measure 15
1000
0000
0001
0000
0100
0010
0100
0000
,  // measure 16
0001
0000
0001
0000
0100
0010
0100
0000
,  // measure 17
0001
0010
0001
0000
1000
0010
1000
0000
,  // measure 18
0001
0100
0001
0000
1000
0100
1000
0000
,  // measure 19
0100
0010
0100
0000
1000
0010
1000
0000
,  // measure 20
0001
0010
0001
0000
0010
0100
0010
0000
,  // measure 21
1001
0000
0001
0000
0001
0100
0010
0000
,  // measure 22
1000
0000
1000
0000
1000
0010
0100
0001
,  // measure 23
1000
0000
1000
0000
1000
0010
0100
0000
,  // measure 24
0001
0000
0001
0000
0001
0100
0010
1000
,  // measure 25
0001
0010
0001
0000
1000
0100
1000
0000
,  // measure 26
0001
0010
0001
0000
0100
0010
1000
0001
,  // measure 27
1000
0100
1000
0000
0001
0010
0001
0000
,  // measure 28
1000
0100
1000
0000
0001
0010
0001
1000
,  // measure 29
0020
0000
0000
0000
0000
0100
0000
0000
,  // measure 30
0230
0000
0000
0010
0310
0000
0000
0000
,  // measure 31
1001
0000
0200
0000
0000
0010
0000
0000
,  // measure 32
0320
0000
0000
0100
0130
0000
0000
0000
,  // measure 33
1001
0000
0020
0000
0000
0100
0000
0000
,  // measure 34
0230
0000
0000
0010
0310
0000
0000
0000
,  // measure 35
1001
0000
0200
0000
0000
0010
0000
0000
,  // measure 36
0320
0000
0130
0000
,  // measure 37
0010
0100
0001
0000
0100
0000
1000
0000
,  // measure 38
0100
0001
1000
0000
0100
0000
0001
0000
,  // measure 39
0100
1000
0001
0000
0100
0000
1000
0000
,  // measure 40
0100
0001
1000
0000
0010
0100
0010
0000
,  // measure 41
1000
0100
0010
0000
0001
0000
0100
0000
,  // measure 42
1000
0100
0001
0000
1000
0000
0100
0000
,  // measure 43
0001
0100
1000
0000
0010
0100
0001
0000
,  // measure 44
0010
0000
0100
0000
1000
0100
0010
0100
;

//---------------dance-single - ----------------
#NOTES:
     dance-single:
     :
     Hard:
     7:
     0.433,0.410,0.110,0.088,0.286: // measure 1
2000
0000
0000
0000
,  // measure 2
3200
0000
0000
0000
,  // measure 3
0320
0000
0000
0000
,  // measure 4
0032
0000
0000
0000
,  // measure 5
1003
0001
0010
0100
0010
0000
0001
1000
,  // measure 6
0010
1000
1001
0000
,  // measure 7
0001
1000
0100
0010
0100
0000
1000
0000
,  // measure 8
1001
0000
0001
0100
0001
1000
0100
0000
,  // measure 9
1000
0001
0010
0100
0010
0000
0001
1000
,  // measure 10
0100
1000
1001
0000
,  // measure 11
0001
1000
0100
0010
0100
0000
1000
0001
,  // measure 12
0010
0000
0001
0010
0001
1000
0010
0100
,  // measure 13
0001
0000
1000
0000
0001
0000
0000
1000
0000
0100
0000
1000
0001
0000
0000
0000
,  // measure 14
1000
0000
0001
0000
1000
0000
0000
0001
0000
0010
0000
0001
1000
0000
0000
0000
,  // measure 15
0001
0000
0100
0000
0010
0000
0000
1000
0000
0010
0000
1000
0001
0000
0000
0000
,  // measure 16
1000
0000
0010
0000
0100
0000
0000
0001
0000
0100
0000
0001
1000
0000
0000
0000
,  // measure 17
0001
0000
0010
0000
0100
0000
0000
1000
0000
0010
0000
0100
0010
0000
0000
0000
,  // measure 18
1000
0000
0100
0000
0010
0000
0000
0001
0000
0100
0000
0010
0100
0000
0000
0000
,  // measure 19
0001
0000
0100
0000
0010
0000
0000
1000
0000
0100
0000
0010
0100
0000
0000
0000
,  // measure 20
1000
0000
0010
0000
0100
0000
0000
0001
0000
0010
0000
0100
0010
0000
0001
0000
,  // measure 21
1000
0001
0010
0000
0100
0010
0100
0000
,  // measure 22
1000
0001
0010
0100
1000
0010
0100
0001
,  // measure 23
0001
1000
0100
0000
0010
0100
0010
0000
,  // measure 24
0001
1000
0100
0010
0001
0100
0010
1000
,  // measure 25
1000
0001
0010
0100
1000
1000
0010
0000
,  // measure 26
1000
0001
0010
0100
1000
1000
0001
0010
,  // measure 27
0001
1000
0100
0010
0001
0001
1000
0000
,  // measure 28
0001
1000
0100
0010
0001
1000
1000
0001
,  // measure 29
0201
0000
0000
0000
0000
0010
0000
0000
,  // measure 30
0310
0000
0000
1000
0100
0001
0100
0000
,  // measure 31
0110
0000
1020
0000
0000
0100
0000
0000
,  // measure 32
0130
0000
0000
0001
0010
1000
0010
0000
,  // measure 33
0110
0000
0201
0000
0000
0010
0000
0000
,  // measure 34
0310
0000
0000
1000
0100
0001
0100
0000
,  // measure 35
0110
0000
1020
0000
0000
0100
0000
0000
,  // measure 36
0130
0000
0000
0001
1000
0000
0000
0000
,  // measure 37
0001
0000
0000
0001
0100
0000
0000
0010
1000
0000
0000
1000
0001
0000
0000
1000
,  // measure 38
0010
0000
0000
0100
0001
0000
0000
0001
1000
0000
0000
0001
0010
0000
0000
0100
,  // measure 39
1000
0000
0000
1000
0001
0000
0000
1000
0100
0000
0000
0010
0001
0000
0000
0001
,  // measure 40
1000
0000
0000
0001
0100
0000
0000
0010
0100
0000
0000
1000
0001
0000
0000
1000
,  // measure 41
0010
0000
0100
0000
0010
1000
0000
0100
0000
0010
0000
0000
0001
0000
1000
0000
,  // measure 42
0010
0000
0100
0000
0010
1000
0000
0100
0000
0010
0000
0000
0001
0000
0010
0000
,  // measure 43
0100
0000
0010
0000
0001
1000
0000
0100
0000
0010
0000
0000
0001
0000
0010
0000
,  // measure 44
0100
0000
0010
0000
0001
1000
0000
0010
0000
0100
0000
0000
0001
0000
1000
0000
;

//---------------dance-single - ----------------
#NOTES:
     dance-single:
     :
     Challenge:
     8:
     0.496,0.458,0.121,0.088,0.450: // measure 1
0100
0000
0000
1000
0000
0000
0002
0000
0000
0000
0010
0000
0000
0010
0000
0000
,  // measure 2
0013
0000
0000
0001
0000
0000
2000
0000
0000
0000
0010
0000
0000
0010
0000
0000
,  // measure 3
3010
0000
0000
1000
0000
0000
0002
0000
0000
0000
0100
0000
0000
0100
0000
0000
,  // measure 4
0103
0000
0000
0001
0000
0000
2000
0000
0000
0000
0001
0000
0000
0001
0000
0000
,  // measure 5
3001
0010
0100
0010
0001
1000
0100
0001
,  // measure 6
0100
0000
1000
0001
0100
0000
0010
0000
,  // measure 7
1000
0100
0010
0100
1000
0001
0010
1000
,  // measure 8
0010
0000
0001
1000
0100
0010
0010
0000
,  // measure 9
0001
0010
0100
0010
0001
1000
0100
0001
,  // measure 10
0100
0000
1000
0001
0100
0000
0010
0000
,  // measure 11
1000
0100
0010
0100
1000
0001
0100
1000
,  // measure 12
0100
0000
0000
0000
0001
0000
1000
0000
0010
0000
0100
0000
0010
0100
0010
0000
,  // measure 13
1001
0000
1000
0000
0010
0000
0000
1000
0000
0001
0000
0010
0100
0000
0000
0000
,  // measure 14
1000
0000
0010
0000
0100
0001
0000
1000
0000
0100
0000
1000
0001
0000
0000
0000
,  // measure 15
1000
0000
0001
0000
0100
0000
0000
0001
0000
1000
0000
0100
0010
0000
0000
0000
,  // measure 16
0001
0000
0100
0000
0010
1000
0000
0001
0000
0010
0000
0001
1000
0000
0000
0000
,  // measure 17
0001
0000
0100
0000
0010
0000
0000
1000
0000
0001
0000
0010
0100
0000
0000
0000
,  // measure 18
1000
0000
0100
0000
0010
0001
0000
1000
0000
0010
0000
1000
0001
0000
0010
0000
,  // measure 19
0001
0000
0100
0000
0010
0000
0000
1000
0000
0001
0000
0010
0100
0000
0000
0000
,  // measure 20
1000
0000
0100
0000
0010
0001
0000
1000
0000
0010
0000
1000
0001
0000
0010
0000
,  // measure 21
0001
1000
0100
0000
0001
0100
1000
0000
,  // measure 22
0100
0000
0010
0000
0100
0000
1000
0001
0000
1000
0001
0000
1000
0000
0100
0000
,  // measure 23
1000
0001
0010
0000
1000
0010
0001
0000
,  // measure 24
0010
0000
0100
0000
1000
0000
0001
1000
0000
0001
1000
0000
0001
0000
0100
0000
,  // measure 25
0001
1000
0000
0000
0100
0000
0010
0000
0100
0000
0000
1100
0000
0000
0000
0000
,  // measure 26
1000
0001
0000
0000
0010
0000
0100
0000
0010
0000
0000
0011
0000
0000
0000
0000
,  // measure 27
0001
1000
0000
0000
0100
0000
0010
0000
0100
0000
0000
1010
0000
0000
0000
0000
,  // measure 28
1000
0001
0000
0000
0010
0000
0100
0000
1000
0001
1000
0001
1000
0000
0010
0000
,  // measure 29
0120
0000
0000
0000
0000
1000
0000
0000
,  // measure 30
1030
0000
0000
0001
1000
0100
0010
0000
,  // measure 31
0110
0000
0210
0000
0000
0001
0000
0000
,  // measure 32
0301
0000
0000
1000
0001
0010
0100
0000
,  // measure 33
0110
0000
0120
0000
0000
1000
0000
0000
,  // measure 34
1030
0000
0000
0001
1000
0100
0010
0000
,  // measure 35
0110
0000
0210
0000
0000
0001
0000
0000
,  // measure 36
0301
0000
0000
1000
0001
0000
0000
0000
,  // measure 37
0100
0000
0001
0000
1000
0100
0000
1000
0000
0100
0000
1000
0001
0000
0001
0000
,  // measure 38
0100
0000
0001
0000
1000
0010
0000
1000
0000
0010
0000
1000
0001
0000
0100
0000
,  // measure 39
0010
0000
1000
0000
0001
0010
0000
0001
0000
0010
0000
0001
1000
0000
1000
0000
,  // measure 40
0010
0000
1000
0000
0001
0100
0000
0001
0000
0100
0000
0001
1000
0000
0100
0000
,  // measure 41
1000
0000
0001
0000
0100
0001
0000
0010
0000
0001
0000
0010
0100
0000
1000
0000
,  // measure 42
0001
0000
1000
0000
0010
1000
0000
0100
0000
1000
0000
0100
0010
0000
0001
0000
,  // measure 43
1000
0000
0001
0000
0100
0001
0000
0010
0000
0001
0000
0100
0010
0000
1000
0000
,  // measure 44
0001
0000
1000
0000
0010
1000
0000
0100
0000
1000
0000
0010
0100
0000
0001
0000
;

//---------------dance-single - ----------------
#NOTES:
     dance-single:
     :
     Beginner:
     1:
     0.078,0.143,0.022,0.000,0.000:
0000
0000
0000
0000
,
0000
0000
0000
0000
,
0000
0000
0000
0000
,
0000
0000
0000
0000
,
0001
0000
0000
0000
,
0001
0000
0000
0000
,
0001
0000
0000
0000
,
0001
0000
0000
0000
,
1000
0000
0000
0000
,
1000
0000
0000
0000
,
1000
0000
0000
0000
,
1000
0000
0000
0000
,
0010
0000
0000
0000
,
0100
0000
0000
0000
,
0010
0000
0000
0000
,
1000
0000
0000
0000
,
0100
0000
0000
0000
,
0010
0000
0000
0000
,
0100
0000
0000
0000
,
0010
0000
0000
0000
,
0001
0000
1000
0000
,
0001
0000
0000
0000
,
1000
0000
0001
0000
,
1000
0000
0000
0000
,
0001
0000
1000
0000
,
0001
0000
0000
0000
,
1000
0000
0001
0000
,
1000
0000
0000
0000
,
0110
0000
0000
0000
,
0000
0000
0000
0000
,
0010
0000
0000
0000
,
0000
0000
0000
0000
,
0100
0000
0000
0000
,
0000
0000
0000
0000
,
0010
0000
0000
0000
,
0000
0000
0000
0000
,
1001
0000
1000
0000
,
0001
0000
1000
0000
,
0100
0000
0010
0000
,
0100
0000
0010
0000
,
0001
0000
1000
0000
,
0001
0000
1000
0000
,
0001
0000
0100
0000
,
0010
0000
0100
0000
;
