#TITLE:フリーパス;
#SUBTITLE:;
#ARTIST:パンダバンダ;
#TITLETRANSLIT:FREE PASS;
#SUBTITLETRANSLIT:;
#ARTISTTRANSLIT:PANDA BANDA;
#CREDIT:DigiMindAxel;
#BANNER:FREE PASS.png;
#BACKGROUND:FREE PASS-bg.png;
#LYRICSPATH:;
#CDTITLE:pop'n music.png;
#MUSIC:FREE PASS.mp3;
#OFFSET:-4.680;
#SAMPLESTART:1.160;
#SAMPLELENGTH:12.000;
#SELECTABLE:YES;
#DISPLAYBPM:140.000:186.000;
#BPMS:0.000=140.000,128.000=186.750,221.000=160.000;
#STOPS:128.000=0.964
;
#BGCHANGES:;

//---------------dance-single - ----------------
#NOTES:
     dance-single:
     :
     Easy:
     3:
     0.238,0.267,0.109,0.258,0.000: // measure 1
0001
1000
0001
0100
,  // measure 2
0020
0000
0030
0000
,  // measure 3
1000
0001
1000
0010
,  // measure 4
0200
0000
0300
0000
,  // measure 5
0002
0000
2003
0000
,  // measure 6
3002
0000
1003
0000
,  // measure 7
0020
0000
0230
0000
,  // measure 8
0320
0000
0130
0000
,  // measure 9
0110
0000
0110
0000
,  // measure 10
0100
0010
0100
0000
,  // measure 11
0001
1000
0001
0010
,  // measure 12
0200
0000
0300
0000
,  // measure 13
1000
0001
1000
0100
,  // measure 14
0020
0000
0030
0000
,  // measure 15
0002
0000
0203
0000
,  // measure 16
0320
0000
2030
0000
,  // measure 17
3100
0010
0001
1000
,  // measure 18
0002
0000
0003
0000
,  // measure 19
1001
0000
1001
0000
,  // measure 20
1000
0001
1000
0000
,  // measure 21
0010
0100
0010
0100
,  // measure 22
0001
1000
0001
1000
,  // measure 23
0100
0000
0000
0000
,  // measure 24
0000
0000
0000
0000
,  // measure 25
1000
0001
1000
0001
,  // measure 26
0100
0001
0100
0010
,  // measure 27
0100
0000
0000
0000
,  // measure 28
0000
0000
0000
0000
,  // measure 29
0001
1000
0001
1000
,  // measure 30
0001
0100
0010
1000
,  // measure 31
0100
0010
0100
0010
,  // measure 32
0001
1000
1001
0000
,  // measure 33
0000
0001
0000
1000
,  // measure 34
0000
0001
0000
1000
,  // measure 35
0000
0020
0000
0000
,  // measure 36
0000
0130
0000
0100
,  // measure 37
0000
0010
0000
0100
,  // measure 38
0000
0010
0000
1000
,  // measure 39
0000
0002
0000
0000
,  // measure 40
0000
1003
0000
0100
,  // measure 41
0000
0010
0000
0001
,  // measure 42
0000
0010
0000
0000
,  // measure 43
0000
0100
0000
1000
,  // measure 44
0000
0100
0000
0000
,  // measure 45
0000
1000
0000
1000
,  // measure 46
0000
0001
0000
0001
,  // measure 47
0000
0000
0220
0000
,  // measure 48
0330
0000
0220
0000
,  // measure 49
0330
1000
0000
0010
,  // measure 50
0000
1000
0000
0001
,  // measure 51
0000
0000
0220
0000
,  // measure 52
0330
0000
0220
0000
,  // measure 53
0330
0001
0000
0100
,  // measure 54
0000
0001
0000
1000
,  // measure 55
0000
0020
0000
0000
,  // measure 56
0000
0030
0000
0000
,  // measure 57
0000
1001
1000
0100
,  // measure 58
1000
0001
1000
0001
,  // measure 59
0100
0001
0010
0100
,  // measure 60
1000
0001
0000
0000
,  // measure 61
1001
0000
0000
0000
;

//---------------dance-single - ----------------
#NOTES:
     dance-single:
     :
     Medium:
     5:
     0.388,0.476,0.287,0.238,0.000:
1000
0100
0010
0001
,
0200
0010
0010
0310
,
1000
0010
0100
0001
,
0020
0100
0100
0130
,
0001
1000
0000
0100
0010
0000
0001
0000
,
1000
0010
0100
0000
,
0001
1000
0000
0010
0100
0000
0001
0000
,
0010
0000
0100
0000
1000
0001
1000
0000
,
1001
0000
0110
0000
,
0010
0100
0010
0100
0010
0000
0000
0000
,
1000
0100
0010
0001
,
0100
0001
0100
0000
0010
1000
0100
0000
,
0010
0001
0010
0100
,
1000
0010
0100
0000
0010
0100
0010
0000
,
1000
0100
0001
0100
,
1000
0010
0100
0000
0001
0000
0010
0000
,
1000
0000
0010
0000
0001
0000
0100
0010
,
0100
0000
0001
1000
0100
0000
0000
0000
,
1001
0000
0110
0000
,
0100
0010
0100
0010
0100
0000
0000
0000
,
0001
0010
1000
0010
,
0001
0100
0010
0000
0100
0010
1000
0000
,
0220
0000
0000
0330
,
0000
0010
0100
0010
0100
0010
0100
0000
,
0001
1000
0100
0000
0010
0100
0010
0000
,
0001
1000
0100
0001
,
2200
0000
0000
0000
,
3300
0000
1000
0001
1000
0000
1001
0000
,
0001
0000
0010
0000
1000
0010
0001
0000
,
0100
0000
0010
0000
1000
0001
0100
0000
,
1000
0000
0100
0000
0001
0000
0010
0100
,
0010
0001
1001
0000
,
0000
0100
0001
0100
,
0001
1000
0100
0010
,
0100
1000
0001
0010
,
0100
1000
0020
0030
,
0200
0301
0010
0100
,
1000
0010
0100
0001
,
0010
1000
0010
0001
,
1000
0020
0030
0200
,
0300
0110
0000
0110
,
0000
0200
0020
0000
,
0330
1001
0000
1001
,
0000
0020
0200
0000
,
0330
0010
1000
0100
,
0010
0001
0100
1000
,
0100
0001
0220
0000
,
0330
1000
0220
0000
,
0330
0001
0010
0100
,
1000
0010
0001
0010
,
1000
0010
0220
0000
,
0330
0010
0220
0000
,
0330
0001
1000
0100
,
0010
0001
0010
0100
,
1000
0220
0000
0000
,
0000
0330
0000
0000
,
0000
0110
0110
0101
,
0101
1100
1100
0110
,
0110
0011
0011
1100
,
0100
0000
1001
0000
0000
0000
0000
0001
,
1000
0000
0000
0000
;

//---------------dance-single - ----------------
#NOTES:
     dance-single:
     :
     Hard:
     8:
     0.543,0.535,0.337,0.267,0.035:
0001
0100
0001
0010
0100
1000
0100
0010
,
0002
0100
0000
0100
0000
0100
0000
0103
,
0001
1000
0001
0010
1000
0010
0001
1000
,
0020
0100
0000
0100
0000
0100
0000
0130
,
0001
1000
0000
1000
0200
0000
0010
0000
,
0301
0000
0000
1000
0010
0000
0100
0000
0020
0000
0000
0000
0000
0000
0000
0000
,
1030
0001
0000
0001
0020
0000
0100
0000
,
1030
0000
0000
0001
0100
0000
0010
0000
0100
0000
0100
0000
0100
0000
0000
0000
,
0110
0000
1001
0000
,
1000
0100
0001
0100
1000
0000
1001
0000
,
1000
0010
1000
0100
0010
0001
0010
0100
,
2000
0010
0010
0000
0000
0100
3100
1000
,
0001
0100
0001
0010
1000
0010
0001
1000
,
0002
0100
0100
0000
0000
1000
1003
0000
,
0001
0000
0200
0000
0000
0000
0010
0000
0320
0000
0000
0000
0000
0000
1030
0001
,
1000
0000
0200
0000
0000
0000
0010
0000
0320
0000
0000
0000
0000
0000
0031
1000
,
0001
0010
0100
1000
0010
0001
0010
1000
,
0001
0100
0000
0100
0110
0000
0000
0000
,
0110
0000
1001
0000
,
0001
0010
1000
0010
0001
0000
1001
0000
,
1000
0001
0010
1000
0010
0001
2000
0000
,
0000
3100
0001
0100
1000
0001
0100
0000
,
0220
0000
0000
0000
0000
0000
0000
0330
,
0000
0001
0001
1000
1000
0100
0010
0000
,
0001
1000
0100
0001
0100
1000
0002
0000
,
0000
0013
1000
0010
0001
0100
0010
0000
,
0220
0000
0000
0000
,
0330
0000
0000
0000
1000
0001
1000
0001
1000
0000
0000
0000
1001
0000
0000
0000
,
1000
0100
0001
0100
1000
0010
0100
0000
,
0001
0010
0100
0010
0001
1000
0100
1000
,
0000
0001
0010
1000
0010
0001
1000
0010
,
0100
0001
1000
0010
0110
0000
0000
0000
,
0000
0000
0001
0010
0100
0000
0010
0000
,
1010
0000
0001
0010
0100
0000
0010
0000
,
1010
0000
0100
0001
0100
0001
1000
0100
,
1000
0100
0010
0001
0200
0000
0310
0001
,
0200
0000
0301
1000
0100
0000
0010
0000
,
0101
0000
0001
1000
0100
0000
0010
0000
,
0101
0000
0010
1000
0010
1000
0001
0010
,
0001
0010
0100
1000
0020
0000
0130
1000
,
0020
0130
0000
1001
,
0000
0100
2200
0000
,
3300
0110
0000
1001
,
0000
0010
0022
0000
,
0033
0000
0010
1000
0001
0000
0100
0000
,
0110
0000
0010
1000
0001
0000
0100
0000
,
0110
0000
1000
0010
0100
0001
0100
0001
,
1000
0000
0001
0100
0010
1000
0010
1000
,
0001
0000
0010
0001
0100
0000
0010
0000
,
1100
0000
0010
0001
0100
0000
0010
0000
,
1100
0000
0001
0100
0010
1000
0010
1000
,
0001
0000
1000
0010
0100
0001
0100
0001
,
1000
1001
0100
0110
,
0000
1001
1100
0011
,
0110
0220
0000
0000
,
0000
0330
0000
0000
,
0000
0000
1000
0001
0010
0100
0001
0100
,
1000
0001
1000
0100
0010
1000
0010
0001
,
0100
1000
0100
0010
1000
0100
0010
0000
,
0101
0000
0000
0000
0010
0000
1000
0010
1000
0000
0001
0000
0000
0000
1001
0000
,
1001
0000
0000
0000
;

//---------------dance-single - ----------------
#NOTES:
     dance-single:
     :
     Challenge:
     9:
     0.691,0.862,0.198,0.317,0.297:
1000
0100
0001
0100
1000
0001
0010
0100
,
0020
0001
0000
0100
0000
0001
0000
0130
,
0001
0010
1000
0010
0001
1000
0100
0010
,
0200
1000
0000
0010
0000
1000
0000
0310
,
1000
0100
0010
0001
0200
0000
0010
0000
,
0310
0000
0000
1000
0001
0000
0100
0000
0001
0000
1000
0100
1000
0100
1000
0000
,
0001
0010
0100
1000
0020
0000
0100
0000
,
0130
0000
0000
0001
1000
0000
0100
0000
1000
0000
0001
0100
0001
0000
0000
0000
,
0101
0000
0010
0100
0010
0000
0000
0000
0101
0000
0010
0100
0010
0000
0000
0000
,
1000
0100
0001
0100
1000
0000
1001
0000
,
0001
0010
1000
0010
0001
1000
0100
0010
,
0100
0000
1000
0010
1000
0000
0010
0000
0000
0000
0100
0010
0100
0000
0001
0000
,
1000
0100
0001
0100
1000
0001
0010
0100
,
0010
0000
0001
0100
0001
0000
1000
0000
0000
0000
0010
0100
0010
0000
1000
0000
,
0001
0000
0010
0000
0100
0000
1000
0000
0020
0000
0000
0000
0130
0000
0001
1000
,
0001
0000
0100
0000
0010
0000
1000
0000
0200
0000
0000
0000
0310
0000
0001
1000
,
0001
0000
1000
0000
1000
0000
0001
0000
0001
0000
0010
0000
0100
0000
0000
1000
,
0010
0100
0001
1000
1001
0000
0000
0000
,
1010
0000
0100
0010
0100
0000
0000
0000
1010
0000
0100
0010
0100
0000
0000
0000
,
0001
0001
0100
0100
0010
0000
1010
0000
,
0001
0010
1000
0010
0001
1000
0200
0010
,
0000
0310
1000
0100
0001
0100
1000
0000
,
1002
0000
0000
0000
0000
0000
1003
0100
2000
0000
0000
0000
3020
0000
0000
0000
,
0130
0000
0001
0000
0001
0000
1000
0000
1000
0000
0010
0000
0100
0010
0100
0010
,
0100
0001
0100
1000
0100
0001
0020
0100
,
0000
0130
0001
0010
1000
0010
0001
0000
,
2001
0000
0000
0000
0000
0000
3001
0010
0002
0000
0000
0000
0203
0000
0000
0000
,
0010
0000
0310
0000
1000
0001
1000
0001
1000
0000
0000
0000
1001
0000
0000
0000
,
1000
0000
0001
0000
0010
0000
0100
0000
0001
0000
0100
0000
1000
0000
0010
1000
,
0010
1000
0010
0100
1000
0100
0001
1000
,
0000
0000
0001
0000
0010
0000
0100
0000
0001
0000
0100
0000
1000
0000
0010
0100
,
0010
1000
0100
0010
0110
0000
0000
0000
,
0000
0000
0000
0000
1000
0000
0000
0010
1000
0000
0100
0000
0010
0000
0001
0000
,
0100
0000
0000
0000
0001
0000
0000
1000
0001
0000
0010
0000
0100
0000
1000
0000
,
0010
0000
1000
0100
0001
0100
1000
0001
,
0010
0000
1000
0000
0010
0000
0001
1000
0002
0000
0000
0000
0013
0000
0001
1000
,
0002
0000
0000
0000
1003
0000
0000
0010
0100
0000
0001
0000
0010
0000
0100
0000
,
1000
0000
0000
0000
0001
0000
0000
0100
0010
0000
1000
0000
0100
0000
0010
0000
,
0001
0000
1000
0010
0001
0010
1000
0001
,
0100
0000
1000
0000
0100
0000
0001
1000
0002
0000
0000
0000
0103
0000
0001
1000
,
0001
2002
3003
2200
,
3300
0000
0000
0010
0001
0100
0020
0000
0000
1030
0100
0010
,
0001
0022
0033
2002
,
3003
0000
0000
0100
1000
0010
0200
0000
0000
0301
0010
0100
,
2000
0000
0000
0000
3001
0000
0000
0100
0001
0000
0010
0000
0100
0000
1000
0000
,
0010
0000
0000
0000
1000
0000
0000
0010
1000
0000
0100
0000
0010
0000
0001
0000
,
0100
0000
0001
0100
0010
0010
1000
1000
,
0001
0001
1000
0100
0010
0010
0001
0001
,
1000
0000
1000
0000
0001
0000
0100
0001
0100
0000
0001
0000
1000
0000
0100
0000
,
0010
0000
0000
0000
0100
0000
1000
0010
1000
0000
0001
0000
0010
0000
0100
0000
,
0010
0000
0001
0010
0100
0100
1000
1000
,
0010
0010
1000
0010
0100
0100
0001
0001
,
1000
1000
0002
0100
0103
0000
0020
0100
,
0130
0000
0001
0001
1000
1000
0100
0010
,
0001
0100
0220
0000
0000
0000
0000
0000
,
0000
0330
0000
0000
,
0001
1000
0001
1000
0001
0100
0001
0100
0010
1000
0010
0000
1000
0001
1000
0000
,
0100
1000
0100
0000
0010
0100
0010
0000
0001
0010
0001
0010
0100
1000
0100
1000
,
0010
0100
0010
0000
0100
0001
0100
0000
0010
1000
0010
0000
1001
0000
0000
0000
,
0110
0000
0000
0000
0100
0000
0001
0100
0010
0000
1000
0000
0000
0000
1001
0000
,
1001
0000
0000
0000
;

//---------------dance-single - ----------------
#NOTES:
     dance-single:
     :
     Beginner:
     2:
     0.140,0.178,0.119,0.000,0.000: // measure 1
1000
0000
0000
0000
,  // measure 2
1000
0000
0000
0000
,  // measure 3
0001
0000
0000
0000
,  // measure 4
0001
0000
0000
0000
,  // measure 5
0100
0000
0010
0000
,  // measure 6
0100
0000
0000
0000
,  // measure 7
0010
0000
0100
0000
,  // measure 8
0010
0000
0000
0000
,  // measure 9
1001
0000
1000
0000
,  // measure 10
0001
0000
0000
0000
,  // measure 11
1000
0000
0001
0000
,  // measure 12
1000
0000
0000
0000
,  // measure 13
0100
0000
1000
0000
,  // measure 14
0100
0000
0000
0000
,  // measure 15
0010
0000
0001
0000
,  // measure 16
0010
0000
0000
0000
,  // measure 17
0001
0000
1000
0000
,  // measure 18
0001
0000
0000
0000
,  // measure 19
1001
0000
1000
0000
,  // measure 20
0001
0000
0000
0000
,  // measure 21
0100
0000
0010
0000
,  // measure 22
0100
0000
0010
0000
,  // measure 23
0110
0000
0000
0000
,  // measure 24
0000
0000
0000
0000
,  // measure 25
0001
0000
1000
0000
,  // measure 26
0001
0000
1000
0000
,  // measure 27
1001
0000
0000
0000
,  // measure 28
0000
0000
0000
0000
,  // measure 29
0010
0000
0100
0000
,  // measure 30
0010
0000
0100
0000
,  // measure 31
0010
0000
0100
0000
,  // measure 32
0010
0000
0000
0000
,  // measure 33
0000
1000
0000
0000
,  // measure 34
0000
0001
0000
0000
,  // measure 35
0000
1000
0000
1000
,  // measure 36
0000
1000
0000
0000
,  // measure 37
0000
0001
0000
0000
,  // measure 38
0000
1000
0000
0000
,  // measure 39
0000
0001
0000
0001
,  // measure 40
0000
0001
0000
0100
,  // measure 41
0000
0100
0000
0100
,  // measure 42
0000
0110
0000
0000
,  // measure 43
0000
0010
0000
0010
,  // measure 44
0000
0110
0000
0000
,  // measure 45
0000
1000
0000
0001
,  // measure 46
0000
1000
0000
1000
,  // measure 47
0000
0000
1001
0000
,  // measure 48
0000
0000
1001
0000
,  // measure 49
0000
0001
0000
1000
,  // measure 50
0000
0001
0000
0001
,  // measure 51
0000
0000
1001
0000
,  // measure 52
0000
0000
1001
0000
,  // measure 53
0000
1000
0000
0001
,  // measure 54
0000
1000
0000
1000
,  // measure 55
0000
1001
0000
0000
,  // measure 56
0000
0000
0000
0000
,  // measure 57
0000
1000
0000
1000
,  // measure 58
0000
0100
0000
0100
,  // measure 59
0000
0010
0000
0010
,  // measure 60
0000
0001
0000
0000
,  // measure 61
1001
0000
0000
0000
;
