#TITLE:Eternal Space Contemplation;
#SUBTITLE:;
#ARTIST:EBISU;
#TITLETRANSLIT:;
#SUBTITLETRANSLIT:;
#ARTISTTRANSLIT:;
#CREDIT:DigiMindAxel;
#BANNER:Eternal Space Contemplation.png;
#BACKGROUND:Eternal Space Contemplation-bg.png;
#LYRICSPATH:;
#CDTITLE:DMAxel original simfile.png;
#MUSIC:Eternal Space Contemplation.mp3;
#OFFSET:-12.100;
#SAMPLESTART:72.472;
#SAMPLELENGTH:12.000;
#SELECTABLE:YES;
#BPMS:0.000=79.500,80.000=159.000,112.000=79.500;
#STOPS:;
#BGCHANGES:;

//---------------dance-single - ----------------
#NOTES:
     dance-single:
     :
     Easy:
     3:
     0.152,0.142,0.000,0.047,0.000:
0001
0000
0010
0000
,
0100
0000
1000
0000
,
0001
0000
1000
0000
,
0001
0000
1000
0000
,
0100
0010
0100
0000
,
1000
0001
1000
0000
,
0001
1000
0001
0000
,
0010
0100
0010
0000
,
0002
0000
0000
0000
,
2003
0000
0000
0000
,
3002
0000
0103
0010
,
2000
0000
3010
0100
,
0001
1000
0001
1000
,
0010
0100
0010
0100
,
0001
1000
0001
1000
,
0100
0010
0100
0010
,
0001
1000
0001
1000
,
0100
0010
0100
0010
,
0001
0100
0010
1000
,
0100
0010
0001
1000
,
0001
0100
0001
0100
,
0001
0100
0001
0100
,
0010
1000
0010
1000
,
0010
1000
0010
1000
,
0001
1000
0001
1000
,
0001
1000
0001
1000
,
0100
1000
0100
1000
,
0100
0000
0000
0000
,
1000
0100
0010
0001
,
1000
0100
0010
0001
,
0100
0010
0100
0010
,
1000
0100
0010
0001
,
0100
0000
0100
0000
,
0200
0000
0300
0000
;

//---------------dance-single - ----------------
#NOTES:
     dance-single:
     :
     Medium:
     5:
     0.255,0.269,0.151,0.019,0.000:
1000
0100
1000
0100
,
0010
0001
0010
0001
,
0100
0010
0100
0010
,
1000
0001
1000
0001
,
0100
0010
1000
0100
,
0010
0001
0100
1000
,
0100
0001
0010
0100
,
1000
0010
0001
0010
,
1000
0100
0010
0000
0000
0000
0000
0000
,
0001
0010
0100
0000
0000
0000
0000
0000
,
1000
0010
0100
0001
1000
0000
0000
0000
,
0001
0100
0010
1000
0001
0000
0000
0000
,
1000
0100
0010
0001
1000
0000
1001
0000
,
0001
0010
0100
1000
0001
0000
1001
0000
,
1000
0100
1000
0100
0010
0000
1001
0000
,
0001
0010
0001
0010
0100
0000
1001
0000
,
1000
0010
0100
0001
0010
0100
1000
0000
,
0001
0100
0010
1000
0100
0010
0001
0000
,
1000
0100
0010
0001
0100
0010
1000
0000
,
0001
0010
0100
1000
0010
0100
0001
0000
,
1000
0010
1000
0010
1000
0010
1000
0000
,
0001
0001
1000
1000
,
0001
0100
0001
0100
0001
0100
0001
0000
,
1000
1000
0001
0001
,
1000
0100
1000
0100
1000
0100
1000
0000
,
0001
0001
1000
1000
,
0001
0010
0001
0010
0001
0010
0001
0000
,
2000
0000
0000
0000
,
3001
0100
0110
0000
1010
0000
1001
0000
,
1000
0010
0110
0000
0101
0000
1001
0000
,
0001
0010
0110
0000
1100
0000
1001
0000
,
1000
0100
0110
0000
0011
0000
1001
0000
,
0001
0010
0100
1000
0001
0001
1000
1000
,
0020
0000
0130
0000
;

//---------------dance-single - ----------------
#NOTES:
     dance-single:
     :
     Hard:
     7:
     0.364,0.368,0.264,0.066,0.000:
0001
0010
0100
0010
0001
0000
1000
0001
,
1000
0100
0010
0100
1000
0000
0001
1000
,
0001
0010
0100
0010
0001
0000
1000
0001
,
1000
0100
0010
0100
1000
1000
0010
0100
,
0001
0100
1000
0100
0001
0010
0100
1000
,
0001
0010
1000
0010
0001
1000
0100
0010
,
0001
0100
1000
0100
0001
0010
0100
1000
,
0001
0010
1000
0010
0001
0010
0100
1000
,
0200
0001
1000
0301
,
0200
1000
0001
1300
,
0001
0010
0100
1000
0100
0001
0100
1000
,
0001
0010
0100
1000
0100
0001
0100
1000
,
0001
0100
0101
1000
0100
0010
1001
0000
,
1000
0010
1010
0001
0010
0100
1001
0000
,
0001
0010
0011
1000
1000
0010
0110
0000
,
1000
0100
1100
0001
0001
0100
0110
0000
,
0001
0100
1100
0001
1000
0100
0101
1000
,
0001
0010
1010
0001
1000
0010
0011
1000
,
0001
0100
1100
0001
1000
0100
0101
1000
,
0001
0010
1010
0001
1000
0010
0011
1000
,
0001
0010
0100
1000
0001
0100
0001
1000
,
0002
1000
1000
1000
,
1003
0100
0010
0001
1000
0010
1000
0001
,
2000
0001
0001
0001
,
3001
0010
0100
0010
0001
0010
0100
1000
,
0002
1000
1000
1000
,
1003
0100
0010
0100
1000
0100
0010
0001
,
2000
0000
0001
0000
,
3001
0100
0110
1000
0110
0001
1001
1000
,
0001
0100
0110
1000
0110
0001
1001
0000
,
1000
0100
0101
0001
0110
1000
1010
1000
,
0001
0100
1100
1000
0110
0001
0101
0001
,
1000
0100
0001
0100
1000
0010
0001
0010
,
1000
0100
0010
0001
2000
0000
0000
3000
;

//---------------dance-single - ----------------
#NOTES:
     dance-single:
     :
     Challenge:
     8:
     0.460,0.464,0.179,0.236,0.213: // measure 1
1000
0010
2000
0001
3001
0100
0002
1000
,  // measure 2
1003
0010
2000
0100
3001
0010
0002
0100
,  // measure 3
1003
0010
2000
0100
3001
0010
0002
0100
,  // measure 4
1003
0010
2000
0100
3001
0010
0002
0100
,  // measure 5
1003
0100
1000
0100
2000
0000
0001
0000
3001
0010
0001
0010
0002
0000
1000
0000
,  // measure 6
1003
0010
1000
0010
2000
0000
0001
0000
3001
0100
0001
0100
0002
0000
1000
0000
,  // measure 7
1003
0100
0010
0001
2000
0000
0100
0000
3001
0010
0100
1000
0002
0000
0100
0000
,  // measure 8
1003
0100
0010
0001
2000
0000
0100
0000
3001
0010
0100
1000
0002
0000
0100
0000
,  // measure 9
2003
3200
0320
0032
,  // measure 10
0203
0320
2030
3002
,  // measure 11
1003
0000
0100
0000
0001
0000
0100
1000
0100
0000
0010
0000
0001
0000
1000
0001
,  // measure 12
1000
0000
0100
0000
0001
0000
0100
1000
0100
0000
0010
0000
0001
0000
1000
0001
,  // measure 13
1000
0000
0010
0000
0110
0000
0010
1000
0001
0000
0010
0000
0100
0000
1000
0000
,  // measure 14
0001
0000
0100
0000
0110
0000
0100
0001
1000
0000
0100
0000
0010
0000
0001
0000
,  // measure 15
1000
0000
0001
0000
0101
0000
0001
0010
0100
0000
1000
0000
0010
0000
0100
0000
,  // measure 16
0001
0000
1000
0000
1010
0000
1000
0100
0010
0000
0001
0000
0100
0000
0010
0000
,  // measure 17
1000
0000
0001
0000
0011
0000
0001
0010
0100
0000
1000
0000
1001
0000
1000
0000
,  // measure 18
0001
0100
0001
0100
0010
1000
0100
0010
0001
0000
1000
0000
1001
0000
0001
0000
,  // measure 19
1000
0000
0010
0000
0110
0000
0100
0001
0010
0000
0100
0000
1100
0000
0001
0000
,  // measure 20
1000
0010
1000
0010
0100
0001
0010
0100
1000
0000
0001
0000
1001
0000
1000
0000
,  // measure 21
0001
0100
0010
0100
0001
0100
1000
0100
,  // measure 22
0001
1000
0001
0000
1000
0000
1001
0000
,  // measure 23
1000
0010
0100
0010
1000
0100
0001
0100
,  // measure 24
1000
0001
1000
0000
0001
0000
1001
0000
,  // measure 25
0001
0100
1000
0100
0001
0010
0100
1000
,  // measure 26
0010
0100
0010
0000
1000
0000
1001
0000
,  // measure 27
1000
0100
0001
0100
1000
0100
0010
0001
,  // measure 28
0100
0010
0100
0010
1000
0100
1000
0100
,  // measure 29
0010
0000
0001
0000
1001
0000
0001
0010
0100
0000
1000
0100
1000
0000
1001
0000
,  // measure 30
0100
0000
1000
0000
1001
0000
1000
0100
0010
0000
0001
0010
0001
0000
1001
0000
,  // measure 31
0001
0000
0100
0000
0110
0000
1000
0000
0100
1000
0100
1000
0001
0100
0001
0000
,  // measure 32
0010
0001
0010
0001
1000
0010
1000
0010
1000
0000
0010
0000
0110
0000
0001
0000
,  // measure 33
0100
1000
0100
0010
1000
0100
0001
0100
,  // measure 34
0010
0001
0010
0100
2000
0000
0000
3000
;

//---------------dance-single - ----------------
#NOTES:
     dance-single:
     :
     Beginner:
     1:
     0.058,0.079,0.000,0.000,0.000:
1000
0000
0000
0000
,
1000
0000
0000
0000
,
1000
0000
0000
0000
,
1000
0000
0000
0000
,
0001
0000
0000
0000
,
0001
0000
0000
0000
,
0001
0000
0000
0000
,
0001
0000
0000
0000
,
0100
0000
0000
0000
,
0000
0000
0000
0000
,
0010
0000
0000
0000
,
1000
0000
0000
0000
,
0001
0000
1000
0000
,
0001
0000
1000
0000
,
0010
0000
0100
0000
,
0010
0000
0100
0000
,
0001
0000
1000
0000
,
0001
0000
1000
0000
,
0100
0000
0010
0000
,
0001
0000
1000
0000
,
0001
0000
0000
0000
,
0001
0000
0000
0000
,
1000
0000
0000
0000
,
1000
0000
0000
0000
,
0001
0000
0000
0000
,
0001
0000
0000
0000
,
1000
0000
0000
0000
,
1000
0000
0000
0000
,
1000
0000
0000
0000
,
1000
0000
0000
0000
,
0001
0000
0000
0000
,
0001
0000
0000
0000
,
0100
0000
0010
0000
,
0100
0000
0010
0000
;
