#TITLE:永遠という名の媚薬;
#SUBTITLE:~Pyramid Power・Death Match ver.~;
#ARTIST:THE NEXT FILE remixed by Dp.Honda;
#TITLETRANSLIT:EIEN TOIU NA NO BIYAKU;
#SUBTITLETRANSLIT:~Pyramid Power - Death Match ver.~;
#ARTISTTRANSLIT:;
#CREDIT:DigiMindAxel;
#BANNER:EIEN TOIU NA NO BIYAKU ~Pyramid Power - Death Match ver.~.png;
#BACKGROUND:EIEN TOIU NA NO BIYAKU ~Pyramid Power - Death Match ver.~-bg.png;
#LYRICSPATH:;
#CDTITLE:pop'n music.png;
#MUSIC:EIEN TOIU NA NO BIYAKU ~Pyramid Power - Death Match ver.~.mp3;
#OFFSET:-8.840;
#SAMPLESTART:71.874;
#SAMPLELENGTH:12.000;
#SELECTABLE:YES;
#BPMS:0.000=170.000,24.000=90.000,58.000=180.000,122.000=70.000,128.667=88.320,129.333=125.000,130.000=161.660,130.667=180.000,137.000=190.000,184.000=95.000,186.000=190.000,234.000=225.000,242.000=112.500,244.000=225.000;
#STOPS:137.000=0.837
;
#BGCHANGES:;

//---------------dance-single - ----------------
#NOTES:
     dance-single:
     :
     Easy:
     4:
     0.283,0.296,0.032,0.056,0.000:
1000
1000
1000
1000
,
0001
0010
0100
1000
,
0001
0001
0001
0001
,
1000
0100
1000
0100
,
0010
0001
0010
0001
,
1000
0010
0100
0001
,
2002
0000
0000
0000
,
3003
0000
1000
0001
,
1000
0000
0001
0010
,
0100
1000
0010
0100
,
0010
0100
0001
0010
,
0001
0000
1000
0100
,
1000
0000
0010
0100
,
0010
0000
1000
0001
,
1000
0000
0010
0100
,
0010
0100
0001
0010
,
0100
1000
0010
0100
,
0010
0100
0001
0010
,
0100
1000
0001
1000
,
0001
1000
0100
0010
,
0001
1000
0010
0100
,
0010
0100
0001
0010
,
0001
0010
0001
1000
,
0001
1000
0100
1000
,
0100
1000
0001
1000
,
0001
1000
0010
0100
,
0001
1000
0020
0000
,
0000
0030
0100
0001
,
0010
0100
2000
0000
,
0000
3000
0010
1000
,
0100
0010
0001
0000
,
0000
0000
0000
0000
,
0000
0000
0000
0000
,
0000
0000
0000
0000
,
0000
0000
0000
0000
,
0001
1000
0001
1000
,
0001
1000
0000
0010
,
0100
0110
0000
1001
,
0001
1000
0002
0000
,
0103
0010
1000
0100
,
0010
0001
1000
1001
,
0010
0100
0010
1000
,
0010
0100
0001
0010
,
0000
0001
0010
0100
,
2000
0000
0000
0000
,
0000
0000
0000
0000
,
3001
0000
1000
0001
,
1000
0001
1000
0010
,
0100
0001
0010
0100
,
0000
1000
0100
0010
,
0000
0001
1000
0001
,
0010
0100
1000
0010
,
0000
0100
0001
1000
,
0000
0100
0010
0001
,
1000
0001
0010
0100
,
1000
0010
0100
0010
,
1000
0100
0010
0001
,
1000
0001
1000
0100
,
0010
0001
2000
0000
,
0000
0000
0000
0000
,
0000
0000
3000
0000
,
0001
1000
0001
1000
,
0001
0100
0001
0100
,
0010
1000
0010
1000
,
0100
0010
0001
1000
,
0100
0010
0000
0000
,
0001
1000
0001
0010
,
0100
1000
0001
0010
,
0100
1000
0010
0100
,
0010
1000
0100
0010
,
0001
1000
0100
0010
,
0001
1000
0001
1000
,
0010
0100
0001
1000
,
0001
0010
0100
1000
;

//---------------dance-single - ----------------
#NOTES:
     dance-single:
     :
     Medium:
     7:
     0.417,0.444,0.080,0.233,0.000:
0001
1000
0001
1000
,
0100
0010
0001
1000
,
0010
0000
0100
0000
0010
0000
1000
0001
,
1000
1001
0001
1001
,
0100
1000
0010
0100
,
0000
0000
0001
0010
0100
1000
0001
0000
,
2002
0000
0000
0000
,
3003
0000
0100
0001
,
1000
1000
0010
0000
2000
0000
3200
0000
,
0310
0001
0010
0000
0001
1000
0001
0001
,
0100
0000
0010
0000
1000
1000
1000
0000
,
0001
0000
1001
0000
0100
0000
0010
0010
,
0010
0100
0001
0010
,
0100
0000
1000
0000
0001
0001
0001
0000
,
1000
0020
0130
0001
,
0100
0000
0001
0000
1000
0100
1000
0000
,
0001
1000
0001
0000
1000
0000
0100
0000
,
0010
0000
0001
0000
0100
0010
0100
0000
,
0001
1000
0001
0000
0010
0000
0100
0000
,
1000
0000
0001
0000
0010
0001
0010
0000
,
0100
1000
0100
0000
0010
0000
0100
0000
,
1000
0010
0100
0110
,
0100
0110
0001
0010
,
0100
0000
1000
0000
0010
1000
0010
0000
,
0100
0010
0100
0000
0010
0000
1000
0000
,
0001
0000
0100
0000
0010
0100
0010
0000
,
1000
0001
1000
0001
1000
0000
1100
0000
,
0010
0100
0010
0000
0002
0000
0023
0000
,
0230
2300
3001
0011
,
0100
0010
0100
0000
2000
0000
3200
0000
,
0320
0032
2003
0000
,
0000
0000
0000
0000
,
0000
0000
0000
0000
,
0000
0000
0000
0000
,
0000
3000
0000
0000
,
0001
1000
0001
0000
1000
0001
1000
0000
,
0001
1000
0001
0000
0000
0000
0000
0000
,
0100
0010
1000
0100
,
0010
0000
0001
0000
0200
0000
0000
0300
,
0001
0100
0001
0000
1000
0000
0100
0000
,
1000
0001
0010
0100
,
1000
0001
1000
0000
0010
0100
0010
0000
,
1000
0100
1000
0100
0010
0000
1001
0000
,
0000
0000
0010
0000
0001
0010
0100
1000
,
0002
0000
0203
0000
,
0320
0000
2030
0000
,
3001
0000
0000
0000
1000
0001
1000
0000
,
0001
1000
0001
0000
0100
0010
0100
0000
,
0010
0100
0010
0000
1000
0100
0010
0000
,
0001
0000
1000
0000
0001
0010
0100
0000
,
1000
0000
0001
0000
1000
0000
0001
0010
,
0001
0010
0100
0000
1000
0010
1000
0000
,
0001
0000
0010
0000
0100
0010
0100
0000
,
0010
0000
0001
0000
1000
0100
1000
0100
,
0010
0001
0100
0110
,
0001
0010
0100
0000
1000
0001
1000
0010
,
0100
0000
0001
0000
0100
0010
0100
0000
,
0001
0100
0001
0000
0100
0000
0010
0000
,
1000
0010
0100
0000
0002
0000
0003
0000
,
2000
3000
0002
0003
,
2000
3000
0002
0000
,
1003
0000
0010
0000
0100
0001
0100
0000
,
0001
0000
1000
0000
0100
1000
0100
0000
,
1000
0000
0001
0000
1000
0001
1000
0000
,
0020
0130
0020
0130
,
0020
0000
0130
0000
0000
0001
0100
0001
,
1000
0000
0001
0000
1000
0000
0010
0100
,
0020
0000
0130
0000
0001
0100
0001
0000
,
0200
0000
0310
0000
1000
0010
1000
0000
,
0001
1000
0001
0000
0010
0000
0100
0000
,
1000
0001
1000
0000
0100
0000
0010
0000
,
0001
0100
0001
0000
1000
0010
1000
0000
,
0010
0100
0010
0000
1000
0100
1000
0000
,
0001
0010
0001
0000
0010
0100
1000
0000
;

//---------------dance-single - ----------------
#NOTES:
     dance-single:
     :
     Hard:
     9:
     0.613,0.769,0.200,0.128,0.196:
0001
1000
0010
1000
0001
0010
0001
0000
,
0001
0010
0001
1000
0100
0010
0100
1000
,
0010
0000
0000
1000
0001
0000
0100
0000
0010
0000
0000
0000
1000
0000
1000
0000
,
0001
0100
0001
1000
0100
0010
0001
0000
,
0001
0100
0010
1000
0100
0010
0100
0000
,
1000
0000
0000
0000
0100
0000
1000
0000
0001
0100
0001
1000
0000
0000
0000
0000
,
0002
0000
0000
0000
0000
0000
0000
0000
0003
0200
0000
0000
0000
0000
0000
0000
0000
0320
0000
0000
0000
0000
0000
0000
0000
0000
1030
0000
0100
0000
1000
0000
,
0001
0000
0100
0000
0002
0000
0000
0000
0000
0000
0000
0000
0000
0000
0000
1003
0000
0000
0000
0000
0000
0000
0000
0000
0001
0000
0000
0000
0001
0000
0000
0000
,
0100
0010
1000
1000
1100
0000
0110
0000
,
0011
0000
0100
0000
1000
0000
0000
0000
0001
1000
0100
0010
0001
0000
0100
0000
,
0110
0000
0000
0000
0010
0000
0100
0000
1001
0000
0100
1000
0001
0100
0001
0100
,
0002
0000
0000
0000
1003
0000
0000
0000
0010
0000
0100
0000
0001
0010
0001
0010
,
0002
0000
0000
0000
1003
0100
0010
0000
0001
1000
0001
1000
0001
0100
0010
1000
,
0020
0000
0100
0000
0130
0000
0001
0000
1000
0100
1000
0100
1000
0000
0010
0100
,
0001
0000
0001
0000
0100
0010
0100
0010
0100
0000
0001
0000
0010
0000
0001
0000
,
1000
0100
0010
0001
0010
0000
0011
0000
,
0110
0000
1100
0000
0100
1000
0010
0100
,
0010
1000
0010
0100
0001
0000
0101
0000
,
0110
0000
1010
0000
0010
0001
1000
0100
,
1000
0001
0100
0010
1000
0000
1100
0000
,
0110
0000
0011
0000
0010
0100
0001
0010
,
0100
1000
0010
0100
0001
1000
0100
0001
,
0100
1000
0010
0100
0010
0000
1001
0000
,
1000
0001
0010
0100
0010
0001
0100
0010
,
1000
0100
0010
0000
0001
1000
0100
0010
,
0100
1000
0010
0100
0001
0100
1000
0100
,
0001
0010
1000
0010
0001
0000
0011
0000
,
0001
0001
0010
0100
1000
0010
0001
1000
,
0100
0001
0010
0100
1000
0000
1100
0000
,
1000
1000
0100
0010
0001
0100
1000
0001
,
0010
1000
0010
0100
0002
0000
0000
0000
,
0000
0000
0000
0000
,
0000
0000
0000
2000
0000
0000
0000
0000
0000
0000
0000
0000
0000
0000
0000
0000
0000
0000
0000
0000
0000
0000
0000
0000
0000
0000
0000
0000
0000
0000
0000
0000
,
0000
0000
0000
0000
,
0000
3003
0000
0000
,
0001
0000
0000
0100
0001
0000
0000
0000
0100
0000
0000
0010
0100
0000
0000
0000
,
0010
0000
0000
1000
0100
0000
0010
0000
0000
0000
0001
0000
0100
0000
0010
0000
,
1000
1100
0001
0011
,
0001
0000
0000
1000
0010
0000
0100
0000
0020
0000
0000
0000
1030
0000
0000
0000
,
0010
0000
0000
0100
0001
0000
0010
0000
0000
0000
0001
0000
0010
0000
0100
0000
,
1000
1010
0001
0101
,
0100
0000
0001
0000
1000
0100
1000
0000
0001
0000
0010
0000
1000
0000
0010
0000
,
0001
1000
0001
0000
1000
0000
1000
0000
0100
0000
0010
0000
0001
0000
0000
0000
,
0100
0000
0000
0000
0010
0000
0100
0000
0001
0100
0001
1000
0000
0000
0000
0000
,
0200
1300
0200
0310
,
0020
0000
0031
0000
0001
0010
0100
1000
,
0002
0000
0000
0000
0000
0000
1003
0000
0001
0000
0000
0010
0001
0000
0000
0000
,
0010
0000
0000
0100
0010
0000
0000
0000
0100
0000
0000
1000
0100
0000
0000
0000
,
1000
0000
0000
0010
0100
0000
0000
0000
0001
0000
0100
0010
0100
0000
0001
0000
,
0000
0000
0010
0000
0100
0000
1000
0000
0001
0000
0100
0010
0100
0000
0001
0000
,
0000
0010
0100
1000
0000
0100
0001
0100
,
1000
0000
0010
0000
0100
0000
0001
0000
0100
0000
0010
0100
0010
0000
1000
0000
,
0000
0000
0010
0000
0100
0000
0001
0000
0100
0000
0010
0100
0010
0000
1000
0000
,
0000
0010
0100
0001
1000
0010
0001
0010
,
1000
0001
0010
0100
0000
0010
0001
0100
,
0010
0000
1000
0000
0100
0010
0100
0000
1000
0000
0010
0000
0100
0000
0010
0000
,
1000
0000
0100
0000
0010
0000
0100
1000
0100
0000
0010
0000
0001
0000
0100
0000
,
0010
0000
0100
0000
0001
0010
0001
0000
1000
0001
1000
0001
1000
0000
0001
0000
,
0010
0100
1000
0000
0100
0000
0001
0000
,
0100
1000
0010
0001
,
0010
0000
1000
0000
0220
0000
0000
0330
,
1000
0100
0010
0100
1000
0100
0001
0100
,
1000
0010
0100
0001
0100
0010
0100
0001
,
0100
1000
0100
0001
1000
0100
0010
0100
,
1000
1100
0001
0101
,
0010
0000
0110
0000
0000
1000
0010
0100
,
0000
0001
0100
1000
0100
0001
0010
0100
,
0010
0001
0100
0001
0000
0010
0100
1000
,
0001
0100
0010
0100
0000
0001
0010
0100
,
1000
0100
0001
0100
1000
0010
0100
0010
,
1000
0001
0100
0001
0010
0100
0010
0001
,
1000
0010
0100
0001
0010
1000
0010
0001
,
0100
0010
1000
0100
0010
0100
1000
0001
,
0010
0100
0010
0001
0100
0010
1000
0000
;

//---------------dance-single - ----------------
#NOTES:
     dance-single:
     :
     Beginner:
     2:
     0.089,0.147,0.008,0.008,0.000:
0001
0000
0000
0000
,
1000
0000
0000
0000
,
0001
0000
0000
0000
,
0010
0000
0000
0000
,
0100
0000
0000
0000
,
1000
0000
0000
0000
,
0001
0000
0000
0000
,
0000
0000
0000
0000
,
1000
0000
0001
0000
,
0000
0000
0100
0000
,
0000
0100
0000
0000
,
0210
0000
0010
0000
,
0000
0000
0010
0000
,
0000
0010
0000
0000
,
0000
0000
1000
0000
,
0000
0000
0001
0000
,
0000
0000
1000
0000
,
0000
0000
0300
0000
,
0000
0000
0010
0000
,
0000
0000
0001
0000
,
0000
0000
0010
0000
,
0000
0000
0100
0000
,
0000
0000
1000
0000
,
0000
0000
0001
0000
,
0000
0000
1000
0000
,
0000
0000
0001
0000
,
0000
0000
0100
0000
,
0000
0000
0010
0000
,
0000
0000
0100
0000
,
0000
0000
0100
0000
,
0000
0000
0100
0000
,
0000
0000
0000
0000
,
0000
0000
0000
0000
,
0000
0000
0000
0000
,
0000
0000
0000
0000
,
0001
0000
0000
0000
,
1000
0000
0000
0000
,
0010
0000
0000
0000
,
1000
0000
0000
0000
,
0001
0000
0000
0000
,
0100
0000
0000
0000
,
0010
0000
0000
0000
,
0100
0000
0000
0000
,
0000
0000
0000
0000
,
0001
0000
0001
0000
,
0001
0000
0000
0000
,
0000
0000
1000
0000
,
0001
0000
1000
0000
,
0000
0000
0010
0000
,
0000
0000
0100
0000
,
0000
0000
0010
0000
,
0000
0000
1000
0000
,
0000
0000
0001
0000
,
0000
0000
1000
0000
,
0000
0000
0100
0000
,
0000
0000
0010
0000
,
0000
0000
0001
0000
,
0000
0000
1000
0000
,
0000
0000
0001
0000
,
0000
0000
0000
0000
,
0000
0000
0000
0000
,
1000
0000
0000
0000
,
0100
0000
0000
0000
,
0010
0000
0000
0000
,
0001
0000
1000
0000
,
0001
0000
0000
0000
,
0100
0000
0010
0000
,
0100
0000
0000
0000
,
0100
0000
0000
0000
,
0001
0000
1000
0000
,
0001
0000
0010
0000
,
0100
0000
1000
0000
,
0001
0000
1000
0000
,
0001
0000
0100
0000
;

//---------------dance-single - ----------------
#NOTES:
     dance-single:
     :
     Challenge:
     10:
     0.725,0.857,0.096,0.184,0.369: // measure 1
1000
0000
0001
0000
0010
0000
1000
0000
0010
0000
0001
0000
1000
0001
1000
0000
,  // measure 2
0001
0100
0001
0000
1000
0000
0010
0000
0001
0000
0010
0000
1000
0000
0001
1000
,  // measure 3
0001
0000
0010
0001
0010
0000
0100
0000
0100
0000
0000
0000
1000
0001
1000
0001
,  // measure 4
1000
0000
0010
0000
0100
0010
0100
0000
0001
0000
0010
0000
0100
0000
1000
0000
,  // measure 5
0001
1000
0001
1000
0001
0000
0100
0000
0010
0000
1000
0000
0100
0000
0000
0000
,  // measure 6
0010
0000
0000
0000
0100
0000
1000
0000
0001
0100
0001
1000
0000
0000
0000
0000
,  // measure 7
0220
0000
0000
0000
0300
0000
0000
0000
0000
2030
0000
0000
0000
0000
0000
0000
0000
3010
0000
0000
0000
0100
0000
0000
0000
0000
0001
0000
0010
0000
1000
0000
,  // measure 8
0010
0000
0001
1000
0002
0000
0000
0000
0000
0000
0000
0000
0000
0000
0000
1003
0000
0000
0000
0000
0000
0000
0000
0000
0100
0000
0000
0000
0100
0000
0000
0000
,  // measure 9
1001
0000
1001
0000
0010
0000
0010
0000
0001
0010
0001
0000
0011
0000
0000
0000
,  // measure 10
1100
0000
0010
0000
0110
0000
0000
0000
1000
0100
0001
0100
1000
0000
0010
0000
,  // measure 11
0100
0000
0001
0000
0100
0000
0000
0000
0101
0000
0000
0000
0010
0000
0000
0000
1001
0000
0100
0000
0010
0000
0001
0000
0100
0010
0100
0010
0100
0010
0100
0010
,  // measure 12
0200
0000
0000
0000
0301
0000
0000
0000
1000
0000
0001
0000
0100
0010
0100
0010
,  // measure 13
0200
0000
0000
0000
0000
0000
0000
0000
0301
0000
1000
0000
0100
0000
0000
0000
1000
0001
1000
0001
1000
0001
1000
0000
0001
0000
0010
0000
0100
0000
1000
0000
,  // measure 14
0020
0000
0100
0000
0130
0000
0001
0000
0100
0010
0100
0010
1000
0000
0100
0010
,  // measure 15
0001
0000
0000
0000
0100
0000
0000
0000
0010
0100
0010
0100
0010
0100
0010
0100
0010
0000
0000
0000
1000
0000
0000
0000
0001
0000
0000
0000
0100
0000
0000
0000
,  // measure 16
0001
1000
0001
0100
0001
0001
1000
1000
,  // measure 17
0010
0010
0100
0100
0001
0010
0100
1000
,  // measure 18
0100
0010
0001
1000
0010
0010
0100
0100
,  // measure 19
0001
0001
1000
1000
0001
1000
0010
1000
,  // measure 20
0001
1000
0010
1000
0001
0001
1000
1000
,  // measure 21
0100
0100
0010
0010
0001
0100
0010
1000
,  // measure 22
0100
0010
0001
1000
0001
0100
1000
0100
,  // measure 23
0001
0010
1000
0010
0001
1000
1001
0000
,  // measure 24
1000
0010
0100
0010
1000
0100
0001
0100
,  // measure 25
1000
0010
0100
0001
0010
0100
0010
0001
,  // measure 26
0010
1000
0010
0001
1000
0010
0100
0001
,  // measure 27
1000
0100
0001
0100
1000
0001
1001
0000
,  // measure 28
0001
0010
0100
0010
0001
0010
1000
0010
,  // measure 29
0001
1000
0100
0010
0001
1000
1001
0000
,  // measure 30
1000
0100
0010
0100
1000
0100
0001
0100
,  // measure 31
1000
0000
0001
0000
0010
0100
0010
0100
2000
0000
0000
0000
0000
0000
0000
0000
,  // measure 32
0000
0000
0000
0000
,  // measure 33
0000
0000
0000
0002
0000
0000
0000
0000
0000
0000
0000
0000
0000
0000
0000
0000
0000
0000
0000
0000
0000
0000
0000
0000
0000
0000
0000
0000
0000
0000
0000
0000
,  // measure 34
0000
0000
0000
0000
,  // measure 35
0000
0000
0000
0000
3003
0000
0000
0000
0000
0000
0000
0000
1000
0001
1000
0001
,  // measure 36
1000
0000
0001
0100
0001
0000
0010
0000
0100
0000
1000
0100
1000
0000
0010
0000
,  // measure 37
0100
0000
0001
0100
0001
0000
0010
0000
0000
0000
0100
0000
0010
0000
0001
0000
,  // measure 38
1000
0000
0010
0000
0100
0000
0000
0001
1000
0000
0100
0000
0010
0000
0000
0000
,  // measure 39
0001
0000
1000
0010
1000
0000
0100
0000
0020
0000
0001
0000
0031
0000
0100
0000
,  // measure 40
0010
0000
1000
0010
1000
0000
0100
0000
0000
0000
0010
0000
0100
0000
1000
0000
,  // measure 41
0001
0000
0100
0000
0010
0000
0000
1000
0001
0000
0010
0000
0100
1000
0100
0000
,  // measure 42
1000
0000
1000
0000
0100
0010
0100
0000
1000
0000
0001
0000
0010
0000
0100
0000
,  // measure 43
1000
0001
1000
0000
0001
0000
0001
0000
0100
0000
0010
0000
1000
0000
0000
0000
,  // measure 44
0001
0000
0000
0000
0010
0000
0100
0000
1000
0010
1000
0001
0000
0000
0000
0000
,  // measure 45
0010
0001
0020
0000
0130
0010
0200
0000
,  // measure 46
1300
0100
2000
0000
3100
0010
0001
1000
,  // measure 47
0020
0000
0000
0000
0000
0000
0130
0000
0001
0000
1000
0100
1000
0000
0010
0000
,  // measure 48
0100
0000
0001
0100
0001
0000
0010
0000
0100
0000
1000
0100
1000
0000
0010
0000
,  // measure 49
0100
0000
0001
0100
0001
0000
0010
0000
0100
0000
1000
0001
1000
0000
0002
0000
,  // measure 50
0000
0000
0013
0000
0100
0000
0010
0000
0001
0000
1000
0001
1000
0000
0002
0000
,  // measure 51
0000
0013
0100
0010
0000
0001
0100
1000
,  // measure 52
0100
0000
0001
0000
1000
0000
0010
0000
0100
0000
0001
1000
0001
0000
2000
0000
,  // measure 53
0000
0000
3100
0000
0010
0000
0100
0000
1000
0000
0001
1000
0001
0000
2000
0000
,  // measure 54
0000
3100
0010
0100
1000
0001
0010
1000
,  // measure 55
0010
0001
0100
0010
0000
1000
0100
0001
,  // measure 56
0100
0000
1000
0000
0001
0100
0001
0000
0010
0000
0100
0000
0010
0000
0001
0000
,  // measure 57
1000
0000
0010
0000
0100
0000
0010
1000
0010
0000
1000
0000
0001
0010
0001
0000
,  // measure 58
1000
0000
0100
0000
0010
0001
0010
0000
0001
1000
0001
1000
0001
0000
1000
0000
,  // measure 59
0100
0010
0001
0000
1000
0100
2000
0000
,  // measure 60
3100
0010
0200
0000
0310
0001
0020
0000
,  // measure 61
0031
1000
0001
0100
0220
0000
0000
0330
,  // measure 62
0001
0000
0100
0000
0001
0100
0001
0000
0010
0000
0100
0000
1000
0000
0100
0000
,  // measure 63
0001
0000
0100
0000
1000
0001
1000
0000
0010
0000
0100
0000
0001
0000
0010
0000
,  // measure 64
0100
0000
1000
0000
0100
0010
0100
0000
1000
0000
0010
0000
0100
0000
0001
0000
,  // measure 65
1000
0000
0001
0100
0001
0000
1000
0000
0100
0000
0010
0100
0010
0000
0100
0000
,  // measure 66
1000
0000
0001
0100
0001
0000
1000
0000
0000
0000
0100
0000
0010
0000
0001
0000
,  // measure 67
0000
1000
0100
0010
0100
1000
0100
0001
,  // measure 68
0100
0000
1000
0010
1000
0000
0001
0000
0010
0000
0100
0000
1000
0000
0001
0000
,  // measure 69
1000
0000
0100
0010
0100
0000
1000
0000
0001
0000
1000
0000
0100
0000
0010
0000
,  // measure 70
0001
0010
0100
0010
0001
0100
1000
0100
,  // measure 71
0001
0000
0100
0000
0010
0000
1000
0000
0100
0000
0010
0000
0001
1000
0001
0000
,  // measure 72
1000
0000
0100
0000
0010
0000
0001
0000
1000
0000
0010
0000
0100
0000
0001
1000
,  // measure 73
0001
0010
1000
0010
0001
1000
0100
0010
,  // measure 74
0001
1000
0001
0000
1000
0000
0100
0000
0001
0000
0100
0000
1000
0000
0000
0000
;
