#TITLE:Dispar;
#SUBTITLE:;
#ARTIST:GACKT;
#TITLETRANSLIT:;
#SUBTITLETRANSLIT:;
#ARTISTTRANSLIT:;
#CREDIT:DigiMindAxel;
#BANNER:Dispar.png;
#BACKGROUND:Dispar-bg.png;
#LYRICSPATH:Dispar.lrc;
#CDTITLE:DMAxel original simfile.png;
#MUSIC:Dispar.mp3;
#OFFSET:-7.760;
#SAMPLESTART:38.403;
#SAMPLELENGTH:12.000;
#SELECTABLE:YES;
#BPMS:0.000=124.950;
#STOPS:142.750=0.120
,143.000=0.120
;
#BGCHANGES:;

//---------------dance-single - ----------------
#NOTES:
     dance-single:
     :
     Easy:
     3:
     0.252,0.256,0.164,0.035,0.000: // measure 1
1000
1000
1000
0000
,  // measure 2
0001
0001
0001
0000
,  // measure 3
0010
0010
0010
0000
,  // measure 4
0100
0100
0100
0000
,  // measure 5
1000
0001
1000
0000
,  // measure 6
0010
0100
0010
0000
,  // measure 7
1000
0001
1000
0000
,  // measure 8
0100
0100
0100
0100
,  // measure 9
1000
0001
1000
0000
,  // measure 10
0001
0010
0001
0000
,  // measure 11
1000
0100
1000
0000
,  // measure 12
0220
0000
0000
0330
,  // measure 13
0010
0100
0010
0000
,  // measure 14
0100
0001
1000
0000
,  // measure 15
0010
1000
0001
0000
,  // measure 16
0100
0010
0100
0000
,  // measure 17
1001
0001
0001
1000
,  // measure 18
0100
1000
0100
1000
,  // measure 19
1001
1000
1000
0001
,  // measure 20
0010
0001
0010
0000
,  // measure 21
1001
0001
0001
1000
,  // measure 22
0100
1000
0100
1000
,  // measure 23
1001
0001
0001
0100
,  // measure 24
0010
0000
0010
0000
,  // measure 25
0110
0100
0100
0010
,  // measure 26
1000
0010
1000
0010
,  // measure 27
0110
0100
0100
0001
,  // measure 28
0100
0001
0100
0000
,  // measure 29
1001
0001
0001
1000
,  // measure 30
0010
1000
0100
1000
,  // measure 31
0001
0001
0001
0010
,  // measure 32
0100
0000
0100
0000
,  // measure 33
1001
1000
1000
0000
,  // measure 34
1001
0001
0001
0000
,  // measure 35
0110
0100
0100
0000
,  // measure 36
0110
0000
0010
0000
0010
0000
0000
1001
,  // measure 37
0000
1000
0000
0100
0000
1000
0000
0010
,  // measure 38
0000
0100
0000
0001
0000
0001
0000
1000
,  // measure 39
0000
0010
0000
1000
0000
1001
0000
0010
,  // measure 40
0000
0100
0000
0002
0000
1003
0000
0000
;

//---------------dance-single - ----------------
#NOTES:
     dance-single:
     :
     Hard:
     9:
     0.534,0.491,0.023,0.023,0.376: // measure 1
0001
0000
0010
0000
0001
1000
0000
0010
1000
0000
0100
0000
1000
0001
0000
0000
,  // measure 2
1000
0000
0100
0000
1000
0001
0000
0100
0001
0000
0010
0000
0001
1000
0000
0000
,  // measure 3
0001
0000
0100
0000
0001
1000
0000
0100
1000
0000
0010
0000
1000
0001
0000
0000
,  // measure 4
1000
0000
0010
0000
1000
0001
0000
0010
0001
0000
0000
0000
0100
0010
0100
0010
,  // measure 5
0100
0001
1000
1000
0010
0100
0010
0000
,  // measure 6
0010
1000
0001
0001
0010
0001
1000
1000
,  // measure 7
0010
0000
1000
0000
0001
0000
0001
0000
0100
0000
0010
0000
0100
0000
0000
0001
,  // measure 8
1000
0000
0000
0010
0000
0000
1010
0000
0000
0101
0000
0000
0100
0000
0001
0000
,  // measure 9
1000
0100
1000
0001
0100
0100
0001
0000
,  // measure 10
0001
0010
0001
1000
0010
0010
1000
0000
,  // measure 11
1000
0000
0100
0000
1000
0000
0001
0000
0100
0000
0100
0000
0001
0000
0010
0100
,  // measure 12
2000
0000
0000
0000
,  // measure 13
3001
0000
0010
0001
0000
0000
0100
0000
0010
1000
0000
0100
0010
0000
0000
0000
,  // measure 14
0001
0000
0100
0001
0000
0000
0010
0000
0100
1000
0000
0010
0100
0000
0001
0000
,  // measure 15
1000
0000
0100
1000
0000
0000
0010
0000
0100
0001
0000
0100
0010
0000
1000
0000
,  // measure 16
0010
0000
0100
0010
0000
0100
0020
0000
0000
0000
0000
0000
0000
0000
0000
0000
,  // measure 17
0130
0000
0001
0000
1000
0000
0100
0010
0000
0000
0001
0000
1000
0000
0100
0000
,  // measure 18
0001
0100
1000
0001
0010
0100
1000
1000
,  // measure 19
0010
0000
1000
0000
0001
0000
0010
0100
0000
0000
1000
0000
0001
0000
0010
0000
,  // measure 20
1000
0010
0001
1000
0100
0010
0001
0001
,  // measure 21
0100
0000
0001
0000
1000
0000
0010
0100
0000
0000
0001
0000
1000
0000
0010
0000
,  // measure 22
0001
0010
1000
0001
0010
0100
1000
0001
,  // measure 23
0001
1000
0100
0010
0001
1000
0010
0100
,  // measure 24
0001
0000
0000
0010
0000
0000
0100
0000
0010
0000
0000
0000
0000
0000
0000
0000
,  // measure 25
0001
0000
1000
0000
0010
0000
0100
0001
0000
0000
0010
0000
0100
0000
1000
0000
,  // measure 26
0100
0001
0100
1000
0001
0100
0010
0000
,  // measure 27
1000
0000
0001
0000
0100
0000
0010
1000
0000
0000
0100
0000
0010
0000
0001
0000
,  // measure 28
0010
1000
0010
0001
1000
0010
0100
0000
,  // measure 29
0001
0000
0010
0000
1000
0000
0010
0001
0000
0000
0100
0000
1000
0000
0100
0000
,  // measure 30
0001
0010
0100
1000
0100
0010
0100
0000
,  // measure 31
1000
0100
0010
0001
0010
0100
0010
0001
,  // measure 32
1000
0000
0000
0100
0000
0000
0010
0000
0100
0000
0000
0000
0000
0000
0000
0000
,  // measure 33
1000
0000
0010
0000
0100
0010
0000
0100
0010
0000
1000
0000
0001
0010
0000
0000
,  // measure 34
0001
0000
0100
0000
0010
0100
0000
0010
0100
0000
0001
0000
1000
0100
0000
0000
,  // measure 35
1000
0000
0001
0000
0010
0001
0000
0100
0010
0000
1000
0000
0001
0100
0000
0000
,  // measure 36
0001
0000
1000
0000
0100
1000
0000
0010
0100
0000
0001
1000
0100
0010
0001
0000
,  // measure 37
1000
0000
0001
0010
0000
0010
0100
0000
0100
0000
1000
0010
0000
0000
1000
0000
,  // measure 38
0001
0000
1000
0100
0000
0010
0100
0010
0100
0000
1000
0001
0000
0001
1000
0000
,  // measure 39
0001
0000
1000
0010
0000
0010
0100
0000
0100
0000
0001
0010
0000
0000
0001
0000
,  // measure 40
1000
0000
0001
0010
0000
0010
0100
0000
0000
0000
1000
0100
0010
0001
0000
0000
;

//---------------dance-single - ----------------
#NOTES:
     dance-single:
     :
     Medium:
     6:
     0.398,0.397,0.235,0.023,0.153: // measure 1
1100
0000
0000
0000
1000
0000
0000
0100
0000
0000
1000
0000
0001
0000
0000
0000
,  // measure 2
0011
0000
0000
0000
0001
0000
0000
0010
0000
0000
0001
0000
1000
0000
0000
0000
,  // measure 3
1010
0000
0000
0000
1000
0000
0000
0010
0000
0000
1000
0000
0001
0000
0000
0000
,  // measure 4
0101
0000
0000
0000
0001
0000
0000
0100
0001
0000
0000
0000
1000
0000
1000
0000
,  // measure 5
1000
0000
0100
1000
0010
0000
0100
0000
,  // measure 6
0001
0000
0010
0001
0100
0000
0010
0000
,  // measure 7
1000
0000
0010
1000
0001
0000
1000
0000
,  // measure 8
0001
0000
0000
0010
0000
0000
0100
0000
0000
1000
0000
0000
0001
0000
1000
0000
,  // measure 9
0001
0000
0100
0001
1000
0000
1000
0000
,  // measure 10
0010
0000
0010
1000
0001
0000
0001
0000
,  // measure 11
0100
0001
1000
0000
1000
0001
1000
0000
,  // measure 12
1001
0000
0000
0000
,  // measure 13
1000
0000
0000
0100
0000
0000
1000
0000
0000
0001
0000
0000
0100
0000
0000
0000
,  // measure 14
0001
0000
0000
0010
0000
0000
0001
0000
0000
1000
0000
0000
0010
0000
0000
0000
,  // measure 15
1000
0000
0000
0010
0000
0000
1000
0000
0000
0001
0000
0000
0010
0000
0000
0000
,  // measure 16
0001
0000
0000
1000
0000
0000
2002
0000
0000
0000
0000
0000
3003
0000
0000
0000
,  // measure 17
0100
0001
0100
0001
0100
0000
0001
0000
,  // measure 18
1001
0000
0001
0000
1000
0100
1000
0000
,  // measure 19
0010
1000
0010
1000
0010
0000
1000
0000
,  // measure 20
1001
0000
1000
0000
0001
0010
0001
0000
,  // measure 21
0100
0001
0100
0001
0100
0000
0001
0000
,  // measure 22
1001
0000
0001
0000
1000
0100
1000
0000
,  // measure 23
0010
1000
0010
1000
0001
0000
0100
0010
,  // measure 24
0100
1001
0100
0000
,  // measure 25
0100
1000
0100
1000
0100
0000
1000
0000
,  // measure 26
1001
0000
1000
0000
0001
0100
0001
0000
,  // measure 27
0010
0001
0010
0001
0010
0000
0001
0000
,  // measure 28
1001
0000
0001
0000
1000
0010
1000
0000
,  // measure 29
0010
0000
0100
0000
0010
0000
0000
0010
0000
0000
0000
0000
1000
0000
0001
0000
,  // measure 30
1000
1100
0001
0011
,  // measure 31
0100
0010
0100
0000
0100
0000
0010
0100
,  // measure 32
0010
1001
0010
0000
,  // measure 33
1000
0000
0001
0000
1000
0000
0000
0100
0000
0000
0010
0000
0110
0000
0000
0000
,  // measure 34
0001
0000
1000
0000
0001
0000
0000
0010
0000
0000
0100
0000
0110
0000
0000
0000
,  // measure 35
1000
0000
0001
0000
1000
0000
0000
0010
0000
0000
0100
0000
0110
0000
0000
0000
,  // measure 36
0001
0000
1000
0000
0001
0000
0000
0100
0000
0000
0010
0100
0001
1000
0001
0000
,  // measure 37
1000
0000
0001
0000
0000
0100
0000
0000
0010
0000
0110
0000
0000
0000
1000
0000
,  // measure 38
0001
0000
1000
0000
0000
0010
0000
0000
0100
0000
0110
0000
0000
0000
0001
0000
,  // measure 39
0010
0000
0001
0000
0000
1000
0010
0000
0100
0000
0010
0000
0000
0000
1000
0000
,  // measure 40
0100
0000
1000
0000
0000
0001
0100
0000
0000
0000
0010
0100
0010
0100
0000
0000
;

//---------------dance-single - ----------------
#NOTES:
     dance-single:
     :
     Beginner:
     1:
     0.072,0.093,0.047,0.000,0.000:
1000
0000
0000
0000
,
0001
0000
0000
0000
,
1000
0000
0000
0000
,
0001
0000
0000
0000
,
0001
0000
0000
0000
,
0000
0000
0000
0000
,
1000
0000
0000
0000
,
1001
0000
0000
0000
,
0010
0000
0000
0000
,
0100
0000
0000
0000
,
0010
0000
0000
0000
,
1001
0000
0000
0000
,
1000
0000
0000
0000
,
0001
0000
0000
0000
,
1000
0000
0000
0000
,
1000
0000
0000
0000
,
1001
0000
0000
0000
,
0001
0000
0000
0000
,
1000
0000
0000
0000
,
0001
0000
0000
0000
,
0001
0000
0000
0000
,
1000
0000
0000
0000
,
1000
0000
0000
0000
,
0001
0000
0000
0000
,
0100
0000
0000
0000
,
0010
0000
0000
0000
,
0100
0000
0000
0000
,
0010
0000
0000
0000
,
0100
0000
0000
0000
,
0100
0000
0000
0000
,
0010
0000
0000
0000
,
0010
0000
0000
0000
,
1001
0000
0000
0000
,
1000
0000
0000
0000
,
0001
0000
0000
0000
,
1000
0000
0000
0000
,
0000
0000
0000
0000
0000
0000
0000
0001
,
0000
0000
0000
0000
0000
0000
0000
1000
,
0000
0000
0000
0000
0000
0000
0000
0001
,
0000
0000
0000
0000
0000
0100
0000
0000
;
