#TITLE:Die Zauberflöte;
#SUBTITLE:;
#ARTIST:わんにゃん☆パニックス;
#TITLETRANSLIT:Die Zauberflote;
#SUBTITLETRANSLIT:;
#ARTISTTRANSLIT:WANNYAN PANICS;
#CREDIT:DigiMindAxel;
#BANNER:Die Zauberflote.png;
#BACKGROUND:Die Zauberflote-bg.png;
#LYRICSPATH:Die Zauberflote.lrc;
#CDTITLE:GUITAR FREAKS & drummania.png;
#MUSIC:Die Zauberflote.mp3;
#OFFSET:-9.360;
#SAMPLESTART:59.180;
#SAMPLELENGTH:15.000;
#SELECTABLE:YES;
#DISPLAYBPM:*;
#BPMS:0.000=105.000,12.000=100.000,13.000=85.000,14.000=70.000,15.000=47.000,16.000=185.001,208.000=180.001,252.000=170.001,254.000=160.001,256.000=151.001,279.000=100.001,280.000=85.001,285.000=170.002;
#STOPS:285.000=1.000
;
#BGCHANGES:-18.000=Die Zauberflote.avi=1.000=1=0=1,
99999=-nosongbg-=1.000=0=0=0 // don't automatically add -songbackground-
;

//---------------dance-single - ----------------
#NOTES:
     dance-single:
     :
     Beginner:
     2:
     0.099,0.156,0.084,0.000,0.000:
0000
0000
0000
0000
,
0000
0000
0000
0000
,
0000
0000
0000
0000
,
0001
0000
0000
0000
,
0001
0000
0000
0000
,
0000
0000
0000
0000
,
1000
0000
0000
0000
,
0000
0000
0000
0000
,
1000
0000
0000
0000
,
0000
0000
0001
0000
,
0000
0000
1000
0000
,
0000
0000
1000
0000
,
0010
0000
0010
0000
,
0010
0000
0000
0000
,
0100
0000
0100
0000
,
0100
0000
0000
0000
,
1001
0000
0000
0000
,
0001
0000
0000
0000
,
1000
0000
0000
0000
,
1001
0000
0000
0000
,
1000
0000
0000
0000
,
0001
0000
0000
0000
,
1000
0000
0000
0000
,
0010
0000
0000
0000
,
1000
0000
0000
0000
,
0001
0000
0000
0000
,
0100
0000
0000
0000
,
0000
0000
0000
0000
,
0010
0000
0000
0000
,
0000
0000
0000
0000
,
0100
0000
0000
0000
,
0000
0000
0000
0000
,
0010
0000
0000
0000
,
0000
0000
0000
0000
,
1000
0000
1001
0000
,
0000
0000
1000
0000
,
1000
0000
1000
0000
,
0000
0000
0001
0000
,
0001
0000
1001
0000
,
0000
0000
0010
0000
,
0000
0000
0001
0000
,
1000
0000
0100
0000
,
1000
0000
1001
0000
,
0000
0000
1001
0000
,
0000
0000
1000
0000
,
0000
0000
0010
0000
,
0000
0000
1000
0000
,
0000
0000
0001
0000
,
0000
0000
0010
0000
,
0000
0000
0010
0000
,
0000
0000
1001
0000
,
0000
0000
0001
0000
,
1000
0000
0000
0000
,
1000
0000
0000
0000
,
0001
0000
0000
0000
,
0001
0000
0000
0000
,
1000
0000
0000
0000
,
1000
0000
0000
0000
,
0010
0000
0000
0000
,
0100
0000
0000
0000
,
0001
0000
0000
0000
,
1000
0000
0000
0000
,
0001
0000
0000
0000
,
1000
0000
0000
0000
,
1001
0000
0000
0000
,
0001
0000
0000
0000
,
0001
0000
0000
0000
,
0010
0000
0000
0000
,
0100
0000
0000
0000
,
1000
0000
0000
0000
,
0000
0000
0000
1001
0000
0000
0000
0000
,
0000
0000
0001
0000
,
0000
0000
0001
0000
,
0000
0000
1000
0000
,
0000
0000
1001
0000
;

//---------------dance-single - ----------------
#NOTES:
     dance-single:
     :
     Easy:
     4:
     0.338,0.440,0.376,0.217,0.000:
2002
0000
0000
0000
,
0000
0000
0000
3003
,
0220
0000
0000
0330
,
2002
0000
0000
0000
0000
0000
0000
3003
,
0010
0010
0010
0010
,
0010
0010
0010
0010
,
0100
0100
0100
0100
,
0100
0000
0001
0000
1000
0000
0000
0010
,
0000
0010
0000
0000
1000
0000
0001
0000
,
0010
0000
0100
0000
1000
0000
0000
0100
,
0000
0100
0000
0000
2002
0000
0000
0000
,
0000
0000
0000
3003
,
1001
0010
0001
0010
,
0100
1000
0010
1000
,
0100
0010
0001
0100
,
0001
0010
0100
1000
,
0002
0000
1000
0000
,
2003
0000
0001
0000
,
3001
0000
0001
0010
,
0100
0000
1000
0001
,
1000
0100
0010
0001
,
1000
0000
0001
1000
,
0100
0010
0001
0100
,
0020
0000
0130
0000
,
0200
0000
0310
0000
,
1001
0000
0010
0001
,
0010
0010
0001
0001
,
0010
0010
0100
1000
,
0100
0100
1000
1000
,
0100
0100
0010
0000
,
1001
1000
0100
0010
,
0001
0001
0010
0010
,
0001
0010
0100
1000
,
1010
0000
1001
0000
,
1001
0000
1001
0000
,
1000
0010
1000
0100
,
1000
0010
1000
0001
,
1000
0001
0010
0001
,
0100
0001
0010
0000
,
0001
0010
0100
0000
,
1000
0100
0010
0000
,
1001
0000
0010
0000
,
1001
0000
0100
1000
,
0100
0010
0001
1000
,
0100
0010
0001
0010
,
0100
1000
0001
0010
,
0100
1000
0020
0000
,
0130
0000
2000
0000
,
3001
0000
0010
0001
,
0010
0100
2000
0000
,
0002
3003
0101
0000
,
1100
0000
1001
1001
,
1001
0011
0000
1010
,
0000
1001
1001
1001
,
1100
0000
0101
0000
,
1001
1001
1001
0000
,
0011
0000
1010
0000
,
1001
1001
1001
0000
,
1010
0000
0011
0000
,
1001
1001
1001
0000
,
1001
0000
0001
0010
,
2000
0000
0000
3100
,
0010
0001
1000
0100
,
0011
0000
0101
0000
,
2002
0000
0000
3003
,
0200
0000
0000
0000
,
0320
0000
0000
0000
,
2030
0000
0000
0000
,
3001
0000
0000
0000
,
1001
0000
1000
1000
,
1000
0000
0000
2002
0000
0000
0000
0000
,
0000
3003
0100
0010
,
0001
0010
1000
0100
,
0001
0010
0100
1000
,
0010
0100
2002
0000
,
0000
3003
0000
0000
;

//---------------dance-single - ----------------
#NOTES:
     dance-single:
     :
     Medium:
     6:
     0.444,0.535,0.393,0.242,0.059:
2020
0000
0000
0000
,
0000
0000
0000
3030
,
0220
0000
0000
0330
,
2002
0000
0000
0000
0000
0000
0000
3003
,
0010
0001
0010
0100
,
1000
0001
0010
0100
,
1000
0100
0010
0001
,
1000
0000
0100
0000
0010
0000
0001
1000
,
0000
1000
0000
0000
0001
0000
0010
0000
,
0100
0000
1000
0000
0001
0000
1000
0001
,
0000
0001
0000
0000
0100
0000
0001
0000
,
0100
0010
1000
0100
,
1001
1000
1010
0001
,
0101
1000
1010
1001
,
0100
0001
0100
0000
0100
0010
0100
0000
,
0010
1000
0010
0000
0010
0100
0010
1000
,
0002
0000
0013
0100
,
2000
0000
3100
0010
,
0002
0000
0000
0000
0103
0010
0100
0001
,
1000
0000
0010
0100
0002
0000
1000
0000
,
1003
0000
0010
0000
0100
0001
0010
0000
,
0100
1000
0001
0100
,
0010
1000
0100
0000
1000
0001
1000
0000
,
1001
0001
0101
0000
,
1001
0000
1000
0000
1010
0000
0100
0010
,
0100
0000
0001
0010
0100
0000
1000
0001
,
1000
0010
0000
0100
0000
0010
1000
0000
,
0001
0100
0000
0010
0000
0100
0001
0000
,
0100
0010
0100
0000
0100
0001
0100
0000
,
0010
0100
0010
0000
0010
1000
0010
0000
,
1000
0100
0010
0000
0001
1000
0001
0000
,
0010
0100
1000
0000
0010
0100
0010
0000
,
1000
0100
1000
0000
0001
0010
0100
0000
,
1010
0000
1001
0000
,
1001
0000
0000
0000
0001
0100
0001
0000
,
0010
0001
0010
0100
1000
0000
0010
0000
,
0100
0001
1001
0000
,
0100
1000
0100
0010
0001
0000
0100
0000
,
0010
1000
1001
0000
,
1000
0010
0100
0001
0200
0000
0000
0000
,
0310
0000
1000
0000
1001
0000
0001
0100
,
0010
0000
0100
0010
0100
0000
0000
0000
,
1001
1001
1001
0100
,
0010
0001
1000
0010
,
0100
0001
0010
1000
,
0100
0001
0010
0100
,
1000
0010
0100
0001
,
0002
0000
0103
0010
,
1000
0001
2000
0000
,
3002
0000
0103
0010
,
1001
0000
1010
0000
,
0101
0000
1001
1001
,
1001
1010
0000
0101
,
0100
0001
0010
0100
,
1001
0011
0000
1100
,
0100
1000
0001
0100
,
1001
1100
0000
0011
,
0000
0010
0001
0100
,
1001
0101
0000
1010
,
0000
1000
0010
0100
,
1001
0000
0000
0000
1000
0010
0100
0001
,
0200
0000
0000
0000
0000
0000
0301
1000
,
0001
0100
0010
1000
0100
0010
0001
0000
,
0202
0300
2000
3003
,
2002
0000
0000
3003
,
2020
0000
0000
3030
,
0022
0000
0000
0033
,
2020
0000
0000
3030
,
1001
0000
0000
1000
0000
0010
0100
0000
0000
0000
0000
0000
,
1001
0000
0000
0001
0000
0100
0010
0000
0000
1000
0000
0000
,
1000
0000
0000
2002
0000
0000
0000
0000
,
0000
0000
0000
3003
0000
0000
0010
0000
1000
0010
0000
0100
,
0001
0000
0001
0010
0000
0100
1000
0000
1000
0100
0000
0010
,
0001
0000
0001
0100
0000
0010
1000
0000
1000
0001
0000
0001
,
1000
0000
1000
0010
0000
0010
0200
0000
0000
0000
0000
0000
,
0000
0300
0000
0000
;

//---------------dance-single - ----------------
#NOTES:
     dance-single:
     :
     Hard:
     8:
     0.559,0.692,0.334,0.251,0.343: // measure 1
0202
0000
0000
0000
,  // measure 2
0000
0000
0000
0303
,  // measure 3
2200
0000
0000
3300
,  // measure 4
2002
0000
0000
0000
0000
0000
0000
3003
,  // measure 5
1100
0010
0001
0010
,  // measure 6
0100
0000
1000
0000
0001
1000
0001
0000
,  // measure 7
0100
0010
0100
0000
0001
0000
1000
0000
,  // measure 8
0010
0100
0010
0000
1000
0100
0010
0001
,  // measure 9
0000
1001
0000
0000
0010
0100
0001
1000
,  // measure 10
0001
0000
0001
0000
0001
0010
0100
1000
,  // measure 11
0000
1001
0000
0000
0002
0000
1000
0000
,  // measure 12
2003
0000
0001
0000
3001
1000
0001
0000
,  // measure 13
1000
0010
1000
0001
0010
0001
0100
0000
,  // measure 14
1001
0100
1100
0011
,  // measure 15
0001
0100
0001
1000
0100
1000
0010
0000
,  // measure 16
1001
0100
1100
0011
,  // measure 17
1001
0000
0110
0000
,  // measure 18
1001
0000
0010
0000
0100
0000
1000
0001
,  // measure 19
2000
0000
0000
3001
0010
0100
1000
0001
,  // measure 20
0100
0010
0100
0000
0001
0100
0001
0000
,  // measure 21
1000
0010
1000
0000
0001
0010
0100
1000
,  // measure 22
0010
0000
0100
0010
0100
0000
0001
0000
,  // measure 23
1000
0100
0010
0001
1000
0100
1000
0001
,  // measure 24
1000
1001
0011
0100
,  // measure 25
1000
0001
1000
0100
0010
0000
0001
0010
,  // measure 26
1000
0010
0001
1000
0010
0100
0001
0010
,  // measure 27
0100
1100
0100
1100
,  // measure 28
0010
0001
0010
0000
0001
1000
0001
0000
,  // measure 29
0010
0011
0010
0011
,  // measure 30
0100
1000
0100
0000
1001
0000
0000
0000
,  // measure 31
1000
0010
0100
0000
0001
1000
0100
0010
,  // measure 32
0001
1000
0001
0000
1000
0010
0100
0001
,  // measure 33
1000
0100
0010
0001
,  // measure 34
0100
0000
1001
0000
,  // measure 35
0001
0010
0100
1000
0002
0000
1000
0000
,  // measure 36
1003
0100
0010
0001
,  // measure 37
0100
0010
2000
0001
,  // measure 38
3001
0010
0100
1000
,  // measure 39
0010
0100
0002
0000
,  // measure 40
1003
0010
0100
0001
2000
0000
0000
0000
,  // measure 41
3001
0100
0110
1000
,  // measure 42
0100
0010
1001
0000
,  // measure 43
1001
0000
0000
0001
0000
0000
0001
0000
1000
0010
0000
0000
,  // measure 44
1000
0000
0001
0100
0000
0000
0001
0000
1000
0010
0000
1000
,  // measure 45
0010
0000
0100
0001
0000
0000
0100
0000
0001
1000
0000
0000
,  // measure 46
0010
0000
1000
0001
0000
0000
1000
0000
0000
0001
1000
0001
,  // measure 47
1000
0001
1000
0001
0000
0000
1000
0000
0000
1000
0010
0100
,  // measure 48
0001
0000
0000
0000
0000
0000
0001
0100
0001
0100
0001
1000
,  // measure 49
0100
1000
0100
1000
0100
0010
0001
0000
0000
0001
1000
0001
,  // measure 50
1000
0010
2000
0000
,  // measure 51
3001
0000
0000
0010
0000
0000
0100
1000
0100
1000
0000
0000
,  // measure 52
0001
0100
0001
0100
0000
0000
0110
0000
0000
0110
0000
0000
,  // measure 53
1001
1100
0000
0101
,  // measure 54
0000
0000
0000
0001
1000
0001
1000
0001
0100
0010
0100
0010
,  // measure 55
0100
0101
0000
1100
,  // measure 56
0000
0000
0000
1000
0001
1000
0001
1000
0010
0100
0010
0100
,  // measure 57
0010
0000
0000
1000
0010
1000
0010
0000
0000
0100
0001
0100
,  // measure 58
0001
0000
0000
0100
0010
0100
0010
0100
0001
1000
0001
1000
,  // measure 59
0001
0000
0000
0010
0001
0010
0001
0000
0000
1000
0100
1000
,  // measure 60
0100
0000
0000
1000
0001
1000
0001
1000
0010
0100
0010
0100
,  // measure 61
0020
0000
0130
0000
0001
0010
0100
1000
,  // measure 62
0020
0000
0000
0000
0000
0000
1030
0100
,  // measure 63
0010
0001
0100
0001
0010
0001
0100
0010
,  // measure 64
1000
0000
0100
1000
0100
0010
0001
1000
,  // measure 65
0220
0000
0000
0330
,  // measure 66
2001
3200
0320
0032
,  // measure 67
2000
0000
0000
3003
,  // measure 68
1002
0023
0230
2300
,  // measure 69
3001
0000
0000
0001
0010
0100
1000
0000
0000
0000
0000
0000
,  // measure 70
1001
0000
0000
1000
0100
0010
0001
0000
0000
0101
0000
0000
,  // measure 71
0101
0000
0000
2002
0000
0000
0000
0000
,  // measure 72
0000
0000
0000
3003
0000
0000
0001
0000
0001
0100
0000
0100
,  // measure 73
0010
0000
0010
1000
0100
1000
0100
0010
0001
0010
0000
0001
,  // measure 74
1000
0000
1000
0001
1000
0001
0010
0100
1000
0010
0100
0001
,  // measure 75
0010
0100
1000
0100
0010
0001
2000
0000
0000
0000
0000
0000
,  // measure 76
0000
3000
0000
0000
;

//---------------dance-single - ----------------
#NOTES:
     dance-single:
     :
     Challenge:
     9:
     0.657,0.787,0.201,0.326,0.485:
2200
0000
0000
0000
,
0000
0000
0000
3300
,
0202
0000
0000
0303
,
2002
0000
0000
0000
0000
0000
0000
3003
,
0010
1000
0010
0000
0100
0010
0100
0000
,
0010
1000
0001
0010
0100
1000
0001
0000
,
0100
0001
0100
0000
0010
0100
0010
0000
,
0100
0001
1000
0100
0010
0001
1000
1100
,
0000
1001
0000
0000
0001
0010
0100
1000
,
0001
0000
0001
0000
0001
0010
0100
1000
,
0000
1001
0000
0000
0002
0000
1000
0000
,
2003
0001
3001
1001
,
0010
0100
1000
0100
0010
0001
0010
0001
,
0010
0100
1000
0001
0010
0100
1000
0000
,
0100
0010
0001
0010
0100
1000
0100
1000
,
0100
0010
0001
1000
0010
0100
0001
0000
,
0201
0310
0110
0010
,
1020
0130
0110
0100
,
0001
1000
0001
0000
0100
0001
0010
0100
,
1000
0010
0200
0000
0301
0010
0100
0000
,
1000
0010
0100
0000
0001
0100
1000
0100
,
0001
0100
0010
1000
0100
0000
1100
0000
,
1000
0100
0001
0100
1000
0010
0100
0001
,
0010
0000
0011
0000
1001
0000
0010
0100
,
0010
1000
0010
0001
0010
1000
0100
0010
,
0002
0000
1003
0100
0001
0100
1000
0001
,
0010
0200
0000
1000
0000
0310
0001
0100
,
0010
0200
0000
0001
0000
0301
0010
0100
,
1000
0020
0000
0100
0000
0031
0010
0100
,
1000
0010
0100
0000
0001
1000
0001
0000
,
1000
0010
0100
0010
1000
0100
0001
0100
,
1000
0010
0100
0010
1000
0100
0010
0001
,
1000
0100
0010
0100
1000
0010
0001
0010
,
2000
0000
0001
0000
3001
0100
0001
0000
,
1000
0100
0010
0001
0200
0000
0001
0000
,
0301
0100
1000
0100
0002
0000
1000
0000
,
2003
3001
0020
1000
,
1030
0100
0001
0100
2000
0000
0001
0000
,
3002
1003
0120
1030
,
1000
0100
0010
0100
2000
0000
0001
0000
,
3001
0100
0010
0000
0210
0000
0301
0000
,
0001
0010
0100
0010
0002
0000
1000
0000
,
1003
0100
0010
0001
0000
0000
0100
0000
0001
0100
0000
0001
,
0100
0000
0010
1000
0000
0010
1000
0000
1000
0010
0000
0010
,
0100
0000
0100
0001
0000
0001
1000
0000
0100
1000
0000
0100
,
1000
0000
0001
0010
0000
0001
0010
0000
0001
0100
0000
0100
,
0010
0000
0010
1000
0000
1000
0001
0000
0000
0100
0001
1000
,
0200
0000
0000
0000
0000
0000
1300
0100
1000
0001
0100
0001
,
0100
0010
0100
0001
0010
0100
1000
0000
0000
0010
1000
0001
,
0020
0000
0000
0001
0000
0000
0031
0100
0001
0100
0010
1000
,
0010
1000
0100
0010
0001
1000
0001
0100
0010
0100
0000
0000
,
0001
0100
0010
0100
0000
0000
0101
0000
0000
1100
0000
0000
,
1001
0000
0000
1000
0010
0100
0010
0000
0000
1000
0010
0100
,
0010
0000
0000
1000
0100
0010
0001
0100
0001
0100
0010
1000
,
0010
0000
0000
1000
0001
0010
0001
0000
0000
1000
0001
0010
,
0001
0000
0000
0010
0100
1000
0010
1000
0001
0100
0001
1000
,
0100
0000
0000
1000
0010
0100
0010
0000
0000
1000
0010
0100
,
0010
0000
0000
1000
0100
0010
0001
0100
0001
1000
0010
1000
,
0001
0000
0000
0100
0001
0100
0010
0000
0000
0100
0001
0100
,
0010
0000
0000
0100
0001
0010
0100
1000
0010
1000
0001
0100
,
0002
0000
1000
0000
1003
0100
0010
0001
,
0200
0000
0010
0000
0310
0000
0010
0100
,
0001
0010
0100
1000
0001
0100
0010
1000
,
0100
0000
0000
0010
0000
0000
0100
0000
1000
0000
0100
0000
1000
0000
0001
0000
0010
0000
0001
0000
0010
0000
0100
0000
,
2000
0000
0000
0000
3001
0010
0100
1000
,
0002
0203
0320
2030
,
0002
0000
0000
3000
,
1003
0100
0010
0001
0100
1000
0100
0001
,
1001
0000
0000
1000
0010
0100
0001
0000
0000
0000
0000
0000
,
1001
0000
0000
0001
0100
0010
1000
0000
0000
1100
0000
0000
,
0101
0000
0000
2002
0000
0000
0000
0000
,
0000
0000
0000
3003
0000
0000
1000
0100
1000
0100
0010
0100
,
0010
0001
0010
0001
0010
0100
1000
0010
0100
0001
0100
0010
,
0100
0010
1000
0100
0001
0100
1000
0001
0010
1000
0010
0001
,
1000
0010
0100
0001
0010
0100
2000
0000
0000
0000
0000
0000
,
0000
3000
0000
0000
;
