#TITLE:Daisuke;
#SUBTITLE:;
#ARTIST:Y&Co.;
#TITLETRANSLIT:;
#SUBTITLETRANSLIT:;
#ARTISTTRANSLIT:;
#CREDIT:DigiMindAxel;
#BANNER:Daisuke.png;
#BACKGROUND:Daisuke-bg.png;
#LYRICSPATH:Daisuke.lrc;
#CDTITLE:beatmania IIDX.png;
#MUSIC:Daisuke.mp3;
#OFFSET:-7.200;
#SAMPLESTART:50.737;
#SAMPLELENGTH:12.000;
#SELECTABLE:YES;
#BPMS:0.000=157.000;
#STOPS:157.000=0.764
,267.000=0.764
;
#BGCHANGES:-21.000=Daisuke.avi=1.000=1=1=0,
99999=-nosongbg-=1.000=0=0=0 // don't automatically add -songbackground-
;

//---------------dance-single - ----------------
#NOTES:
     dance-single:
     :
     Easy:
     3:
     0.242,0.264,0.125,0.023,0.000:
1000
1000
1000
1000
,
0001
0001
0001
0001
,
1000
1000
1000
1000
,
1001
0000
0000
0000
,
0010
0100
0010
0000
,
1000
0001
1000
0000
,
0100
1000
0100
0000
,
1000
0100
0010
0001
,
1000
0001
1000
0000
,
0010
0100
0010
0000
,
0100
0001
0100
0000
,
0001
0010
0100
1000
,
0001
0000
0001
0000
,
1000
0000
1000
0000
,
0020
0000
0130
0000
,
0110
0000
0110
0000
,
0100
0000
0010
0000
,
1000
0000
1000
0000
,
0010
0000
0100
0000
,
0110
0000
0110
0000
,
0001
0000
0001
0000
,
0100
0000
0010
0000
,
1000
0000
1000
0000
,
0010
0100
0010
0000
,
1000
0000
1000
0000
,
0001
0000
0001
0000
,
0100
0000
0010
0000
,
1000
0000
0100
0000
,
0110
0000
0000
0000
,
1001
0000
1000
0000
,
0001
0000
1000
0001
,
1000
0000
0010
0000
,
0100
0000
0001
0000
,
1000
0001
1000
0000
,
0100
0000
0010
0000
,
0002
0000
0000
0000
,
2003
0000
0000
0000
,
3001
0000
1000
0000
,
0001
0010
0100
1000
,
0001
0000
1001
0000
,
1000
0000
0001
1000
,
0001
0000
1001
0000
,
0001
0000
1000
0001
,
1000
0100
0010
0000
,
0110
0000
0100
0000
,
0110
0000
0010
0000
,
0110
0000
0001
0010
,
0100
1000
0001
0000
,
0001
0000
0001
0000
,
0000
0000
1000
0000
,
1000
0000
1000
0000
,
0000
0000
0010
0100
,
0010
0000
0100
0010
,
0100
0000
0001
1000
,
0001
0000
1000
0001
,
1000
0001
0100
0000
,
0000
0000
0110
0000
,
0010
0100
0010
0000
,
1000
0001
1000
0000
,
0010
0100
0010
0100
,
0001
1000
0001
0000
,
1001
0000
1000
0001
,
1000
0000
0100
0010
,
0001
0000
0010
0100
,
1000
0000
0001
0010
,
0100
1000
0100
0010
,
0001
0000
1001
0000
,
1000
0001
1000
0001
,
1000
0100
1000
0100
,
1000
0001
1000
0001
,
0100
0000
0100
0000
,
0001
1000
0001
1000
,
0001
0100
0001
0100
,
0001
1000
0001
1000
,
0010
0000
0010
0000
,
0110
0000
0000
0000
;

//---------------dance-single - ----------------
#NOTES:
     dance-single:
     :
     Medium:
     6:
     0.417,0.381,0.242,0.109,0.000:
0001
0010
0100
0010
,
0001
1000
0100
0010
,
0100
1000
0010
0100
,
0220
0000
0000
0330
,
0010
0100
0010
0000
0010
0100
0010
0000
,
1000
0001
1000
0000
1000
0001
1000
0000
,
0010
0100
0010
0000
0010
0100
0010
0000
,
1000
0100
0001
0100
,
1000
0001
1000
0000
0010
1000
0010
0000
,
0100
0010
0100
0000
0001
0100
0001
0000
,
0010
0100
0010
0000
0001
1000
0001
0000
,
0100
1000
0100
0001
,
1000
0010
1010
0000
,
0001
0100
0101
0001
,
1000
0100
0010
0000
0100
1000
0010
0000
,
0110
0110
0110
0000
,
0001
0100
0101
0000
,
1000
0010
1010
1000
,
0001
0010
0100
0000
0010
0001
0100
0000
,
0110
0110
0110
0000
,
1000
0100
0001
0100
,
1000
0010
0200
0000
,
0301
0010
1000
0010
,
0001
0010
0100
0110
,
1000
0010
0100
1001
,
0001
0100
0010
1001
,
1000
0100
0010
0001
,
0010
0100
1000
0010
,
0110
0000
0000
0000
,
1001
0000
1001
0000
0001
0100
0010
1000
,
0000
1000
0000
0000
0001
0000
1000
0000
,
0001
0000
1001
0000
1000
0010
0100
0001
,
0000
0001
0000
0001
0000
0000
0000
0000
,
1000
0000
1001
0000
0001
0010
0100
1000
,
0000
1000
0000
1000
0000
0001
0100
0002
,
0000
1000
0000
1003
0000
0010
0100
0020
,
0000
0100
0000
0130
0000
0001
1000
0001
,
0000
0010
0000
0100
0000
1000
0000
0010
,
0000
0100
0000
0001
0000
0000
0000
0000
,
1001
0000
0000
0000
0001
0100
0010
0000
,
0100
0010
0100
0000
0001
0010
0100
0000
,
0010
0100
0010
0000
0001
1000
0100
0000
,
1000
0001
1000
0000
0100
0000
0001
0000
,
0100
0000
1000
0000
0100
1000
0010
0000
,
0100
0010
0100
0000
0010
1000
0100
0000
,
0010
0100
0010
0000
1000
0001
0100
0000
,
0001
0100
0001
0000
0010
0000
1000
0000
,
0010
0001
2000
0000
,
3200
0000
0320
0000
,
0032
0000
2003
0000
,
3002
0000
2003
0000
,
3001
0000
1001
0000
0001
1000
0010
0000
,
0110
0000
0000
0000
1000
0010
0100
0000
,
0110
0000
0000
0000
0001
0000
0010
0100
,
1000
0000
0001
0000
1000
0000
0100
0010
,
0001
1000
0110
0000
,
0000
0000
0110
0110
,
0010
0100
0001
1000
0000
1000
0000
0000
,
0001
1000
0001
1001
,
1000
0100
0010
0001
0000
0001
0000
0001
,
0000
0000
1001
1001
,
0001
0100
0010
1000
0000
1000
0000
1000
,
0000
0001
0100
0002
0000
1000
0000
1003
,
0000
0010
0100
0020
0000
0100
0000
0130
,
0000
0001
1000
0001
0000
0010
0000
0100
,
0000
1000
0000
0010
0000
0100
0000
0001
,
0000
0000
1001
0000
,
1000
0100
0010
0000
0001
1000
0001
0000
,
0010
0100
1000
0000
0010
0100
0010
0000
,
1000
0001
0010
0000
0001
1000
0001
0000
,
0010
1000
0010
0001
,
1000
0010
0100
0000
0001
1000
0001
0000
,
0100
0010
1000
0000
0100
0010
0100
0000
,
1000
0001
1000
0000
0010
0100
0001
0000
,
0100
1000
0100
0001
,
0110
0000
0000
0000
;

//---------------dance-single - ----------------
#NOTES:
     dance-single:
     :
     Hard:
     8:
     0.548,0.498,0.367,0.133,0.039:
1001
1000
0100
0001
,
0100
1000
0010
0001
,
0010
0000
1000
0000
0010
0000
0100
0010
,
0220
0000
0000
0330
,
1000
0100
0010
0000
0010
0100
1000
0000
,
0100
0010
0001
0000
0001
0010
0100
0000
,
1000
0100
0001
0000
0001
0100
1000
0000
,
0100
1000
0010
0100
0001
0010
0100
1000
,
0001
0100
1000
0000
1000
0100
0001
0000
,
0010
0100
1000
0000
1000
0100
0010
0000
,
0001
0100
1000
0000
1000
0100
0001
0000
,
0100
0001
0100
0000
0010
0000
1000
0001
1000
0000
0100
0000
0010
0000
0001
0000
,
1000
1010
1001
0001
,
0100
0101
1001
1000
,
0100
0010
0001
0100
1000
0100
0010
0000
,
1001
0000
1001
0000
1000
1000
0000
0001
,
1000
1100
1001
0001
,
0100
0001
0010
0000
0101
0000
1001
0000
,
0010
0100
1000
0010
0001
0010
0100
0000
,
1001
0000
1001
0000
0001
0001
0000
0000
,
1001
0000
1000
0100
0001
0100
1000
0000
,
0010
1000
0001
0020
0100
0000
0130
0000
,
1001
0000
0001
0010
1000
0010
0001
0000
,
0100
0001
1000
0100
0010
0000
0110
0000
,
1000
0100
0010
0001
1000
0000
1001
0000
,
0001
0010
0100
1000
0001
0000
1001
0000
,
1000
0001
0000
0100
0000
1000
0000
0100
,
0001
1000
0000
0010
0000
0100
0000
0000
,
0110
0000
0000
0000
,
1001
0000
1100
0000
0010
0001
1000
0100
,
0001
0100
1000
0000
0001
0010
0100
1000
,
0001
0000
0101
0000
0010
1000
0001
0100
,
1000
0100
0001
1000
0000
0020
0000
0000
,
0130
0000
1001
0000
0001
0010
1000
0010
,
0001
1000
0010
0100
0000
0001
0100
2000
,
0000
0100
0100
3100
0000
0001
0100
2000
,
0000
0100
0100
3100
0000
0001
0100
0010
,
0000
1010
0000
0100
0000
0101
0000
0001
,
0000
0110
0000
2000
0000
0000
3000
0000
,
2002
0000
3003
0000
0001
0100
1000
0000
,
1000
0100
0001
0000
0010
0100
1000
0100
,
0010
0001
1000
0000
0100
0010
0001
0000
,
0001
0010
0100
0000
1000
0010
0001
0010
,
1000
0001
0100
0000
0001
0100
1000
0000
,
1000
0100
0001
0000
0010
0100
1000
0010
,
0100
0001
0010
0000
0100
0010
0001
0000
,
0001
0000
0010
0000
0100
0000
0000
0000
1000
0010
1000
0000
0001
0000
0100
0010
,
0100
0001
1000
0100
1100
0000
0000
1100
,
0000
0100
0000
0100
0101
0000
0000
0020
,
0000
1000
0000
1030
1001
0000
0000
0101
,
0000
0100
0000
0100
1100
0000
0000
1000
,
1001
0000
1001
0000
1000
0100
0001
0100
,
1000
0000
1100
0000
0001
0010
1000
0010
,
0001
0000
0011
0000
1000
0100
0010
0002
,
0000
0000
1003
0000
0001
0010
0100
2000
,
0000
3001
0000
0000
0110
0000
0000
0000
,
0000
0000
0100
1001
,
0001
0010
1000
0010
0001
0100
0010
0000
,
1000
0100
0010
0001
1000
0000
1001
0000
,
1000
0100
0001
0100
1000
0010
0100
0001
,
0010
0100
1000
0000
1100
0000
1001
0000
,
0001
0010
1000
0010
0001
0100
0010
1000
,
0000
0001
0100
2000
0000
0100
0100
3100
,
0000
0001
0100
2000
0000
0100
0100
3100
,
0000
0001
0100
0010
0000
1010
0000
0100
,
0000
0101
0000
0001
0000
0110
0000
2000
,
0000
3000
2002
3003
,
0001
0010
0100
0001
0100
1000
0001
0000
,
0010
0100
1000
0100
0001
0100
1000
0000
,
0001
0100
0010
0001
0010
1000
0001
0000
,
1000
0100
0001
0100
1000
0100
0001
0100
,
1000
0100
0010
1000
0010
0001
1000
0000
,
0100
0010
0001
0010
1000
0010
0001
0000
,
1000
0010
0100
1000
0100
0001
1000
0000
,
0001
0100
0001
0100
0001
0000
1000
0010
1000
0010
1000
0000
0010
0100
0010
0100
,
0010
0000
0000
0000
;

//---------------dance-single - ----------------
#NOTES:
     dance-single:
     :
     Challenge:
     9:
     0.724,0.762,0.297,0.156,0.418: // measure 1
0001
0100
0001
1000
0100
1000
0001
0010
,  // measure 2
0100
1000
0001
0010
0001
1000
0010
1000
,  // measure 3
0100
0010
0001
0010
0100
1000
0010
0100
,  // measure 4
0220
0000
0000
0330
,  // measure 5
0001
0100
0001
0100
0001
0000
0000
0000
0100
0010
0100
0000
0001
0000
0001
0000
,  // measure 6
1000
0100
1000
0100
1000
0000
0000
0000
0010
0100
0000
0100
0010
0000
1000
0000
,  // measure 7
0010
0100
0010
0100
0010
0000
0000
0000
1000
0001
1000
0001
1000
0000
0000
0000
,  // measure 8
0010
1000
0010
1000
0001
0000
0010
0001
0010
0001
0100
0000
0010
0100
0010
0000
,  // measure 9
1000
0010
1000
0010
1000
0000
0000
0000
0010
0100
0010
0000
1000
0000
1000
0000
,  // measure 10
0001
0010
0001
0010
0001
0000
0000
0000
0010
0100
0000
0100
0010
0000
0001
0000
,  // measure 11
1000
0001
1000
0001
1000
0000
0000
0000
0010
0100
0010
0100
0010
0000
0000
0000
,  // measure 12
1000
0100
1000
0100
0010
0000
0001
0100
0001
0100
0010
0000
1000
0001
1000
0000
,  // measure 13
0001
0100
0010
0100
0001
0010
0100
0000
,  // measure 14
1000
0100
0010
1000
0010
0001
1000
0000
,  // measure 15
0001
0000
0100
0000
0001
0000
1000
0100
0000
0010
0000
0100
1000
0000
0001
0000
,  // measure 16
1001
0000
1001
0000
0100
0110
0000
0001
,  // measure 17
1000
0100
0010
0100
1000
0001
0100
0000
,  // measure 18
0001
0100
0010
0001
0010
1000
0001
0000
,  // measure 19
1000
0000
0100
0000
1000
0000
0001
0100
0000
0010
0000
0100
0001
0000
1000
0000
,  // measure 20
1001
0000
1001
0000
0010
0110
0000
1000
,  // measure 21
0001
0010
1000
0010
0001
0100
1000
0100
,  // measure 22
0001
0100
0010
1000
0100
0010
0001
0000
,  // measure 23
1000
0100
0001
0100
1000
0010
0001
0010
,  // measure 24
1000
0100
0010
0001
0101
0000
0110
0000
,  // measure 25
1000
0100
0010
0001
0100
0000
0101
0000
,  // measure 26
0001
0010
0100
1000
0010
0000
1010
0000
,  // measure 27
1000
0002
0000
1000
0000
0103
0000
0010
,  // measure 28
1000
0002
0000
0100
0000
1003
0000
0000
,  // measure 29
0220
0000
0000
0330
,  // measure 30
1001
0000
0110
0000
1000
0100
0001
0100
,  // measure 31
1000
0010
0100
0000
0001
0001
0010
0100
,  // measure 32
1000
0000
1001
0000
0001
0100
1000
0100
,  // measure 33
0001
0000
0010
0000
0100
0000
2000
0000
0000
0000
3001
0000
0100
0000
0010
0100
,  // measure 34
0010
0000
1001
0000
1000
0100
0001
0100
,  // measure 35
1000
0001
0100
0110
0000
0001
0100
2000
,  // measure 36
0000
3100
0001
2000
0000
3001
0100
2000
,  // measure 37
0000
3100
0001
2000
0000
3001
0100
0010
,  // measure 38
0000
0110
0000
1100
0000
0110
0000
0011
,  // measure 39
0000
0110
0000
1001
0100
0010
0001
1000
,  // measure 40
0010
0000
0010
0000
0010
0000
0000
0000
0100
0010
0100
0010
0100
0000
0001
0000
,  // measure 41
1000
0100
1000
0000
0001
0000
1000
0000
0010
0100
0010
0100
0010
0000
1000
0000
,  // measure 42
0001
0010
0000
0010
0001
0000
0100
0000
0010
0100
0010
0100
0010
0000
0001
0000
,  // measure 43
1000
0010
1000
0000
0001
0000
0010
0000
0100
0010
0100
0010
0001
0000
1000
0100
,  // measure 44
1000
0100
0010
0000
0001
1000
0001
0000
0100
0001
0100
0001
0100
0000
0001
0000
,  // measure 45
1000
0010
1000
0010
1000
0000
0100
0000
0010
0001
0010
0001
0010
0000
0100
0000
,  // measure 46
1000
0001
0000
0001
1000
0000
0010
0000
0100
0010
0100
0010
0100
0000
0001
0000
,  // measure 47
0010
0100
0010
0100
0010
0000
0001
0000
0010
0100
0010
0100
1000
0000
0100
0010
,  // measure 48
0100
0010
0001
0000
0100
0010
0100
0000
0001
0000
0001
0000
1000
0000
0100
0000
,  // measure 49
0010
0001
0001
1000
0000
1000
0010
0100
,  // measure 50
0001
0000
1000
0000
0001
0010
0100
1000
,  // measure 51
0010
0100
0100
0010
0000
0100
0001
0010
,  // measure 52
0100
0000
1001
0000
1000
1000
0001
0010
,  // measure 53
0100
0000
0110
0000
0001
0001
1000
0100
,  // measure 54
0010
0000
0110
0000
0100
0010
0100
2000
,  // measure 55
0000
3002
0000
1003
0100
0010
0100
2000
,  // measure 56
0000
3001
0000
0000
0220
0000
0000
0000
,  // measure 57
0000
0330
1001
0110
,  // measure 58
0001
0100
0010
0001
0010
1000
0001
0000
,  // measure 59
1000
0100
0001
0100
1000
0000
1001
0000
,  // measure 60
1000
0010
0100
1000
0100
0001
1000
0100
,  // measure 61
0010
0001
1000
0000
1001
0000
0110
0000
,  // measure 62
1000
0100
0010
1000
0010
0001
0100
0010
,  // measure 63
0000
1000
0100
0002
0000
0103
1000
0002
,  // measure 64
0000
1003
0100
0002
0000
0103
1000
0002
,  // measure 65
0000
1003
0010
0100
0000
0110
0000
0101
,  // measure 66
0000
0110
0000
1010
0000
0110
0000
1001
,  // measure 67
0010
0100
1000
0010
0100
0100
0100
0000
,  // measure 68
0001
0100
0001
0100
0010
0000
1000
0000
0010
1000
0010
1000
0001
0000
0010
0000
,  // measure 69
0100
0010
0100
0010
0001
0000
1000
0000
0010
0100
0000
0100
0001
0000
1000
0000
,  // measure 70
0001
0100
0001
1000
0100
0000
1000
0000
0100
1000
0100
1000
0001
0000
0100
0000
,  // measure 71
0001
0010
0100
1000
0100
0000
1000
0100
0010
0001
0010
0000
0001
1000
0001
0000
,  // measure 72
1000
0010
1000
0010
0100
0000
0001
0000
0100
0001
1000
0100
1000
0000
0010
0000
,  // measure 73
1000
0001
0010
0001
0010
0000
0001
0000
0010
0001
0000
0001
0100
0000
0001
0000
,  // measure 74
0010
0100
0010
0100
1000
0000
0001
0000
0100
0010
0100
0010
1000
0000
0001
0000
,  // measure 75
1000
0100
0010
0001
0010
0000
0100
1000
0010
0100
0001
1000
0001
1000
0100
0010
,  // measure 76
0001
0000
0000
0000
;

//---------------dance-single - ----------------
#NOTES:
     dance-single:
     :
     Beginner:
     1:
     0.099,0.147,0.078,0.000,0.000:
0001
0000
0000
0000
,
1000
0000
0000
0000
,
0001
0000
0000
0000
,
1001
0000
0000
0000
,
0001
0000
0000
0000
,
0001
0000
0000
0000
,
0010
0000
0000
0000
,
0010
0000
0000
0000
,
0100
0000
0000
0000
,
0100
0000
0000
0000
,
1000
0000
0000
0000
,
1000
0000
0000
0000
,
1001
0000
0000
0000
,
0000
0000
0000
0000
,
0001
0000
1000
0000
,
0001
0000
0000
0000
,
1001
0000
0000
0000
,
0000
0000
0000
0000
,
1000
0000
0001
0000
,
1000
0000
0000
0000
,
1001
0000
0000
0000
,
0000
0000
0000
0000
,
0001
0000
0000
0000
,
0000
0000
1000
0000
,
1000
0000
0000
0000
,
0001
0000
0000
0000
,
0001
0000
0000
0000
,
0100
0000
0000
0000
,
0110
0000
0000
0000
,
0010
0000
0010
0000
,
0010
0000
0000
0000
,
0100
0000
0100
0000
,
0100
0000
0000
0000
,
0110
0000
0000
0000
,
0000
0000
0000
0000
,
0001
0000
0000
0000
,
1000
0000
0000
0000
,
0001
0000
0000
0000
,
0000
0000
0000
0000
,
1001
0000
1000
0000
,
1000
0000
1000
0000
,
0000
0000
0001
0000
,
0001
0000
0001
0000
,
0000
0000
1000
0000
,
1000
0000
1000
0000
,
0000
0000
0001
0000
,
0001
0000
0001
0000
,
0000
0000
1000
0000
,
0000
0000
0000
0000
,
0000
0000
0100
0000
,
0000
0000
0000
0000
,
0000
0000
0010
0000
,
0000
0000
0001
0000
,
0000
0000
0010
0000
,
0000
0000
0100
0000
,
0000
0000
0110
0000
,
0000
0000
0001
0000
,
0001
0000
0000
0000
,
1000
0000
1000
0000
,
1000
0000
0000
0000
,
0000
0000
0001
0000
,
1000
0000
0000
0000
,
0000
0000
0001
0000
,
0000
0000
1000
0000
,
0000
0000
0001
0000
,
0000
0000
0000
0000
,
0000
0000
1001
0000
,
1000
0000
0000
0000
,
1000
0000
0000
0000
,
0100
0000
0000
0000
,
0010
0000
0000
0000
,
0001
0000
0000
0000
,
0001
0000
0000
0000
,
0010
0000
0000
0000
,
0100
0000
1000
0000
,
1001
0000
0000
0000
;
