#TITLE:誰がために陽はのぼる;
#SUBTITLE:;
#ARTIST:MAKI;
#TITLETRANSLIT:DARE GA TAME NI HI WA NOBORU;
#SUBTITLETRANSLIT:;
#ARTISTTRANSLIT:;
#CREDIT:DigiMindAxel;
#BANNER:DARE GA TAME NI HI WA NOBORU.png;
#BACKGROUND:DARE GA TAME NI HI WA NOBORU-bg.png;
#LYRICSPATH:DARE GA TAME NI HI WA NOBORU.lrc;
#CDTITLE:pop'n music.png;
#MUSIC:DARE GA TAME NI HI WA NOBORU.mp3;
#OFFSET:-7.120;
#SAMPLESTART:49.467;
#SAMPLELENGTH:12.000;
#SELECTABLE:YES;
#BPMS:0.000=225.000;
#STOPS:;
#BGCHANGES:;

//---------------dance-single - ----------------
#NOTES:
     dance-single:
     :
     Easy:
     4:
     0.262,0.343,0.148,0.141,0.000:
1000
0100
0010
0001
,
1000
0010
0000
0110
,
0000
1001
0000
2000
,
0000
0000
0000
0001
,
3001
0100
0000
0200
,
0000
0000
0000
0310
,
0000
0000
0000
1000
,
0000
0100
0000
1000
,
0000
0100
0000
0010
,
0000
0001
0000
0010
,
0000
0001
0000
1000
,
1000
1000
0000
0010
,
0000
0100
0000
0001
,
0001
0001
0000
0100
,
0000
0010
0000
2000
,
0000
0000
0000
3002
,
0000
0000
0000
1003
,
0001
1000
0000
0001
,
1000
0001
0000
0100
,
0100
0100
0000
0010
,
0000
0100
0000
0010
,
0010
0010
0000
0100
,
0000
0010
0000
2000
,
0000
0000
0000
3002
,
0000
0000
0000
1003
,
0100
0010
0001
1000
,
0000
0000
0000
1001
,
0000
0000
0000
0010
,
0000
0000
0000
0200
,
0000
0000
0000
0320
,
0000
0000
0030
0110
,
0000
0000
0000
1001
,
0000
0000
0000
1000
,
0000
0001
0000
1000
,
0000
0010
0000
0100
,
0000
0000
0000
0002
,
0000
0000
0000
2003
,
0000
0000
0000
3000
,
0000
0000
0000
0000
,
0000
0000
0000
1001
,
0000
0001
0000
1000
,
0000
0001
0000
0010
,
0000
0100
0000
1000
,
0000
0010
0000
1001
,
0000
1000
0000
0001
,
0000
1000
0000
0100
,
0000
0010
0000
0001
,
0000
0100
0000
0000
,
2002
0000
0000
3003
,
0000
1000
0000
0100
,
0000
0010
0000
0001
,
0000
1000
0000
0010
,
0000
0100
0000
0010
,
0000
1000
0000
0100
,
0000
0010
0000
0001
,
0000
0100
0000
0010
,
0000
0010
0000
0100
,
0010
0100
0000
0010
,
0000
0010
0000
0100
,
0010
0100
0000
0001
,
0000
0001
0000
1000
,
0001
1000
0000
0001
,
0010
0100
1000
0001
,
0000
0000
0000
0000
,
0000
0000
0000
1000
,
0000
1000
0000
0100
,
0000
0100
0000
0010
,
0000
0010
0000
0001
,
0000
0001
0000
0100
,
0000
0100
0000
0010
,
0000
0010
0000
1000
,
0000
1000
0000
0001
,
0000
0001
0000
1000
,
0000
0100
0000
0010
,
0000
0001
0000
0100
,
0000
0010
0000
0100
,
0000
0010
0000
0100
,
0000
0001
0000
0010
,
0000
0100
0000
1000
,
0000
0001
0000
0100
,
0000
0000
0000
0000
,
0110
0000
1001
0000
,
0000
0000
1000
0001
,
0000
0000
0000
0000
,
0000
0000
0000
1001
,
0000
0110
0000
0000
,
1001
0000
0000
0000
,
0000
0000
0000
2002
,
0000
0000
3003
1000
,
0000
0100
0000
1000
,
0000
0001
1000
0001
,
0000
0010
0000
0100
,
0000
1000
0000
0010
,
0100
0010
0000
1000
,
0000
0001
0000
1000
,
0000
0100
0000
0010
,
0000
0001
0000
0000
,
2002
0000
0000
3003
,
0000
0001
0000
0010
,
0000
0100
0000
1000
,
0000
0010
0000
0100
,
0010
0100
0000
0001
,
0000
1000
0000
0100
,
0000
0010
0000
0001
,
0000
1001
0000
0000
,
0000
0110
0000
0000
,
1000
0000
1000
0000
,
1000
0000
0000
1001
,
0000
0220
0000
0000
,
0000
0000
0000
0330
;

//---------------dance-single - ----------------
#NOTES:
     dance-single:
     :
     Medium:
     6:
     0.423,0.429,0.305,0.258,0.277:
0001
0100
0010
0100
,
0001
0000
1000
0000
0000
0010
0000
0000
1010
0000
0000
0000
,
0000
0000
1001
0000
0000
0000
0000
0000
0000
0200
0000
0000
,
0000
0000
0000
0302
0000
0000
0000
0000
1000
0000
0000
1003
,
0000
0000
0000
0010
0000
0100
0000
0000
0000
2002
0000
0000
,
0000
0000
3003
1001
,
1001
0000
0000
0002
,
0000
1000
0000
0100
,
0000
1003
0000
0200
,
0000
0010
0000
0001
,
0000
0310
0000
0001
,
1000
0100
0000
1000
,
0100
0010
0000
0001
,
1000
0100
0000
1000
,
0100
0010
0000
0002
,
0000
0103
0000
0020
,
0000
0130
0000
0001
,
0010
0100
0000
1000
,
0001
0100
0000
0001
,
0010
0100
0000
1000
,
0001
0100
0000
0001
,
0010
0100
1000
0010
,
0100
0010
0000
2000
,
0000
3010
0000
0200
,
0000
0310
0000
1000
,
0010
0100
0001
2000
,
0000
0000
0001
0000
0000
3001
0000
0000
0000
1001
0000
0000
,
1001
0000
0000
0000
0000
0000
0000
0000
0110
0000
0000
0000
,
0000
0000
0000
0002
,
0000
0103
0000
0020
,
0000
0130
0000
1001
,
1001
0000
0000
0000
0000
0000
0000
0000
0110
0000
0000
0000
,
0000
0000
0000
2000
,
0000
3010
0000
0200
,
0000
0310
0000
1000
,
0000
0000
0100
0000
0000
1000
0000
0000
0001
0000
0000
0000
,
0100
0000
0000
0000
0000
0100
0000
0000
0000
0000
0000
0010
,
0000
0000
0000
0010
0000
0000
0000
0000
0000
0000
0000
0110
,
0000
0000
0110
0000
0000
0000
0000
0000
0000
0000
0000
0000
,
0000
0000
0000
2001
,
0000
0000
0000
3001
0000
0100
0000
0000
0001
0000
0000
0000
,
0000
1000
0100
0010
,
0001
0010
0100
1000
,
0001
0100
0000
1002
,
0000
0000
0003
1000
0000
0100
0000
0000
1000
0000
0000
0000
,
0000
0001
0010
0100
,
1000
0100
0010
0001
,
1000
0010
0000
0000
,
1001
0000
0000
0001
0000
0000
0000
0000
1001
0000
0000
0000
,
0000
0100
0001
0010
,
0100
1000
0010
0100
,
0001
1000
0000
0020
,
0000
0000
0000
0130
0000
0001
0000
0000
1000
0000
0000
0000
,
0000
0100
1000
0010
,
0100
0001
0010
0100
,
1000
0001
0000
0100
,
0100
0001
0010
0100
,
1000
0001
0000
0100
,
0001
0010
0100
1000
,
0010
0010
0000
0100
,
0001
1000
0100
0010
,
0001
1000
0000
0010
,
1000
0000
0000
0001
0000
0100
0000
0000
0020
0000
0000
0000
,
0000
0000
0000
0000
,
0000
0000
0130
0001
,
1000
0001
0000
0100
,
0001
0010
0000
0100
,
1000
0010
0000
0100
,
0010
0100
0000
0001
,
1000
0100
0000
0010
,
0001
1000
0000
0010
,
0100
0010
0100
0010
,
1000
0000
0000
0100
0000
0000
0000
0000
0000
1000
0000
0002
,
0000
0100
0103
0100
,
0000
0000
1001
0000
0000
0000
0000
0000
0000
0000
0000
2000
,
0000
0010
3010
0010
,
0000
0000
1001
0000
0000
0000
0000
0000
0000
0000
0000
0020
,
0000
1000
1030
0001
,
0000
0000
1001
0000
0000
0000
0000
0000
0000
0000
0000
0200
,
0000
0001
0301
1001
,
1001
0000
0000
0000
,
1100
0000
0000
0000
0000
0000
0011
0000
0000
0000
0000
0100
,
0000
0000
1000
0000
0000
0000
1001
0000
0000
1001
0000
0000
,
0000
0000
0000
0100
0000
0001
0000
0000
1000
0000
0000
0010
,
0000
0000
0100
0000
0000
0010
0000
0000
1001
0000
0000
0000
,
0000
0000
1001
0000
0000
0000
0000
0000
0000
0000
0000
0000
,
0000
0000
0101
0000
0000
0000
0000
0000
0000
1000
0000
0010
,
0000
0000
0000
1001
,
2002
0000
3003
0000
,
1002
0000
0000
0000
0000
0103
0000
0000
0101
0000
0000
0000
,
0000
0000
0000
0010
0000
0000
0100
0000
0000
1000
0000
0001
,
0100
0000
0000
0001
0000
0000
0010
0000
0000
0100
0000
0010
,
0000
0000
0001
0000
0000
0000
0000
0000
0000
2000
0000
0000
,
0000
0000
0000
3001
0000
0100
0000
0000
1001
0000
0000
0000
,
0000
0100
0010
0001
,
1000
0000
0001
0010
0000
0000
0100
0000
0010
0000
0000
0001
,
0000
0000
1000
0000
0000
0000
0000
0000
0000
0000
0000
0000
,
1001
0000
0000
1000
0000
0010
0000
0000
1001
0000
0000
0000
,
0000
0000
0000
0010
0000
0000
0100
0000
0000
1000
0000
0001
,
0100
0000
0000
0010
0000
1000
0100
0000
0000
1000
0000
0001
,
0000
0000
0100
0000
0000
0000
0000
0000
0000
0002
0000
0000
,
0000
0000
0000
1003
0000
0100
0000
0000
1001
0000
0000
0000
,
0000
0000
0000
0100
0000
0000
0010
0000
0000
0001
0000
1000
,
0010
0000
0000
0100
0000
0001
0010
0000
0000
0100
0000
0000
,
0000
0000
2200
0000
0000
0000
0000
0000
0000
3300
0000
0000
,
0000
0000
0202
0000
0000
0000
0000
0000
0000
0303
0000
0000
,
0010
0100
1000
0001
,
0010
0000
0000
0100
0000
0000
0000
0000
0000
1000
0000
0001
,
0000
0000
0000
0000
0100
0000
0001
0000
2000
0000
0000
0000
,
0000
0000
0000
3000
;

//---------------dance-single - ----------------
#NOTES:
     dance-single:
     :
     Hard:
     8:
     0.637,0.686,0.429,0.570,0.761: // measure 1
1000
0000
0000
0001
0000
0000
0100
0000
0010
0100
0000
0001
,  // measure 2
0000
0000
1000
0000
0000
1100
0000
0000
0202
0000
0000
0303
,  // measure 3
0000
0000
2002
0000
0000
3003
0000
0000
0000
1001
0000
0000
,  // measure 4
0000
0000
1000
0001
0000
0100
0000
0000
0110
0000
0000
0110
,  // measure 5
0000
0000
0000
0001
0000
2000
0000
0000
0000
3001
0000
0000
,  // measure 6
0010
0100
1000
0110
,  // measure 7
2002
0000
0000
0000
0000
0000
3003
0000
0000
0000
0000
0001
,  // measure 8
0100
0020
0000
1000
,  // measure 9
0000
0000
1000
0000
0000
0000
0030
0000
0000
0000
0000
1000
,  // measure 10
0010
0000
1000
0001
0000
0000
1000
0000
0100
0000
0000
1000
,  // measure 11
0000
0000
0001
0000
0000
0000
0000
0000
0000
1001
0000
0000
,  // measure 12
0010
0100
1000
0001
,  // measure 13
0100
0000
0001
0000
0000
1000
0001
0000
0000
1000
0000
0000
,  // measure 14
0100
0010
0001
1000
,  // measure 15
0010
0000
1000
0000
0000
0001
1000
0000
0000
0020
0000
0000
,  // measure 16
0000
1030
0100
0010
,  // measure 17
0001
0000
0200
0000
0000
0000
0000
0000
0000
0301
0000
0000
,  // measure 18
0100
0000
0000
0001
0000
1000
0100
0000
0000
1000
0000
0000
,  // measure 19
0001
0000
0100
0010
0000
0100
0010
0000
0000
1001
0000
0000
,  // measure 20
0100
0010
0001
1000
,  // measure 21
0100
0000
1000
0000
0000
0001
1000
0000
0000
0100
0000
0000
,  // measure 22
0010
0001
0100
0010
,  // measure 23
0100
0000
0001
0000
0000
1000
0100
0000
0000
2000
0000
0000
,  // measure 24
0000
3001
0010
0200
,  // measure 25
0000
0000
0000
0310
0000
0000
0001
0000
0000
1000
0000
0001
,  // measure 26
0100
0000
0001
0100
0000
0002
0000
0000
0000
1003
0000
0100
,  // measure 27
0000
0000
1100
0000
0000
1001
0000
0000
0000
1001
0000
0000
,  // measure 28
1002
0000
0000
0000
0000
0000
0103
0000
0110
0000
0000
0000
,  // measure 29
0200
0000
0300
0002
,  // measure 30
0000
0000
0000
1003
0000
0100
0000
0000
1000
0000
0000
0001
,  // measure 31
0100
0000
0001
0100
0000
0001
0000
0000
0000
1001
0000
0000
,  // measure 32
2001
0000
0000
0000
0000
0000
3010
0000
0110
0000
0000
0000
,  // measure 33
0020
0000
0030
2000
,  // measure 34
0000
3000
0001
0100
0000
0001
0000
0000
1000
0000
0000
0100
,  // measure 35
1000
0000
0100
1000
0000
0001
0000
0000
0000
1000
0000
0100
,  // measure 36
0010
0000
0001
0000
0000
0101
0000
0000
0110
0000
0000
0000
,  // measure 37
0001
0000
0010
0000
0000
0100
0000
1000
0000
0000
0000
0100
,  // measure 38
0000
0010
0000
0100
0000
1000
0001
0000
0100
0000
0000
0110
,  // measure 39
0000
0000
0220
0000
0000
0000
0000
0000
0000
0000
0000
0000
,  // measure 40
0330
0000
0000
1200
,  // measure 41
0000
0000
0000
1300
0000
0001
0000
0000
0202
0000
0000
0000
,  // measure 42
0303
0000
0000
1000
0000
0000
1000
0000
0000
0001
0000
0100
,  // measure 43
0001
0000
1000
0100
0000
1000
0100
0000
1000
0000
0000
0001
,  // measure 44
0000
0000
0100
0000
0000
0000
0000
0000
0000
0201
0000
0000
,  // measure 45
0000
0000
0000
0301
0000
1000
0000
0000
1001
0000
0000
0000
,  // measure 46
0000
0000
0000
0001
0000
0000
0001
0000
0000
1000
0000
0100
,  // measure 47
1000
0000
0001
0100
0000
0001
0100
0000
0010
0000
0000
1000
,  // measure 48
0000
0000
0200
0000
0000
0000
0000
0000
0000
0300
0000
0000
,  // measure 49
0101
0000
0000
1000
0000
0100
0000
0000
2000
0000
0000
0000
,  // measure 50
0000
0000
0000
3001
0000
0000
0001
0000
0000
1000
0000
0001
,  // measure 51
0100
0000
0010
0100
0000
0010
0100
0000
0001
0000
0000
1000
,  // measure 52
0000
0000
0100
0000
0000
0000
0000
0000
0000
1200
0000
0000
,  // measure 53
0000
0000
0000
1300
0000
0001
0000
0000
1001
0000
0000
0000
,  // measure 54
0000
0000
0000
1000
0000
0000
1000
0000
0000
0001
0000
1000
,  // measure 55
0100
0000
0010
0100
0000
0010
0100
0000
1000
0000
0000
0001
,  // measure 56
0000
0000
0200
0000
0000
0000
0000
0000
0000
0301
0000
0000
,  // measure 57
1001
0000
0000
0100
0000
1000
0010
0000
0000
0100
0000
0001
,  // measure 58
0000
0000
1001
0000
0000
0000
0000
0000
0000
1000
0000
0000
,  // measure 59
1000
0000
0000
0001
0000
0100
0010
0000
0000
1000
0000
0001
,  // measure 60
0000
0000
0200
0000
0000
0000
0000
0300
0000
0001
0000
0000
,  // measure 61
1001
0000
0000
1000
0000
0001
0100
0000
0000
0001
0000
1000
,  // measure 62
0100
0000
2000
0000
0000
0000
3000
0000
0000
0001
0000
0100
,  // measure 63
0001
0000
1000
0100
0000
1000
0001
0000
0200
0000
0000
0000
,  // measure 64
0001
0002
0003
0302
,  // measure 65
0023
0000
0000
0230
0000
0000
2300
0000
0000
3001
0000
0100
,  // measure 66
0001
0000
0000
1000
0000
0100
1000
0000
0000
0001
0000
0000
,  // measure 67
0100
0000
0002
0000
0000
0000
1003
0000
0000
0001
0000
0010
,  // measure 68
0001
0000
0000
1000
0000
0010
1000
0000
0000
0001
0000
0000
,  // measure 69
1000
0000
0020
0000
0000
0000
0130
0000
0000
0001
0000
1000
,  // measure 70
0100
0000
0000
1000
0000
0001
0010
0000
0000
0001
0000
0000
,  // measure 71
1000
0000
0200
0000
0000
0000
0310
0000
0000
0001
0000
1000
,  // measure 72
0010
0000
0100
0001
0000
1000
0100
0000
0010
0001
0000
0000
,  // measure 73
1000
0000
0200
0000
0000
0000
1300
0000
0000
0001
0000
0020
,  // measure 74
0000
0100
0130
1100
,  // measure 75
0000
0000
2002
0000
0000
0000
0000
0000
3003
0000
0000
0200
,  // measure 76
0000
0000
0000
0301
0000
1000
0010
0000
0100
0010
0000
0000
,  // measure 77
1000
0000
0002
0000
0000
0000
0003
0000
0000
0000
0000
0010
,  // measure 78
0000
0000
0001
0100
0000
0010
1000
0000
0000
0002
0000
0000
,  // measure 79
1000
0000
2000
0000
0000
0000
3003
0000
0000
0000
0000
1000
,  // measure 80
0000
0000
0001
0100
0000
0010
0100
0000
0000
1001
0000
0000
,  // measure 81
2002
0000
0000
3003
,  // measure 82
0001
0000
0100
0010
0000
1000
0000
0000
0010
0100
0000
0001
,  // measure 83
0100
0000
0001
0000
0000
0000
1001
0000
0000
2002
0000
0000
,  // measure 84
3003
0000
0000
1000
0000
1000
0000
0000
0001
0000
0000
0001
,  // measure 85
0000
0000
0100
0010
0000
1000
0100
0000
2200
0000
0000
3300
,  // measure 86
0000
0000
0022
0000
0000
0033
0000
0000
0010
0100
0000
0001
,  // measure 87
1000
0000
1001
0000
0000
0002
0000
0000
0000
0103
0000
0010
,  // measure 88
0000
0000
0000
1001
,  // measure 89
2002
0000
3003
0000
,  // measure 90
2100
0000
0000
0000
0000
3001
0000
0000
0101
0000
0000
0000
,  // measure 91
0000
0000
0000
1000
0000
0000
1000
0000
0000
1000
0000
0001
,  // measure 92
0100
0000
0010
0100
0000
0001
0100
0000
0010
0000
0000
1000
,  // measure 93
0000
0000
0200
0000
0000
0000
0300
0000
0000
0102
0000
0000
,  // measure 94
0000
0000
0000
1003
0000
0100
0000
0000
1100
0000
0000
0000
,  // measure 95
0000
0000
0000
0001
0000
0000
0001
0000
0000
0001
0000
1000
,  // measure 96
0010
0000
0100
0010
0000
1000
0010
0000
0100
0000
0000
0001
,  // measure 97
0000
0000
0020
0000
0000
0000
0000
0000
0000
0030
0000
0000
,  // measure 98
1001
0000
0000
0010
0000
0100
0000
0000
2001
0000
0000
0000
,  // measure 99
0000
0000
0000
3001
0000
0000
0001
0000
0000
0001
0000
1000
,  // measure 100
0100
0000
0010
0100
0000
1000
0100
0000
0010
0000
0000
0100
,  // measure 101
0000
0000
2000
0000
0000
0000
3000
0000
0000
0102
0000
0000
,  // measure 102
0000
0000
0000
1003
0000
0100
0000
0000
1100
0000
0000
0000
,  // measure 103
0000
0000
0000
0001
0000
0000
0001
0000
0000
0001
0000
1000
,  // measure 104
0100
0000
0010
0100
0000
1000
0100
0000
0000
0010
0000
0100
,  // measure 105
0000
0000
2002
0000
0000
3003
0000
0000
0001
1000
0000
0100
,  // measure 106
0000
0000
2002
0000
0000
3003
0000
0000
1000
0001
0000
0010
,  // measure 107
0100
0000
1000
0100
0000
0010
0001
0000
0100
0010
0000
1000
,  // measure 108
0001
0000
2000
0000
0000
0000
3000
0000
0000
1100
0000
1100
,  // measure 109
0000
0000
0000
0000
0010
0000
0002
0000
2000
0000
0000
0000
,  // measure 110
0000
0000
0000
3003
;

//---------------dance-single - ----------------
#NOTES:
     dance-single:
     :
     Beginner:
     2:
     0.115,0.170,0.086,0.000,0.000:
1000
0000
0000
0000
,
0000
0000
0000
0000
,
0000
0000
0000
0001
,
0000
0000
0000
0000
,
0000
0000
0000
1000
,
0000
0000
0000
1001
,
0000
0000
0000
0010
,
0000
0000
0000
0000
,
0000
0000
0000
0010
,
0000
0000
0000
0000
,
0000
0000
0000
0110
,
0000
0000
0000
0000
,
0000
0000
0000
0001
,
0000
0000
0000
0000
,
0000
0000
0000
1000
,
0000
0000
0000
0000
,
0000
0000
0000
0001
,
0000
0000
0000
0000
,
0000
0000
0000
1001
,
0000
0000
0000
0000
,
0000
0000
0000
0100
,
0000
0000
0000
0000
,
0000
0000
0000
0010
,
0000
0000
0000
0000
,
0000
0000
0000
0100
,
0000
0000
0000
0000
,
0000
0000
0000
1000
,
0000
0000
0000
0001
,
0000
0000
0000
1000
,
0000
0000
0000
1000
,
0000
0000
0000
0001
,
0000
0000
0000
0000
,
0000
0000
0000
0001
,
0000
0000
0000
0001
,
0000
0000
0000
1000
,
0000
0000
0000
0000
,
0000
0000
0000
0000
,
0000
0000
0000
0000
,
1001
0000
0000
0000
,
0000
0000
0001
0000
,
0000
1000
0000
0001
,
0000
0001
0000
0001
,
0000
0000
0000
0000
,
0000
0000
0000
1000
,
0000
0001
0000
1000
,
0000
1000
0000
1000
,
0000
0000
0000
0000
,
0000
0000
0000
0000
,
1001
0000
0000
0000
,
0000
0001
0000
1000
,
0000
0001
0000
0001
,
0000
0001
0000
1000
,
0000
0001
0000
1000
,
0000
0000
0000
0010
,
0000
0010
0000
0010
,
0000
0000
0000
0100
,
0000
0010
0000
0100
,
0000
0000
0000
0010
,
0000
0100
0000
0010
,
0000
0000
0000
1000
,
0000
0001
0000
1000
,
0000
0000
0000
0001
,
0000
1000
0000
0001
,
0000
0000
0000
0000
,
0000
0000
0000
1000
,
0000
0000
0000
0000
,
0000
0000
0000
0100
,
0000
0000
0000
0000
,
0000
0000
0000
0010
,
0000
0000
0000
0000
,
0000
0000
0000
0001
,
0000
0000
0000
0000
,
0000
0000
0000
1001
,
0000
0000
0000
0000
,
0000
0000
0000
0000
,
0001
0000
0000
0000
,
0000
0000
0000
0000
,
1000
0000
0000
0000
,
0000
0000
0000
0001
,
0000
0000
0000
0000
,
0000
0000
0000
0100
,
0000
0000
0000
0000
,
0000
0000
0000
0000
,
0000
0010
0000
0000
,
0000
0000
0000
0000
,
0000
0000
0000
0100
,
0000
0000
0000
0000
,
0000
0000
0000
0000
,
0000
0000
0000
0001
,
0000
0000
0000
0000
,
0000
0000
0000
1000
,
0000
0001
0000
1000
,
0000
1000
0000
0001
,
0000
0000
0000
0000
,
0000
1000
0000
0001
,
0000
1000
0000
1000
,
0000
0000
0000
0000
,
1001
0000
0000
0000
,
0000
0001
0000
1000
,
0000
0001
0000
0001
,
0000
1000
0000
0000
,
0000
0000
0000
0000
,
0000
0001
0000
1000
,
0000
0010
0000
0100
,
0000
1001
0000
0000
,
0000
1001
0000
0000
,
0000
0000
0000
0000
,
0000
0000
0000
1001
,
0000
0000
0000
1001
;
