#TITLE:Colorful Cookie;
#SUBTITLE:;
#ARTIST:Lucky Vacuum;
#TITLETRANSLIT:;
#SUBTITLETRANSLIT:;
#ARTISTTRANSLIT:;
#CREDIT:DigiMindAxel;
#BANNER:Colorful Cookie.png;
#BACKGROUND:Colorful Cookie-bg.png;
#LYRICSPATH:;
#CDTITLE:beatmaniaIIDX.png;
#MUSIC:Colorful Cookie.mp3;
#OFFSET:-11.080;
#SAMPLESTART:79.053;
#SAMPLELENGTH:12.000;
#SELECTABLE:YES;
#BPMS:0.000=180.000;
#STOPS:;
#BGCHANGES:-36.000=Colorful Cookie.AVI=1.000=1=1=0,
99999=-nosongbg-=1.000=0=0=0 // don't automatically add -songbackground-
;

//---------------dance-single - ----------------
#NOTES:
     dance-single:
     :
     Easy:
     4:
     0.270,0.376,0.138,0.095,0.000:
1000
0000
0001
0000
,
1000
0000
0001
0000
,
0100
0000
0010
0000
,
0100
0000
0010
0000
,
1000
0000
0100
0000
,
0010
0000
0001
0000
,
0010
0000
0100
0000
,
1000
0001
1000
0001
,
2000
0000
0000
3000
,
0001
1000
0000
0100
,
0000
0010
0000
0001
,
0000
0010
0000
0100
,
0000
1000
0001
1000
,
0001
1000
0000
0100
,
0000
0010
0000
0001
,
0000
0100
0000
0010
,
0110
0000
0000
0000
,
0001
0000
1000
0000
,
0001
0010
0100
1000
,
0001
0000
1000
0000
,
0001
1000
0010
0100
,
0001
0000
1000
0000
,
0001
0100
0010
1000
,
0010
0000
0100
0000
,
0010
1000
0100
0010
,
1001
0001
0001
0010
,
0100
1000
0001
0000
,
1000
1000
1000
0100
,
0010
0001
1000
0000
,
0001
0001
0001
0010
,
0100
1000
0001
0001
,
1001
0000
0110
0000
,
1001
0000
0000
0000
,
0100
0100
0200
0000
,
0000
0310
0020
0000
,
0000
1030
2000
0000
,
0000
3001
0002
0000
,
0000
0103
0200
0000
,
0000
0310
0020
0000
,
0000
1030
2000
0000
,
0000
3001
0002
0000
,
1003
0100
0010
0001
,
2000
0000
0000
0001
,
3001
0010
0100
1000
,
0002
0000
0000
1000
,
1003
0100
0010
0001
,
1001
0010
0100
1000
,
1001
0001
1001
1000
,
1001
0010
0100
1000
,
0001
0000
0000
0000
,
0000
0000
0000
0000
,
0100
0001
0010
0100
,
1000
1000
1000
0010
,
0100
0001
0010
0100
,
1000
0010
0100
0001
,
0001
0001
0010
0100
,
1001
0000
0000
0001
0000
0000
0000
0000
,
0010
0001
0010
0001
,
0010
0100
1000
0010
,
1001
0100
0010
0001
,
0100
0001
0100
0001
,
0010
0100
1000
0010
,
1000
0010
1000
0010
,
0100
0001
0010
0100
,
1001
0001
0010
0100
,
1001
1000
0110
0001
,
0110
0000
0000
0000
,
1001
0000
0000
0000
;

//---------------dance-single - ----------------
#NOTES:
     dance-single:
     :
     Hard:
     8:
     0.533,0.528,0.328,0.138,0.047: // measure 1
1100
0000
0001
0000
0100
0000
0001
1000
,  // measure 2
0000
0100
0000
0010
0000
0001
0100
1000
,  // measure 3
0100
0000
0001
0000
0100
0000
0001
1000
,  // measure 4
0000
0100
0000
1000
0000
0001
0100
1000
,  // measure 5
0100
0001
0100
0001
0100
0001
0100
0001
,  // measure 6
1000
0100
1000
0100
1000
0100
1000
0001
,  // measure 7
0010
0100
1000
0001
0010
0100
1000
0001
,  // measure 8
0101
0101
1100
1100
,  // measure 9
1002
1000
1000
1003
,  // measure 10
0100
0010
0001
0000
0010
0001
1000
0000
,  // measure 11
0100
1000
0010
0100
0010
0000
1010
0000
,  // measure 12
1000
0100
0010
0000
0100
1000
0001
0000
,  // measure 13
0010
0001
0100
0010
0100
0000
0101
0000
,  // measure 14
1100
0000
0100
0000
1000
0100
0001
0000
,  // measure 15
0100
1000
0001
0100
0001
0000
1001
0000
,  // measure 16
1000
0100
0001
0000
0100
1000
0001
0000
,  // measure 17
1002
1000
1000
1003
,  // measure 18
1100
0000
0100
0000
1100
0000
0001
0100
,  // measure 19
0000
1000
0000
0100
0001
0000
0100
0000
,  // measure 20
0101
0000
0100
0000
0101
0000
1000
0100
,  // measure 21
0000
0001
0000
0100
1000
0000
0001
0000
,  // measure 22
1001
0000
1000
0000
0100
1000
0100
0001
,  // measure 23
0000
0100
0000
1000
0010
0100
0001
1000
,  // measure 24
0100
0000
1100
0000
1001
0000
1000
0100
,  // measure 25
0000
0001
0100
1000
0001
0010
0001
0000
,  // measure 26
1001
0000
1100
0000
1100
0000
0001
0100
,  // measure 27
0000
1000
0000
0100
0000
0010
1000
0100
,  // measure 28
0010
0000
0001
0000
0011
0000
1000
0100
,  // measure 29
0000
0001
0000
0100
0000
0010
0001
0010
,  // measure 30
0100
0000
1000
0000
1001
0000
0001
1000
,  // measure 31
0100
0010
0001
1000
0000
0010
1000
0010
,  // measure 32
0110
0010
1001
0010
,  // measure 33
1001
2002
0000
0000
0000
0000
3003
0000
,  // measure 34
1000
0000
0100
0000
0020
0000
0000
0000
0100
0000
0000
0100
0000
0000
0130
0000
,  // measure 35
0000
0000
0001
0000
0010
0000
0000
0000
0200
0000
0000
0010
0000
0000
0310
0000
,  // measure 36
0000
0000
1000
0000
0100
0000
0000
0000
0020
0000
0000
0100
0000
0000
0130
0000
,  // measure 37
0000
0000
0001
0000
0010
0000
0000
0000
0200
0000
0000
0010
0000
0000
0310
0000
,  // measure 38
0000
0000
1000
0000
0010
0000
0000
0000
0200
0000
0000
0010
0000
0000
0310
0000
,  // measure 39
0000
0000
0001
0000
0100
0000
0000
0000
0020
0000
0000
0100
0000
0000
0130
0000
,  // measure 40
0000
0000
1000
0000
0010
0000
0000
0000
0200
0000
0000
0010
0000
0000
0310
0000
,  // measure 41
0000
0000
0001
0000
0100
0000
0000
0000
0020
0000
0000
0100
0000
0000
0130
0000
,  // measure 42
0001
0000
1001
0000
0101
0000
1000
0100
,  // measure 43
0000
0010
0000
0100
0000
1000
0100
0010
,  // measure 44
0001
0000
1001
0000
1010
0000
0001
0010
,  // measure 45
0000
0100
0000
0010
0000
0001
0010
0100
,  // measure 46
1000
0010
1000
0010
1000
0001
0100
0001
,  // measure 47
0100
0001
1000
0100
1000
0100
1000
0010
,  // measure 48
0100
0001
0100
1000
0100
0001
0010
1000
,  // measure 49
0010
0001
0010
0100
1000
0001
0010
0100
,  // measure 50
2000
0000
0000
0000
,  // measure 51
0000
0001
0001
3001
,  // measure 52
0001
0000
0100
0000
1000
0000
0100
0000
0001
0000
0000
0100
0000
0000
0010
0000
,  // measure 53
1000
0100
0010
0001
1000
0100
1000
0001
,  // measure 54
0000
1000
0100
0001
0100
1000
0001
0010
,  // measure 55
0100
0000
0010
0001
1000
0010
0000
0100
,  // measure 56
0001
1000
0100
0001
0100
1000
0001
0000
,  // measure 57
0101
0101
0000
1001
0000
0000
1100
0000
,  // measure 58
1001
0000
1000
0001
1000
0000
0010
0100
,  // measure 59
0001
0010
0100
1000
0001
0010
0001
1000
,  // measure 60
0000
0001
0100
1000
0100
0001
1000
0100
,  // measure 61
0010
0000
0000
0000
0100
0000
1000
0000
0010
0000
0000
0100
0000
0000
0010
0000
,  // measure 62
0000
1000
0100
1000
0001
0100
0001
0010
,  // measure 63
0100
0000
1000
0100
0000
0001
0100
1000
,  // measure 64
0001
0100
0010
0100
0001
0010
0001
0100
,  // measure 65
0010
0000
0000
1000
0000
0000
0001
0000
0000
0000
1000
0000
0100
0000
1000
0000
,  // measure 66
0001
0100
1000
0100
0000
0001
0010
0100
,  // measure 67
1100
2000
0000
0000
0001
0000
3001
0000
,  // measure 68
2002
0000
0000
0000
,  // measure 69
3003
0000
0000
0000
;

//---------------dance-single - ----------------
#NOTES:
     dance-single:
     :
     Medium:
     6:
     0.397,0.405,0.250,0.052,0.000:
1000
0100
0010
0001
,
0010
0100
1000
0001
,
1000
0100
0010
0001
,
0010
0100
1000
0001
,
1000
0001
0010
0100
,
1000
0100
0001
0100
,
1000
1000
0001
0001
,
0110
0110
0110
0110
,
2002
0000
0000
3003
,
1001
0100
0010
0100
,
1000
0010
0100
0000
0010
0100
0010
0000
,
1000
0001
0010
0100
,
1000
0000
0010
0000
0100
0001
1000
0000
,
1001
0010
0100
1000
,
0001
0100
0010
0000
0100
0010
0100
0000
,
0001
0010
0100
1000
,
0220
0000
0000
0330
,
1001
0000
0100
0000
0010
0000
0001
1000
,
0000
0001
0000
1000
0001
0000
1000
0000
,
0001
0000
0010
0000
0100
0000
1000
0001
,
0000
1000
0000
0001
1000
0000
0010
0000
,
0110
0000
1000
0000
0001
0000
0100
0001
,
0000
1000
0000
0100
1000
0000
1000
0000
,
0001
0000
0010
0000
0100
0000
1000
0010
,
0000
1000
0000
0001
0010
0000
0001
0000
,
1001
0000
0010
0000
0100
0000
1000
0100
,
0000
0010
0000
0100
0000
0000
1000
0000
,
1000
0000
0100
0000
0010
0000
0001
0010
,
0000
0100
0000
0010
0000
0000
0001
0000
,
0001
0000
0010
0000
0100
0000
1000
0010
,
0000
0100
0000
0010
0000
0000
1000
0000
,
1100
0100
0101
0100
,
2002
0000
0000
3003
,
0100
0010
0100
0000
0001
0000
0100
0000
,
1000
0001
1000
0000
0100
0000
0001
0000
,
0100
0010
0100
0000
0001
0000
0100
0000
,
1000
0001
1000
0000
0100
0000
0001
0000
,
0100
0010
0100
0000
0001
0000
0100
0000
,
1000
0001
1000
0000
0100
0000
0001
0000
,
0100
0010
0100
0000
0001
0000
0010
0000
,
1000
0001
1000
0000
0010
0000
0001
0000
,
0110
0000
1000
0000
1000
0000
0001
0100
,
0000
0001
0000
0001
0000
0000
1000
0000
,
1000
0000
0001
0000
0001
0000
1000
0010
,
0000
1000
0000
1000
0000
0000
0001
0000
,
1001
1000
1000
1000
,
1001
0010
0100
0100
,
1001
0010
1001
0100
,
1001
0000
0010
0000
0100
0010
0100
0010
,
0100
0000
0000
0000
,
0000
0000
0000
0000
,
1001
0000
0010
0100
0001
0000
0010
0000
,
0100
0000
1000
0100
0000
1000
0000
0001
,
0000
1000
0010
0100
0010
0000
1000
0000
,
0001
0000
0010
0001
0000
1000
0000
0001
,
0000
1000
0010
0100
0010
0000
0010
0000
,
1001
0000
0000
1001
0000
0000
1001
0000
,
1100
0000
0001
0000
0010
0000
0100
1000
,
0000
0100
0000
0010
0100
0000
1000
0000
,
1001
0000
0010
0100
0001
0000
1001
0000
,
0010
0000
0100
1000
0000
0010
0000
0100
,
0000
0001
0100
0010
0100
0000
1001
0000
,
1000
0000
0010
0100
0000
0001
0000
1000
,
0000
0001
0100
0001
0100
0001
0100
0001
,
1000
0000
0100
1000
0000
0010
0100
0010
,
1000
0100
0010
0001
0000
0010
0100
1000
,
0001
0001
0000
0000
0000
0000
0000
0000
,
1001
0000
0000
0000
;

//---------------dance-single - ----------------
#NOTES:
     dance-single:
     :
     Beginner:
     2:
     0.097,0.231,0.104,0.000,0.000:
1000
0000
0000
0000
,
0000
0000
0000
0000
,
0001
0000
0000
0000
,
0000
0000
0000
0000
,
1000
0000
0000
0000
,
0010
0000
0000
0000
,
0100
0000
0100
0000
,
0100
0000
0000
0000
,
0001
0000
0000
0000
,
1001
0000
0000
0000
,
0000
0000
0000
0000
,
1000
0000
0000
0000
,
0000
0000
0000
0000
,
1001
0000
0000
0000
,
0000
0000
0000
0000
,
0001
0000
0000
0000
,
0100
0000
0000
0000
,
1001
0000
0000
0000
,
0000
0000
0000
0000
,
0001
0000
0000
0000
,
0000
0000
0000
0000
,
0100
0000
0000
0000
,
0000
0000
0000
0000
,
0001
0000
0000
0000
,
0000
0000
0000
0000
,
1000
0000
0000
0000
,
0000
0000
0000
0000
,
0010
0000
0000
0000
,
0000
0000
0000
0000
,
1000
0000
0000
0000
,
0010
0000
0000
0000
,
0100
0000
0010
0000
,
0100
0000
0000
0000
,
1001
0000
0000
0000
,
0010
0000
0000
0000
,
0100
0000
0000
0000
,
1000
0000
0000
0000
,
0100
0000
0000
0000
,
0010
0000
0000
0000
,
0001
0000
0000
0000
,
0100
0000
0000
0000
,
1001
0000
0000
0000
,
0100
0000
0000
0000
,
0010
0000
0000
0000
,
0001
0000
0000
0000
,
0010
0000
0000
0000
,
0010
0000
0000
0000
,
0001
0000
0001
0000
,
0001
0000
0000
0000
,
1001
0000
0000
0000
,
0000
0000
0000
0000
,
1000
0000
1000
0000
,
1000
0000
0000
0000
,
0001
0000
0001
0000
,
0001
0000
0000
0000
,
1000
0000
1000
0000
,
1000
0000
0000
0000
,
0001
0000
0001
0000
,
0001
0000
0000
0000
,
0100
0000
0100
0000
,
0100
0000
0000
0000
,
0010
0000
0010
0000
,
0010
0000
0000
0000
,
1001
0000
0001
0000
,
1001
0000
0000
0000
,
1001
0000
0110
0000
,
1001
0000
0000
0000
,
1001
0000
0000
0000
;
