#TITLE:Cloudy Skies;
#SUBTITLE:;
#ARTIST:EGOISTIC LEMONTEA;
#TITLETRANSLIT:;
#SUBTITLETRANSLIT:;
#ARTISTTRANSLIT:;
#CREDIT:DigiMindAxel;
#BANNER:Cloudy Skies.png;
#BACKGROUND:Cloudy Skies-bg.png;
#LYRICSPATH:Cloudy Skies.lrc;
#CDTITLE:pop'n music.png;
#MUSIC:Cloudy Skies.mp3;
#OFFSET:-7.280;
#SAMPLESTART:66.803;
#SAMPLELENGTH:12.000;
#SELECTABLE:YES;
#BPMS:0.000=149.020;
#STOPS:;
#BGCHANGES:;

//---------------dance-single - ----------------
#NOTES:
     dance-single:
     :
     Hard:
     7:
     0.484,0.466,0.127,0.363,0.051: // measure 1
1000
0010
0100
0001
,  // measure 2
0010
0100
0010
0001
,  // measure 3
0100
0010
1000
0100
,  // measure 4
1100
0000
0000
0101
0000
0000
0001
0000
1000
0000
0000
0000
0000
0000
0000
0000
,  // measure 5
0010
0100
0010
1000
0100
0001
0100
1000
,  // measure 6
0020
0130
0200
0301
,  // measure 7
0100
0010
0100
0001
0010
1000
0010
0001
,  // measure 8
0200
0310
0020
1030
,  // measure 9
0010
0100
0010
1000
0100
0010
0001
0100
,  // measure 10
0020
1030
0200
0301
,  // measure 11
0100
0010
0100
0001
0000
0010
0100
1000
,  // measure 12
0002
0013
0200
1300
,  // measure 13
2002
0000
0000
0003
,  // measure 14
3020
0000
0000
0000
,  // measure 15
2030
0000
0000
0000
,  // measure 16
3002
0000
0023
0000
,  // measure 17
0032
0000
0000
0000
,  // measure 18
0203
0000
0000
0000
,  // measure 19
0320
0000
0000
0000
,  // measure 20
0130
0000
0000
0101
0000
0000
1000
0000
0001
0000
0000
0000
0000
0000
0000
0000
,  // measure 21
0100
0001
0010
0100
0010
0001
1000
0000
,  // measure 22
0010
1000
0100
0010
0100
1000
0001
0000
,  // measure 23
0100
0001
0100
1000
0100
0001
1000
0000
,  // measure 24
0100
1000
0100
0001
0100
1000
0001
0100
,  // measure 25
0010
0000
1000
0100
0010
0001
1000
0100
,  // measure 26
0000
0010
0100
1000
0001
0100
0001
0000
,  // measure 27
0201
0000
0310
0000
0020
0000
1030
0001
,  // measure 28
1000
0000
0000
0100
0000
0000
0001
0000
0100
0000
1000
0000
0001
0000
0100
0000
,  // measure 29
0000
0010
0100
0000
0001
1000
0100
0020
,  // measure 30
0000
0100
0130
0000
1000
0100
0010
0001
,  // measure 31
0000
0100
0010
0000
1000
0001
0010
0200
,  // measure 32
0000
0010
0310
0000
0001
0010
0100
1000
,  // measure 33
0000
0010
0100
0000
0001
1000
0100
0020
,  // measure 34
0000
0100
0130
0000
1000
0100
0010
0002
,  // measure 35
0000
0000
1003
0010
0100
0001
0010
0100
,  // measure 36
0010
0101
0001
1100
,  // measure 37
1001
0000
0000
1001
0000
0000
1000
0000
0001
0000
0000
0000
0000
0000
0000
0000
,  // measure 38
2000
0000
0000
0100
0000
0000
3100
0000
0020
0000
0000
0001
0000
0000
0031
0000
,  // measure 39
1000
0001
0100
1000
0100
0010
1000
0000
,  // measure 40
0002
0010
0013
0000
0200
1000
1300
0000
,  // measure 41
0010
0001
1000
0100
0001
0100
0010
0001
,  // measure 42
2000
0010
3010
0000
0200
0001
0301
0000
,  // measure 43
1000
0010
1000
0001
0010
0100
0001
0100
,  // measure 44
2000
0000
0000
0100
3100
0000
0010
0001
,  // measure 45
2000
0000
0000
0000
0000
0000
0010
0000
3010
0000
0000
0110
0000
0000
0001
1000
,  // measure 46
0002
0000
0000
0010
0000
0000
0013
0000
0200
0000
0000
1000
0000
0000
1300
0000
,  // measure 47
0001
1000
0100
0001
0100
0010
0001
0000
,  // measure 48
2000
0010
3010
0000
0200
0001
0301
0000
,  // measure 49
1000
0100
0001
0100
0010
0001
1000
0000
,  // measure 50
0201
0310
0120
1030
,  // measure 51
0010
1000
0001
0010
0100
1000
0001
0010
,  // measure 52
0200
0000
0000
0000
0000
0000
0010
0000
0310
0000
0000
0000
0001
0000
1000
0010
,  // measure 53
2000
0000
0000
0000
3001
0000
0000
0000
0010
0000
0000
0100
0000
0000
2000
0000
,  // measure 54
0000
0000
3001
0000
1000
0010
0100
0001
,  // measure 55
0200
1000
0001
1300
,  // measure 56
0001
0010
0100
1000
0100
0001
0100
0010
,  // measure 57
0001
1000
0010
0100
0010
1000
0001
0000
,  // measure 58
1000
0100
0010
0001
0010
1000
0010
0100
,  // measure 59
1000
0001
0100
0010
0100
0001
1000
0000
,  // measure 60
0010
0100
0010
1000
0100
0010
0001
1000
,  // measure 61
0100
0000
0001
0100
1000
0000
0100
0010
,  // measure 62
0001
1000
0001
0100
0000
1000
0100
0001
,  // measure 63
0101
0000
1000
1100
0000
0000
2002
0000
,  // measure 64
0000
0000
0000
0000
,  // measure 65
0000
0000
0000
0000
,  // measure 66
3003
0000
0000
0000
;

//---------------dance-single - ----------------
#NOTES:
     dance-single:
     :
     Medium:
     5:
     0.368,0.439,0.388,0.219,0.013: // measure 1
0002
0000
0000
0000
,  // measure 2
0203
0000
0302
0000
,  // measure 3
2003
0000
0000
0000
,  // measure 4
3010
0000
0000
0010
0000
0000
0010
0000
0100
0000
0000
0000
0000
0000
0000
0000
,  // measure 5
0101
0110
0101
0110
,  // measure 6
1000
0100
0010
0000
0100
0010
0001
0000
,  // measure 7
1010
0110
1010
0110
,  // measure 8
0001
0010
0100
0000
0010
0100
1000
0000
,  // measure 9
1100
0101
0110
1001
,  // measure 10
0100
0001
0010
0000
0100
1000
0010
0000
,  // measure 11
0101
0000
0000
1100
0000
0000
0010
0100
,  // measure 12
0002
0000
2003
3001
,  // measure 13
2002
0000
0000
3003
,  // measure 14
2000
0000
0000
0000
,  // measure 15
3002
0000
0000
0000
,  // measure 16
1003
0000
0000
0000
,  // measure 17
0002
0000
0000
0000
,  // measure 18
2003
0000
0000
0000
,  // measure 19
3001
0000
0000
0000
,  // measure 20
0100
0000
0000
0100
0000
0000
0100
0000
0010
0000
0000
0000
0000
0000
0000
0000
,  // measure 21
1000
0010
0100
0000
0001
0000
0100
0000
,  // measure 22
1000
0100
0001
0000
0100
0000
0010
0000
,  // measure 23
0100
0001
0010
0000
0100
0000
1000
0000
,  // measure 24
0001
0100
1000
0000
0100
0000
0001
0000
,  // measure 25
0100
0000
0110
0000
1000
0000
0000
1001
,  // measure 26
0000
0001
0010
0100
,  // measure 27
2100
0000
0000
0001
3001
0000
0100
0010
,  // measure 28
0100
0000
0001
0100
0001
0000
1000
0010
,  // measure 29
0000
0110
0000
0000
1010
0000
0000
0102
,  // measure 30
0000
1000
1000
1003
,  // measure 31
0000
0110
0000
0000
0101
0000
0000
2010
,  // measure 32
0000
0001
0001
3001
,  // measure 33
0000
0110
0000
0000
0011
0000
0000
2100
,  // measure 34
0000
0000
0001
0000
0001
0000
3001
0200
,  // measure 35
0000
0010
0310
1000
,  // measure 36
0001
0110
1000
0110
,  // measure 37
0001
0000
0000
0001
0000
0000
0001
0000
1000
0000
0000
0000
0000
0000
0000
0000
,  // measure 38
0100
0010
0001
0000
0100
0010
1000
0000
,  // measure 39
0200
0010
0010
0310
,  // measure 40
1001
0010
0100
1000
,  // measure 41
0100
0001
0100
1000
,  // measure 42
1001
0001
1000
0001
,  // measure 43
0100
0010
0100
0000
0001
1000
0001
0000
,  // measure 44
0200
0000
0000
0010
0310
0000
0000
1000
,  // measure 45
0002
0000
0000
1000
1003
0000
0001
0000
,  // measure 46
0010
0100
1000
0000
0010
0100
0001
0000
,  // measure 47
0020
0100
0100
0130
,  // measure 48
1001
0100
0010
0001
,  // measure 49
0100
1000
0100
0001
,  // measure 50
1001
1000
0001
1000
,  // measure 51
0010
0100
0010
0000
1000
0001
1000
0000
,  // measure 52
0020
0000
0000
0100
0130
0000
0000
0001
,  // measure 53
1000
0000
0100
0000
0020
0000
0000
0200
,  // measure 54
0000
0000
0000
0000
,  // measure 55
0330
0000
0000
0000
,  // measure 56
1100
0101
0110
1010
,  // measure 57
0001
0010
0100
0000
0010
0100
1000
0000
,  // measure 58
0101
1100
0110
1010
,  // measure 59
0001
0010
0100
0000
1000
0100
0010
0000
,  // measure 60
0001
0100
0010
0000
0100
0010
0100
0000
,  // measure 61
0001
0010
0100
0000
0010
0100
1000
0000
,  // measure 62
0110
0000
0000
1001
0000
0000
0000
0000
,  // measure 63
1100
0000
0000
0101
0000
0000
2002
0000
,  // measure 64
0000
0000
0000
0000
,  // measure 65
0000
0000
0000
0000
,  // measure 66
3003
0000
0000
0000
;

//---------------dance-single - ----------------
#NOTES:
     dance-single:
     :
     Easy:
     2:
     0.182,0.219,0.127,0.143,0.000: // measure 1
2000
0000
0000
0000
,  // measure 2
3002
0000
0000
0000
,  // measure 3
2003
0000
0000
0000
,  // measure 4
3001
0000
0000
0000
,  // measure 5
1001
0000
1000
0000
,  // measure 6
1000
0000
0000
0000
,  // measure 7
0001
0000
1000
0000
,  // measure 8
0001
0000
0000
0000
,  // measure 9
1001
0000
0001
0000
,  // measure 10
0001
0000
1000
0000
,  // measure 11
0010
0000
0010
0000
,  // measure 12
0020
0000
0230
0000
,  // measure 13
0310
0000
0000
0000
,  // measure 14
0000
0000
0000
0000
,  // measure 15
0010
0000
0000
0000
,  // measure 16
0000
0000
0000
0000
,  // measure 17
0010
0000
0000
0000
,  // measure 18
0010
0000
0000
0000
,  // measure 19
0010
0000
0000
0000
,  // measure 20
0110
0000
0000
0000
,  // measure 21
1000
0000
0000
0000
,  // measure 22
0001
0000
0000
0000
,  // measure 23
1000
0000
0000
0000
,  // measure 24
0100
0000
0000
0000
,  // measure 25
0010
0000
0000
0000
,  // measure 26
0001
0000
0000
0000
,  // measure 27
1000
0000
0001
0000
,  // measure 28
1000
0000
0000
0000
,  // measure 29
0000
1001
0000
0000
0001
0000
0000
2000
,  // measure 30
0000
0000
0000
3000
,  // measure 31
0000
1001
0000
0000
1000
0000
0000
0002
,  // measure 32
0000
0000
0000
0003
,  // measure 33
0000
1001
0000
0000
0001
0000
0000
2000
,  // measure 34
0000
0000
0000
0000
3000
0000
0000
1001
,  // measure 35
0000
0000
0000
0000
,  // measure 36
2000
0000
3002
0000
,  // measure 37
0103
0000
0110
0000
,  // measure 38
0100
0010
0100
0000
,  // measure 39
0001
1000
0100
0010
,  // measure 40
0001
1000
0001
0000
,  // measure 41
0100
0001
0010
0100
,  // measure 42
1000
0000
0001
0000
,  // measure 43
1000
0000
0010
0000
,  // measure 44
0200
0000
0310
0000
,  // measure 45
0020
0000
0130
0000
,  // measure 46
1001
0000
1000
0000
,  // measure 47
0010
1000
0100
0010
,  // measure 48
0001
1000
0001
0000
,  // measure 49
0100
0010
0100
0000
,  // measure 50
1001
0000
0001
0000
,  // measure 51
0100
0001
0010
0100
,  // measure 52
1000
0001
1000
0000
,  // measure 53
0020
0000
0000
0000
0130
0000
0000
0100
,  // measure 54
0000
0110
0000
0000
,  // measure 55
2002
0000
0000
3003
,  // measure 56
1000
0001
1000
0000
,  // measure 57
0100
1000
0100
0000
,  // measure 58
0010
0001
0010
0000
,  // measure 59
0001
1000
0001
1000
,  // measure 60
0010
1000
0010
0000
,  // measure 61
0100
0001
0100
0000
,  // measure 62
0010
0000
0000
0010
0000
0000
0000
0000
,  // measure 63
1001
0000
0000
1001
0000
0000
2002
0000
,  // measure 64
0000
0000
0000
0000
,  // measure 65
0000
0000
0000
0000
,  // measure 66
3003
0000
0000
0000
;

//---------------dance-single - ----------------
#NOTES:
     dance-single:
     :
     Beginner:
     1:
     0.084,0.132,0.101,0.000,0.000: // measure 1
1000
0000
0000
0000
,  // measure 2
1000
0000
0000
0000
,  // measure 3
1000
0000
0000
0000
,  // measure 4
1001
0000
0000
0000
,  // measure 5
0001
0000
0000
0000
,  // measure 6
0000
0000
0000
0000
,  // measure 7
1000
0000
0000
0000
,  // measure 8
0000
0000
0000
0000
,  // measure 9
0001
0000
0000
0000
,  // measure 10
0100
0000
0010
0000
,  // measure 11
0100
0000
0000
0000
,  // measure 12
0100
0000
0000
0000
,  // measure 13
1001
0000
0000
0000
,  // measure 14
0000
0000
0000
0000
,  // measure 15
0000
0000
0000
0000
,  // measure 16
0000
0000
0000
0000
,  // measure 17
0001
0000
0000
0000
,  // measure 18
0000
0000
0000
0000
,  // measure 19
0000
0000
0000
0000
,  // measure 20
1001
0000
0000
0000
,  // measure 21
1000
0000
0000
0000
,  // measure 22
0001
0000
0000
0000
,  // measure 23
1000
0000
0000
0000
,  // measure 24
0000
0000
0000
0000
,  // measure 25
1000
0000
0000
0000
,  // measure 26
0001
0000
0000
0000
,  // measure 27
1000
0000
0000
0000
,  // measure 28
1000
0000
0000
0000
,  // measure 29
0000
1001
0000
0000
0000
0000
0000
0000
,  // measure 30
0000
0000
0000
0000
,  // measure 31
0000
1001
0000
0000
0000
0000
0000
0000
,  // measure 32
0000
0000
0000
0000
,  // measure 33
0000
0110
0000
0000
0000
0000
0000
0000
,  // measure 34
0000
0000
0000
0000
0000
0000
0000
0110
,  // measure 35
0000
0000
0000
0000
,  // measure 36
0001
0000
0000
0000
,  // measure 37
1001
0000
0000
0000
,  // measure 38
1000
0000
1000
0000
,  // measure 39
1000
0000
0000
0000
,  // measure 40
0001
0000
0001
0000
,  // measure 41
0001
0000
0000
0000
,  // measure 42
1000
0000
0000
0000
,  // measure 43
0001
0000
0000
0000
,  // measure 44
1000
0000
0000
0000
,  // measure 45
1000
0000
0000
0000
,  // measure 46
1001
0000
0001
0000
,  // measure 47
0001
0000
0000
0000
,  // measure 48
1000
0000
1000
0000
,  // measure 49
1000
0000
0000
0000
,  // measure 50
1001
0000
0001
0000
,  // measure 51
1000
0000
0000
0000
,  // measure 52
0010
0000
0000
0000
,  // measure 53
0010
0000
0000
0000
,  // measure 54
0000
1001
0000
0000
,  // measure 55
0000
0000
0000
0000
,  // measure 56
0001
0000
0000
0000
,  // measure 57
1000
0000
0000
0000
,  // measure 58
0001
0000
0000
0000
,  // measure 59
0100
0000
0000
0000
,  // measure 60
0010
0000
0000
0000
,  // measure 61
0100
0000
0000
0000
,  // measure 62
0100
0000
0000
0000
,  // measure 63
0100
0000
0000
1001
;
