#TITLE:Cheetah Girl;
#SUBTITLE:;
#ARTIST:Aliced Twilightz;
#TITLETRANSLIT:;
#SUBTITLETRANSLIT:;
#ARTISTTRANSLIT:;
#CREDIT:DigiMindAxel;
#BANNER:Cheetah Girl.png;
#BACKGROUND:Cheetah Girl-bg.png;
#LYRICSPATH:Cheetah Girl.lrc;
#CDTITLE:DMAxel original simfile.png;
#MUSIC:Cheetah Girl.mp3;
#OFFSET:-7.520;
#SAMPLESTART:22.480;
#SAMPLELENGTH:12.000;
#SELECTABLE:YES;
#BPMS:0.000=128.000;
#STOPS:;
#BGCHANGES:;

//---------------dance-single - ----------------
#NOTES:
     dance-single:
     :
     Easy:
     2:
     0.215,0.230,0.050,0.079,0.000: // measure 1
1001
0000
0010
0000
,  // measure 2
0100
0000
0010
0000
,  // measure 3
1000
0000
0000
0000
0001
0000
0000
2000
,  // measure 4
0000
0000
0000
3000
,  // measure 5
0001
1000
0001
0000
,  // measure 6
0100
0000
0100
0010
,  // measure 7
0100
0001
0100
0000
,  // measure 8
0001
0000
1000
0001
,  // measure 9
1000
0010
0100
0000
,  // measure 10
0100
0000
0010
0100
,  // measure 11
0010
1000
0010
0000
,  // measure 12
1000
0000
0001
1000
,  // measure 13
0001
0010
0100
1000
,  // measure 14
0010
0000
0100
0010
,  // measure 15
0100
0001
0010
0100
,  // measure 16
1000
0000
0010
0100
,  // measure 17
0010
1000
0100
0010
,  // measure 18
0001
0000
1000
0100
,  // measure 19
1000
0001
0100
1000
,  // measure 20
0110
0000
0010
0010
,  // measure 21
0110
0000
1000
0100
,  // measure 22
2000
0001
3001
0000
,  // measure 23
0000
0000
0001
0010
,  // measure 24
0002
1000
1003
0000
,  // measure 25
1001
0000
0010
0100
,  // measure 26
1000
0001
1000
0100
,  // measure 27
0010
0001
1000
0001
,  // measure 28
0200
0000
0310
0000
,  // measure 29
0020
0000
0000
0000
,  // measure 30
0130
0001
0010
0000
,  // measure 31
0100
0000
1000
0100
,  // measure 32
0001
0100
1000
0100
,  // measure 33
0010
0000
0001
0100
,  // measure 34
1000
0100
0001
0010
,  // measure 35
0100
0000
1000
0001
,  // measure 36
1000
0100
0001
0100
,  // measure 37
1000
0000
0010
0100
,  // measure 38
0010
1000
0100
0001
,  // measure 39
0100
0000
1000
0001
,  // measure 40
1000
0100
0001
0100
,  // measure 41
1000
0000
0010
0100
,  // measure 42
0001
0010
0100
1000
,  // measure 43
0001
0000
1000
0001
,  // measure 44
1000
0100
0010
0001
,  // measure 45
0200
0000
0000
0000
,  // measure 46
0310
0000
2002
0000
,  // measure 47
0000
0000
0000
3003
0000
0000
0000
0000
;

//---------------dance-single - ----------------
#NOTES:
     dance-single:
     :
     Medium:
     5:
     0.347,0.322,0.149,0.069,0.000: // measure 1
0002
0000
0000
0103
0000
0000
0010
0100
,  // measure 2
0000
0000
0000
0001
0100
0000
0010
0000
,  // measure 3
2000
0000
0000
3010
0000
0000
0100
0020
,  // measure 4
0000
0100
0100
0130
,  // measure 5
0101
0000
1000
0000
0100
0000
0000
0001
,  // measure 6
0100
0000
0000
1000
0001
1000
0001
0000
,  // measure 7
1000
0000
0100
0000
0001
0000
0100
1000
,  // measure 8
0010
0000
0000
1000
0001
1000
0001
0000
,  // measure 9
1100
0000
0001
0000
0100
0000
0000
1000
,  // measure 10
0100
0000
0000
0001
1000
0001
1000
0000
,  // measure 11
0001
0000
0100
0000
1000
0000
0100
0001
,  // measure 12
0010
0000
0000
0001
1000
0000
1001
0000
,  // measure 13
0110
0000
0001
0000
1000
0000
0010
0100
,  // measure 14
0010
0100
0010
0000
1001
0000
0010
0000
,  // measure 15
0100
0000
1000
0000
0001
1000
0001
1000
,  // measure 16
0001
0100
0110
1001
,  // measure 17
0110
0000
0001
0000
1000
0000
0010
0100
,  // measure 18
0010
0100
0010
0000
1001
0000
0100
0000
,  // measure 19
0010
0000
0001
0000
1000
0001
1000
0001
,  // measure 20
2000
0000
0100
3100
,  // measure 21
0011
0000
0000
0100
1000
0100
1000
0100
,  // measure 22
0010
0001
1000
0001
,  // measure 23
1000
0001
0000
0010
0001
0010
0001
0010
,  // measure 24
0100
1000
0001
1000
,  // measure 25
1001
0000
0000
0010
1000
0010
1000
0010
,  // measure 26
0100
0000
0000
0001
0100
0001
0100
0001
,  // measure 27
0000
1000
0000
0100
0000
0001
0000
0100
,  // measure 28
0000
1000
0100
0010
0001
0000
0000
0000
,  // measure 29
2000
0100
0100
3100
,  // measure 30
1001
0000
0100
0000
0010
0000
0001
0100
,  // measure 31
1000
0000
0100
0000
0001
1000
0001
1000
,  // measure 32
0001
0000
0100
0000
0010
1000
0010
1000
,  // measure 33
0001
1000
0100
0001
,  // measure 34
0110
0000
1000
0000
0100
0000
0001
0100
,  // measure 35
1000
0000
0010
0000
0100
0010
0100
0010
,  // measure 36
0100
0000
0001
0000
1000
0010
1000
0010
,  // measure 37
0100
0000
0001
0000
1000
0100
1000
0000
,  // measure 38
1001
0000
0010
0000
0100
0000
1000
0100
,  // measure 39
0001
0000
0100
0000
1000
0001
1000
0001
,  // measure 40
1000
0000
0010
0000
0100
0001
0100
0001
,  // measure 41
1000
0000
0001
0000
0100
0010
0100
0000
,  // measure 42
1001
0000
0100
0000
0010
0000
0001
0100
,  // measure 43
1000
0000
0100
0000
0001
1000
0001
1000
,  // measure 44
0001
0000
0100
0000
0010
1000
0010
1000
,  // measure 45
0002
0000
0000
0003
,  // measure 46
1000
0100
0010
0001
2000
0000
0000
0000
,  // measure 47
0000
0000
0000
3000
0000
0000
0000
0000
;

//---------------dance-single - ----------------
#NOTES:
     dance-single:
     :
     Hard:
     7:
     0.483,0.414,0.179,0.258,0.139: // measure 1
1002
0000
0000
0103
0000
0010
1000
0100
,  // measure 2
0000
0000
0000
0001
0100
1000
0100
0010
,  // measure 3
0002
0000
0000
0103
0000
0010
1000
0200
,  // measure 4
0000
0010
0310
0001
0010
0100
1000
0000
,  // measure 5
1001
0000
0000
1000
0000
0000
0002
0000
0000
0000
0000
0000
0000
0000
0100
0000
,  // measure 6
0103
0000
0000
0010
0100
0010
1000
0001
,  // measure 7
0100
0000
0000
0001
0000
0000
0100
0000
0000
0000
1000
0000
0100
0000
0001
0000
,  // measure 8
1000
0000
0000
0001
0100
0100
0010
0010
,  // measure 9
1001
0000
0000
0001
0000
0000
2000
0000
0000
0000
0000
0000
0000
0000
0010
0000
,  // measure 10
3010
0000
0000
0010
0100
0010
1000
0100
,  // measure 11
0010
0000
0000
0001
0000
0000
0010
0000
0000
0000
1000
0000
0010
0000
0001
0000
,  // measure 12
0100
0010
0100
0000
0001
0001
1000
1000
,  // measure 13
0120
0230
0302
2003
,  // measure 14
3001
0010
0100
0001
0100
1000
0001
0001
,  // measure 15
0200
0320
0230
0302
,  // measure 16
1003
0100
0010
1000
0010
0001
1000
1000
,  // measure 17
0120
0230
0302
2003
,  // measure 18
3001
0100
1000
0100
0010
1000
0001
0001
,  // measure 19
0200
0000
0320
0000
2030
0000
3001
0001
,  // measure 20
0110
1000
0001
0000
1000
1000
0001
0001
,  // measure 21
0110
0000
0000
0000
1000
0000
0001
0100
0001
0000
0010
0000
0100
0000
1000
0000
,  // measure 22
0002
0000
0000
0100
0000
0000
0103
0000
0000
0000
0010
0000
1000
0000
1000
0000
,  // measure 23
0001
0000
0010
0000
0001
0000
1000
0010
1000
0000
0100
0000
0010
0000
0001
0000
,  // measure 24
2000
0000
0000
0010
0000
0000
3010
0000
0000
0000
0100
0000
0001
0000
0001
0000
,  // measure 25
0110
0000
0000
0000
1000
0000
0001
0100
0001
0000
0010
0000
0100
0000
1000
0000
,  // measure 26
0001
0000
0000
0000
0001
0000
1000
0010
1000
0000
0100
0000
0010
0000
0001
0000
,  // measure 27
0000
1000
0000
1100
0000
0001
0000
0102
,  // measure 28
0000
1000
1003
0100
0010
0001
1000
0000
,  // measure 29
0001
0001
1000
1000
0100
0010
0001
1000
,  // measure 30
1010
0000
0000
1010
0000
0000
0010
0000
0100
0000
0000
0010
1000
0000
0100
0000
,  // measure 31
0010
0000
0001
0100
1000
0100
0010
1000
,  // measure 32
0001
0000
0000
0101
0000
0000
0100
0000
0010
0000
0000
0100
0001
0000
0010
0000
,  // measure 33
0100
0000
1000
0100
0001
0100
0010
0001
,  // measure 34
1001
0000
0000
0101
0000
0000
0100
0000
0010
0000
0000
0100
0001
0000
0010
0000
,  // measure 35
0100
0000
1000
0100
0001
0100
0010
0001
,  // measure 36
1000
0000
0000
1010
0000
0000
0010
0000
0100
0000
0000
0010
1000
0000
0100
0000
,  // measure 37
0010
0000
0001
0100
1000
0100
0010
1000
,  // measure 38
1001
0000
0000
0001
1000
0000
0100
0000
1000
0000
0000
0001
1000
0000
0100
0000
,  // measure 39
0010
0000
0001
0010
0100
0001
0100
1000
,  // measure 40
0001
0000
0000
1000
0001
0000
0010
0000
0001
0000
0000
1000
0001
0000
0010
0000
,  // measure 41
0100
0000
1000
0100
0010
1000
0010
0001
,  // measure 42
1001
0000
0000
0001
1000
0000
0100
0000
1000
0000
0000
0001
1000
0000
0100
0000
,  // measure 43
0010
0000
0001
0100
1000
0100
0010
1000
,  // measure 44
0001
0000
0000
1000
0001
0000
0010
0000
0001
0000
0000
1000
0001
0000
0010
0000
,  // measure 45
0200
0000
1000
0310
,  // measure 46
0001
0000
0010
0000
0100
1000
0100
0000
2000
0000
0000
0001
0000
0000
0002
0000
,  // measure 47
0000
0000
0000
3003
0000
0000
0000
0000
;

//---------------dance-single - ----------------
#NOTES:
     dance-single:
     :
     Beginner:
     1:
     0.064,0.090,0.030,0.000,0.000: // measure 1
1000
0000
0000
0000
,  // measure 2
0001
0000
0000
0000
,  // measure 3
1000
0000
0000
0000
0000
0000
0000
1000
,  // measure 4
0000
0000
0000
0000
,  // measure 5
1001
0000
0000
0000
,  // measure 6
0000
0000
0000
0000
,  // measure 7
1000
0000
0000
0000
,  // measure 8
0000
0000
0000
0000
,  // measure 9
0001
0000
0000
0000
,  // measure 10
0000
0000
0000
0000
,  // measure 11
1000
0000
0000
0000
,  // measure 12
0010
0000
0000
0000
,  // measure 13
0100
0000
0000
0000
,  // measure 14
0001
0000
0000
0000
,  // measure 15
0100
0000
0000
0000
,  // measure 16
0000
0000
0000
0000
,  // measure 17
0010
0000
0000
0000
,  // measure 18
1000
0000
0000
0000
,  // measure 19
0010
0000
0000
0000
,  // measure 20
1001
0000
0000
0000
,  // measure 21
1000
0000
0000
0000
,  // measure 22
1000
0000
0000
0000
,  // measure 23
0001
0000
0000
0000
,  // measure 24
0001
0000
0000
0000
,  // measure 25
1000
0000
0000
0000
,  // measure 26
1000
0000
0000
0000
,  // measure 27
0001
0000
0000
0000
,  // measure 28
0001
0000
0000
0000
,  // measure 29
0000
0000
0000
0000
,  // measure 30
1001
0000
0000
0000
,  // measure 31
0100
0000
0000
0000
,  // measure 32
1000
0000
0000
0000
,  // measure 33
0100
0000
0000
0000
,  // measure 34
0010
0000
0000
0000
,  // measure 35
0001
0000
0000
0000
,  // measure 36
0010
0000
0000
0000
,  // measure 37
0001
0000
0000
0000
,  // measure 38
1000
0000
0000
0000
,  // measure 39
0001
0000
0000
0000
,  // measure 40
1000
0000
0000
0000
,  // measure 41
0001
0000
0000
0000
,  // measure 42
1000
0000
0000
0000
,  // measure 43
0010
0000
0000
0000
,  // measure 44
0100
0000
0000
0000
,  // measure 45
0001
0000
0000
0000
,  // measure 46
0001
0000
1000
0000
;
