#TITLE:Chat! Chat! Chat!;
#SUBTITLE:;
#ARTIST:sampling masters MEGA;
#TITLETRANSLIT:;
#SUBTITLETRANSLIT:;
#ARTISTTRANSLIT:;
#CREDIT:DigiMindAxel;
#BANNER:Chat! Chat! Chat!.png;
#BACKGROUND:Chat! Chat! Chat!-bg.png;
#LYRICSPATH:Chat! Chat! Chat!.lrc;
#CDTITLE:pop'n music.png;
#MUSIC:Chat! Chat! Chat!.mp3;
#OFFSET:-6.100;
#SAMPLESTART:11.714;
#SAMPLELENGTH:12.000;
#SELECTABLE:YES;
#BPMS:0.000=170.000;
#STOPS:46.000=0.353
,161.000=0.353
;
#BGCHANGES:;

//---------------dance-single - ----------------
#NOTES:
     dance-single:
     :
     Easy:
     3:
     0.226,0.249,0.101,0.086,0.000:
0000
1001
0000
0001
,
0000
1000
0000
0001
,
0100
0000
0000
0100
0000
0000
0000
0100
,
0000
1001
0000
0000
,
0100
0000
0100
0000
,
0010
0100
0010
0000
,
0100
0000
0100
0000
,
0010
0100
0010
0000
,
1000
0000
1000
0000
,
0001
1000
0001
0000
,
0100
0000
0100
0000
,
0010
0100
0010
1000
,
0000
1000
0000
0100
,
1000
0100
0000
0010
,
0000
0010
0000
0001
,
0010
0001
0000
0010
,
0000
0010
0000
0100
,
0010
0100
0000
0010
,
0000
0010
0000
0100
,
1000
0100
0010
0002
,
0000
0000
0000
0003
,
0000
0000
0000
2000
,
0000
0000
0000
3000
,
0000
0000
0000
1001
,
0000
0000
0110
0000
,
0000
0010
0100
0020
,
0000
0000
0000
0030
,
0000
0000
0000
0200
,
0000
0000
0000
0300
,
0000
0000
0000
0110
,
0000
0000
1001
0000
,
0000
1000
0001
1000
,
0000
0000
0000
0010
,
0000
0010
0000
0100
,
0010
0100
0000
0001
,
0000
0001
0000
0010
,
0001
0010
0000
0100
,
0000
0100
0000
1000
,
0100
1000
0000
0010
,
0000
0010
0000
0100
,
0010
0100
0001
0000
,
0001
0000
1000
0001
,
1000
0000
0100
0000
,
0100
0000
0010
0100
,
0010
0000
0001
0000
,
0001
0000
0100
0001
,
0100
0000
0010
0000
,
0010
0000
1000
0010
,
0100
0001
2000
0000
,
0000
0000
3000
0000
,
0000
0000
0002
0000
,
0000
0000
0003
0000
,
0000
0000
1001
0000
,
0000
0110
0000
0000
,
0010
0100
0020
0000
,
0000
0000
0030
0000
,
0000
0000
0200
0000
,
0000
0000
0300
0000
,
0000
0000
0110
0000
,
0000
1001
0000
0000
,
0001
1000
0001
0000
,
0000
0000
0010
0100
,
0010
0100
0010
0100
,
0010
0000
0001
1000
,
0001
1000
0001
1000
,
0001
0000
0100
0010
,
0100
0010
0100
0010
,
0100
0010
0200
0000
,
0300
0000
0000
0110
0000
0000
0000
1001
,
0000
0000
1000
0001
,
1000
0001
1000
0001
,
1000
0000
0100
0010
,
0100
0010
0100
0010
,
0100
0000
1000
0001
,
1000
0001
1000
0001
,
1000
0100
0010
0000
,
0001
1000
0100
0000
,
2000
0000
3001
0000
,
1000
0100
1000
0010
,
0100
0001
0010
0000
,
0001
0010
0001
0100
,
0010
1000
0100
0000
,
1000
0001
1000
0100
,
0010
0000
0001
0000
1000
0000
0000
0001
,
0000
1000
0000
2002
0000
0000
0000
0000
,
0000
0000
0000
0000
,
3003
0000
1001
0000
;

//---------------dance-single - ----------------
#NOTES:
     dance-single:
     :
     Medium:
     6:
     0.405,0.404,0.137,0.058,0.000:
0000
0000
1001
0000
1000
0000
0010
0100
,
0000
0001
0010
1000
,
0010
0000
0001
1000
0000
0000
0000
1001
,
0000
1000
0002
0000
0000
0000
0003
0000
,
0100
0000
0100
0000
0001
0100
0001
0000
,
0100
1000
0100
0001
,
0010
0000
0010
0000
0100
0010
0100
0000
,
1000
0010
0001
0010
,
1000
0000
1000
0000
0100
0010
0100
0000
,
1000
0010
0001
0010
,
1000
0000
1000
0000
0010
0100
0010
0000
,
1000
0010
0100
0000
1001
0000
0001
0000
,
0001
0000
1000
0010
1000
0000
0001
0000
,
0100
0000
1000
0000
0100
0000
0001
1000
,
0001
0000
0100
0010
0100
0000
0001
0000
,
1000
0000
0001
0001
1000
0000
0010
0000
,
0010
0000
1000
0010
1000
0000
0001
0000
,
0100
0000
1000
0000
0100
0000
0001
1000
,
0001
0000
0100
0010
0100
0001
0000
0000
,
1000
0100
0001
0100
,
1000
0001
0000
0001
1000
0000
0010
0100
,
0000
0100
0010
0000
0000
0000
1000
0000
,
0001
1000
0000
1000
0001
0000
0100
0010
,
0000
0010
0100
0000
0000
0000
0001
0010
,
0100
0000
0000
0000
1000
0010
0100
0000
,
0000
0110
0110
1001
,
1000
0001
0000
0001
1000
0000
0100
0010
,
0000
0010
0100
0000
0000
0000
1001
0000
,
0001
1000
0000
1000
0001
0000
0010
0100
,
0000
0100
0010
0000
0000
0000
0001
0100
,
0010
0000
0000
0000
1000
0100
0010
0000
,
0000
1001
1001
0000
,
0000
0000
0000
0001
,
0001
0000
0100
0010
0100
0000
0001
0000
,
0010
0000
1000
0000
0010
0000
0001
1000
,
0010
0000
0100
0010
0100
0000
0001
0000
,
1000
1000
0001
0000
0000
0000
1000
0000
,
1000
0000
0010
0100
0010
0000
1000
0000
,
0100
0000
0001
0000
0100
0000
1000
0001
,
0010
0000
0100
0010
0100
0000
1000
0000
,
1001
0000
0001
0000
1000
0000
0000
0100
,
1000
0100
0000
1000
0001
1000
0000
0001
,
0100
0000
0010
0000
0100
0000
0000
0001
,
0010
0001
0000
1000
0001
0100
0001
0000
,
1000
0000
1100
0000
1000
0100
1000
0000
,
0010
0100
0010
0000
1000
0100
0010
0000
,
0001
1000
0001
0000
0100
0000
1000
0000
,
0100
0000
0001
1000
0000
0000
0100
0000
,
0010
0000
0001
0000
1000
0100
0010
0002
,
0000
0000
0000
0000
,
0003
0000
1000
0000
0001
0010
0100
2000
,
0000
0000
0000
0000
,
3000
0000
0000
0000
0010
0100
0001
1000
,
0000
0000
0010
0100
0001
1000
0000
0000
,
0100
0000
0010
0000
0001
0100
0010
2000
,
0000
0001
0000
0000
0000
0001
0000
3001
,
0000
0000
1000
0000
0001
0100
0010
2000
,
0000
0001
0000
0000
0000
0001
0000
3001
,
0000
0000
1000
0000
0100
0010
0001
1000
,
0000
0000
0100
0010
0001
1000
0000
0000
,
0001
1001
0000
0000
,
0100
0100
1001
0001
,
0100
1000
0100
0001
,
0010
0100
1000
0010
,
0001
0010
1000
0010
,
0100
0001
0010
1000
,
0010
0001
0010
0100
,
1000
0000
0001
1000
0000
0010
0100
0000
,
0001
0100
0001
2000
0000
0000
0000
3001
,
0000
0000
1000
0100
,
0001
0100
1000
0010
,
0100
0001
0010
1000
,
0010
0001
0010
0100
,
1000
0001
1000
0010
,
0001
0010
1000
0100
,
0010
0000
0001
1000
0000
0100
0010
0000
,
0001
0000
1000
0001
0000
0010
0100
0000
,
1000
0001
0100
0001
1000
0000
1001
0000
,
0001
0000
0100
0010
0000
1000
0100
0000
,
0010
0000
0100
1000
0100
0000
1001
0000
,
1000
0000
0010
0100
0000
0001
0010
0000
,
0100
0000
0010
0001
0010
0000
1001
0000
,
1000
0000
0010
0100
0000
0001
1000
0000
,
0100
0000
0010
0000
0001
0000
1000
0010
,
0000
0110
0000
2002
0000
0000
0000
0000
,
0000
0000
0000
0000
,
3003
0000
1001
0000
;

//---------------dance-single - ----------------
#NOTES:
     dance-single:
     :
     Hard:
     7:
     0.539,0.497,0.295,0.173,0.000: // measure 1
0000
0000
1001
0000
0001
0100
0001
1000
,  // measure 2
0000
0010
0100
0000
0001
0010
0100
0000
,  // measure 3
1010
0000
0100
0110
0000
0000
0010
0110
,  // measure 4
0000
0001
2002
0000
0000
0000
3003
0000
,  // measure 5
0001
0000
0101
0000
0010
0100
0001
0000
,  // measure 6
1100
0110
1100
0110
,  // measure 7
1000
0000
0010
0000
0001
0010
1000
0000
,  // measure 8
0001
0010
0100
0010
0001
0100
0010
0000
,  // measure 9
1000
0000
1010
0000
0100
0010
1000
0000
,  // measure 10
0011
0110
0011
0110
,  // measure 11
0001
0000
0010
0000
1000
0010
0001
0000
,  // measure 12
1000
0100
0010
0100
1000
0000
0001
0000
,  // measure 13
0010
0000
1000
0010
0001
0000
0010
0100
,  // measure 14
1000
0100
0010
0001
0100
0000
0001
0100
,  // measure 15
1000
0100
0001
0000
0100
0000
0010
1000
,  // measure 16
0100
0010
0001
0010
0100
0000
1000
0000
,  // measure 17
0100
0000
0001
0100
1000
0000
0010
0100
,  // measure 18
0001
0010
0100
1000
0001
0000
1000
0010
,  // measure 19
0001
0010
1000
0000
0010
0110
0000
0000
,  // measure 20
0010
0000
0100
0000
0101
0000
1000
0100
,  // measure 21
0010
0001
0000
0001
1000
0000
0010
0100
,  // measure 22
0000
0100
0001
1000
0000
0000
0001
0010
,  // measure 23
0100
1000
0000
1000
0001
0000
0100
0010
,  // measure 24
0000
0010
1000
0001
0000
0000
1000
0100
,  // measure 25
0001
0100
0000
0000
1000
0100
0001
0100
,  // measure 26
0000
0000
1000
0000
0110
0000
0001
0100
,  // measure 27
0010
1000
0000
1000
0001
0000
0100
0010
,  // measure 28
0000
0010
0100
0001
0000
0000
1000
0010
,  // measure 29
0100
0001
0000
0001
1000
0000
0010
0100
,  // measure 30
0000
0100
0010
1000
0000
0000
0001
0010
,  // measure 31
1000
0010
0000
0000
0001
0010
1000
0010
,  // measure 32
0000
0001
2002
0000
,  // measure 33
0000
3003
0000
1001
,  // measure 34
1000
0000
0001
0010
0100
1000
0001
0000
,  // measure 35
0100
0000
1000
0100
0001
0000
0010
0100
,  // measure 36
0010
0000
0001
0010
0100
0000
1000
0010
,  // measure 37
0001
0010
1000
0000
0000
0000
1001
0000
,  // measure 38
0001
0000
1000
0100
0010
0001
1000
0000
,  // measure 39
0100
0000
0001
0100
1000
0000
0010
0100
,  // measure 40
0010
0000
1000
0010
0100
0000
0001
0010
,  // measure 41
1000
0010
0001
0000
1000
0000
0100
0000
,  // measure 42
0001
0100
1000
0000
0001
0010
0100
0010
,  // measure 43
0001
0010
0100
0000
1000
0000
0010
0000
,  // measure 44
0001
0010
1000
0000
0100
0010
0001
0010
,  // measure 45
0100
1000
1001
0000
1000
0100
0001
0000
,  // measure 46
0100
0000
1000
0000
0010
0100
0001
0010
,  // measure 47
0001
0100
0010
0000
2000
0000
3200
0000
,  // measure 48
0320
0000
0031
1000
0000
0000
0010
0000
,  // measure 49
0110
0000
0100
0000
0001
0010
0100
1000
,  // measure 50
0000
1000
0100
0000
0010
0100
0000
0100
,  // measure 51
0010
0001
0000
0000
1000
0010
0100
0001
,  // measure 52
0000
0001
1000
0000
0100
0010
0000
0010
,  // measure 53
0001
1000
0000
0000
0100
0001
0100
1000
,  // measure 54
0000
0000
0100
0001
0100
1000
0000
0000
,  // measure 55
0110
0000
0110
0000
0001
0100
0010
1000
,  // measure 56
0000
1000
0001
0000
0010
0100
0000
0100
,  // measure 57
1000
0001
0000
0000
1000
0010
0100
0001
,  // measure 58
0000
0001
1000
0000
0100
0010
0000
0010
,  // measure 59
0001
1000
0000
0000
0010
0001
0010
1000
,  // measure 60
0000
0000
0010
0001
0010
1000
0000
0000
,  // measure 61
0001
1001
0000
0000
,  // measure 62
0110
0000
0110
0000
1001
0000
0001
0100
,  // measure 63
0010
1000
0100
0010
0001
1000
0010
0220
,  // measure 64
0000
0000
0330
0000
0002
0000
1003
0010
,  // measure 65
0100
0001
0010
0100
1000
0010
0100
0220
,  // measure 66
0000
0000
0330
0000
2000
0000
3001
0010
,  // measure 67
1000
0010
0001
1000
0000
0001
0100
1000
,  // measure 68
0100
0001
1000
0020
0000
0100
0130
0000
,  // measure 69
0001
0100
0010
2000
0000
0000
0000
3001
,  // measure 70
0000
0000
1001
0000
0001
1000
0001
0010
,  // measure 71
0100
1000
0010
0100
0001
0010
0100
0220
,  // measure 72
0000
0000
0330
0000
2000
0000
3001
0100
,  // measure 73
0010
1000
0100
0010
0001
0100
0010
0220
,  // measure 74
0000
0000
0330
0000
1000
0010
0100
0000
,  // measure 75
0001
0010
1000
0010
0001
1000
0100
0010
,  // measure 76
0001
1000
0010
0200
0000
0010
0310
0000
,  // measure 77
1000
0010
0100
0002
0000
1000
1003
0000
,  // measure 78
0001
0010
1000
0010
0001
0000
1001
0000
,  // measure 79
0001
0001
0100
0010
0000
1000
0100
0010
,  // measure 80
0001
0010
0100
1000
0001
0000
1001
0000
,  // measure 81
1000
1000
0010
0100
0000
0001
0010
0100
,  // measure 82
1000
0100
0010
0001
0000
0000
1001
0000
,  // measure 83
1000
1000
0100
0010
0000
0001
0100
1000
,  // measure 84
0100
0001
0010
0100
1000
0000
0001
0101
,  // measure 85
0000
0110
0000
2002
0000
0000
0000
0000
,  // measure 86
0000
0000
0000
0000
,  // measure 87
3003
0000
1001
0000
;

//---------------dance-single - ----------------
#NOTES:
     dance-single:
     :
     Challenge:
     8:
     0.656,0.591,0.374,0.208,0.040:
0000
0000
1001
0000
0001
0100
0010
1000
,
0000
0100
0001
0100
1000
0010
0001
0010
,
1000
0001
0100
0101
0000
1000
0100
1100
,
0000
0001
2002
0000
0000
0000
3003
0000
,
1000
0010
1000
0010
0100
0001
0100
0001
,
0010
1000
0010
0001
0100
1000
0100
0001
,
1000
1000
0100
0100
0010
0100
1000
0001
,
1000
0100
1000
0100
0010
0001
1000
0000
,
0001
0100
0001
0100
0010
1000
0010
1000
,
0100
0001
0100
1000
0001
0010
1000
0010
,
0001
1000
0100
1000
0010
0100
0001
0010
,
0100
1000
0100
0010
0001
0000
1000
0100
,
1000
0100
0010
0001
0010
0001
1000
0100
,
0001
0100
1000
0010
0001
0010
1000
1000
,
0010
0010
0100
0010
1000
0100
0010
0001
,
0010
0001
0100
0010
0110
0000
0001
0010
,
0001
0010
0100
0010
0001
1000
0100
0001
,
0100
1000
0001
0010
1000
0010
0001
0001
,
0100
0100
0010
1000
0001
1002
0000
0000
,
0103
0000
0110
0000
1010
0000
0100
0001
,
0010
0200
0000
0010
0310
0000
0001
1000
,
0000
1000
0010
0110
0000
0000
0010
1000
,
0100
0020
0000
0100
0130
0000
1000
0001
,
0000
0001
0100
0110
0000
0000
1000
0100
,
0001
0100
0000
1000
0001
0010
1000
0010
,
0000
0000
0001
1000
0001
0000
0000
0000
1001
0000
0000
0000
0100
0000
0010
0000
,
0001
2000
0000
0100
3100
0000
0010
0100
,
0000
0100
1000
1001
0000
0000
0010
0100
,
1000
0002
0000
0010
0013
0000
0100
0010
,
0000
0010
0001
1001
0000
0000
1000
0010
,
0001
0010
0000
1000
0001
0100
1000
0100
,
0000
0000
0001
1000
0001
0000
0000
0000
1001
0000
0000
0000
1000
0000
1000
0000
,
0000
0001
1001
0000
0000
0000
1000
1000
,
0001
0001
1000
0100
0001
0100
1000
1000
,
0010
0010
0100
0100
0001
0001
0100
1000
,
0100
0001
0010
1000
0010
0001
0010
0100
,
1000
0100
0010
0000
0110
0000
0001
0001
,
1000
1000
0100
0001
0100
1000
0010
0001
,
0010
1000
1000
0001
0001
1000
0100
0010
,
0100
1000
0100
0001
0100
1000
0010
0010
,
0100
0100
0001
0000
1000
0100
1000
0100
,
0010
0001
0010
0001
1000
0100
0001
0100
,
1000
0100
0010
0100
1000
1000
0001
0001
,
0010
0100
1000
0001
0100
0100
0010
0010
,
1000
0001
1001
0000
0001
0010
0001
0010
,
0100
1000
0100
1000
0001
0010
1000
0010
,
0001
0010
0100
0010
0001
0000
0011
0000
,
0110
0000
0100
1100
0000
0000
0110
0000
,
1010
0000
1001
0000
0010
0100
1000
0002
,
0000
0010
0013
0000
0100
0110
0000
1000
,
0010
1010
0000
0000
0100
0010
0001
2000
,
0000
0100
3100
0000
0010
0110
0000
0001
,
0100
0101
0000
0000
0001
0100
1000
0100
,
0000
0000
0001
0000
1000
0000
0010
0000
0001
0000
0010
0000
0000
0000
1000
0001
,
1000
0000
1001
0000
1000
0010
0100
0002
,
0000
1000
1003
0000
0100
1100
0000
0010
,
0001
1001
0000
0000
0001
0100
0010
2000
,
0000
0001
3001
0000
0010
0011
0000
0100
,
1000
1001
0000
0000
0001
0100
1000
0100
,
0000
0000
0001
0000
1000
0000
0010
0000
0001
0000
0010
0000
0000
0000
1000
0001
,
1000
0000
1001
0000
0001
0001
0000
0000
,
1001
0000
1001
0000
0002
0000
1003
0001
,
0100
1000
0001
0010
1000
0001
1000
1001
,
0000
0001
0100
0001
2000
0000
3001
1000
,
0100
0001
1000
0010
0001
1000
0001
1001
,
0000
0000
1000
0000
0010
0000
1000
0000
0002
0000
0000
0000
1003
0000
0010
1000
,
0010
1000
0100
0010
0001
0010
0100
1000
,
0001
0001
0100
0020
0000
0130
1100
0000
,
0010
0001
0100
0110
0000
0000
0100
1100
,
0000
0000
1001
0000
2000
0000
3001
1000
,
0100
0001
1000
0010
0001
1000
0001
1001
,
0000
1000
0100
1000
0002
0000
1003
0001
,
0100
1000
0001
0010
1000
0001
1000
1001
,
0000
0001
0010
0001
2000
0000
3001
1000
,
0100
0010
0001
0200
0000
0301
1000
1000
,
0100
0010
0001
0200
0000
0001
0301
0000
,
1000
0100
0001
0200
0000
1000
1300
0000
,
0001
0010
0001
0000
1000
0100
1000
0000
0001
0000
0000
0000
1001
0000
0000
0001
,
1000
0010
0100
0101
0000
0020
0100
0130
,
0001
0000
2000
0000
0100
0000
3100
0000
0010
0000
0000
0000
1001
0000
0000
1000
,
0001
0010
0100
1100
0000
0020
0100
0130
,
0001
0000
2000
0000
0010
0000
3010
0000
0000
0000
0000
0000
1001
0000
0000
0001
,
1000
0100
0010
0011
0000
0200
0010
0310
,
1000
0000
0002
0000
0010
0000
0013
0000
0100
0000
0000
1000
0010
0000
0100
0000
,
0000
0110
0000
2002
0000
0000
0000
0000
,
0000
0000
0000
0000
,
3003
0000
1001
0000
;

//---------------dance-single - ----------------
#NOTES:
     dance-single:
     :
     Beginner:
     2:
     0.140,0.155,0.122,0.000,0.000:
0000
1001
0000
0000
,
1000
0000
0001
0000
,
1000
0000
0000
0001
,
0000
0000
0000
0000
,
0001
0000
0001
0000
,
1000
0000
1000
0000
,
0001
0000
0001
0000
,
1000
0000
1000
0000
,
0001
0000
0001
0000
,
1000
0000
1000
0000
,
0001
0000
0001
0000
,
0010
0000
0100
1000
,
0000
1000
0000
0100
,
0000
0100
0000
1000
,
0000
1000
0000
0100
,
0000
0100
0000
0010
,
0000
0010
0000
0001
,
0000
0001
0000
0010
,
0000
0010
0000
0100
,
0000
0000
0000
1001
,
0000
0000
0000
0000
,
0000
0000
0000
1001
,
0000
0000
0000
0000
,
0000
0000
0000
0001
,
0000
0000
1000
0000
,
0000
0000
0000
1001
,
0000
0000
0000
0000
,
0000
0000
0000
1001
,
0000
0000
0000
0000
,
0000
0000
0000
0110
,
0000
0000
0010
0000
,
0000
0100
0000
0000
,
0000
0000
0000
0001
,
0000
0001
0000
0100
,
0000
0100
0000
0001
,
0000
0001
0000
1000
,
0000
0000
0000
0001
,
0000
0001
0000
1000
,
0000
1000
0000
0100
,
0000
0100
0000
1000
,
0000
0000
0010
0000
,
0010
0000
0100
0000
,
0100
0000
0010
0000
,
0010
0000
0001
0000
,
1000
0000
0001
0000
,
0001
0000
0100
0000
,
0100
0000
0001
0000
,
0001
0000
1000
0000
,
0000
0000
1001
0000
,
0000
0000
0000
0000
,
0000
0000
1001
0000
,
0000
0000
0000
0000
,
0000
0000
0110
0000
,
0000
0010
0000
0000
,
0100
0000
0110
0000
,
0000
0000
0000
0000
,
0000
0000
0110
0000
,
0000
0000
0000
0000
,
0000
0000
1000
0000
,
0000
0001
0000
0000
,
1000
0000
0000
0000
,
0000
0000
0001
0000
,
0001
0000
0001
0000
,
0000
0000
1000
0000
,
1000
0000
1000
0000
,
0000
0000
0010
0000
,
0010
0000
0010
0000
,
0000
0000
0110
0000
,
0000
0000
0000
0000
,
0000
0000
1000
0000
,
1000
0000
1000
0000
,
0000
0000
0001
0000
,
0001
0000
0001
0000
,
0000
0000
0100
0000
,
0100
0000
0100
0000
,
0000
0000
0110
0000
,
0000
0000
0010
0000
,
0000
0000
1001
0000
,
1000
0000
0001
0000
,
0010
0000
0100
0000
,
1000
0000
0001
0000
,
1000
0000
0000
1001
,
0000
0000
0001
0000
,
1000
0000
0010
0000
,
0000
0000
0000
0110
0000
0000
0000
0000
,
0000
0000
0000
0000
,
0000
0000
1001
0000
;
