#TITLE:Caring Dance;
#SUBTITLE:;
#ARTIST:猫叉Master;
#TITLETRANSLIT:;
#SUBTITLETRANSLIT:;
#ARTISTTRANSLIT:Nekomata Master;
#CREDIT:DigiMindAxel;
#BANNER:Caring Dance.png;
#BACKGROUND:Caring Dance-bg.png;
#LYRICSPATH:;
#CDTITLE:pop'n music.png;
#MUSIC:Caring Dance.mp3;
#OFFSET:-10.160;
#SAMPLESTART:78.466;
#SAMPLELENGTH:12.000;
#SELECTABLE:YES;
#BPMS:0.000=101.000;
#STOPS:;
#BGCHANGES:;

//---------------dance-single - ----------------
#NOTES:
     dance-single:
     :
     Easy:
     2:
     0.130,0.149,0.082,0.057,0.000:
1000
0000
0000
0000
,
0001
0000
0000
0000
,
1000
0000
0000
0000
,
0001
0000
1001
1001
,
1000
0010
0000
0100
,
0000
0010
0000
0100
,
0001
1000
0000
0001
,
0000
1000
0000
0100
,
0000
1000
0000
0001
,
0000
0010
0000
0001
,
0000
0100
0000
0001
,
0000
1000
0000
1001
,
0000
0010
0000
0000
,
0000
0010
0000
0000
,
0000
0010
0000
0000
,
0000
0010
0000
0000
,
1001
0000
0100
0000
,
0100
0000
0100
0000
,
0001
0000
0001
0000
,
0001
0000
1000
0001
,
1000
2001
0000
0000
,
0000
3020
0000
0000
,
0000
0230
0000
0000
,
0000
0320
0000
0000
,
0000
1030
0100
0010
,
0001
0020
0000
0000
,
0000
0230
0000
0000
,
0000
2300
0000
0000
,
0000
3000
0000
1001
,
0000
0010
0000
0100
,
0000
0010
0000
1000
,
0000
0001
0000
1000
,
0000
0001
0000
0010
,
0000
0001
0000
1000
,
0000
0100
0000
1000
,
0000
0010
0000
0100
,
0010
0100
0010
0100
,
0000
0000
0010
0100
,
0000
0001
1000
0001
,
1001
0000
0001
0010
,
0100
1000
0010
0100
,
0000
0000
0001
1000
,
0000
0010
0100
0010
,
1001
0000
0100
0010
,
1000
0001
1000
0001
,
0000
1001
1001
0000
;

//---------------dance-single - ----------------
#NOTES:
     dance-single:
     :
     Hard:
     6:
     0.374,0.317,0.205,0.270,0.074:
0001
0010
0000
0001
0000
0100
0000
0010
,
1000
0100
0000
1000
0000
0010
0000
0100
,
0001
0010
0000
0001
0000
0100
0000
0010
,
1000
0100
0000
1000
0010
0010
0110
0000
,
1002
0000
1000
0000
1003
0100
0010
0000
,
0201
0000
0000
0000
0301
0010
0100
1000
,
2000
0000
0001
0000
3001
0010
0100
0000
,
1010
1010
0101
0101
,
2001
0000
0001
0000
3001
0010
0100
0000
,
1020
0000
0000
0000
1030
0100
0010
0001
,
0002
0000
1000
0000
1003
0100
0010
0000
,
0011
0000
0011
0000
1100
0000
1100
0001
,
0000
0000
0000
0000
0100
0000
0000
0010
0000
0000
0200
0000
0000
0000
0000
0000
,
0301
0000
0000
0000
1000
0000
0000
0100
0000
0000
2000
0000
0001
0000
0000
0000
,
3001
0000
0000
0000
0100
0000
0000
0010
0000
0000
0200
0000
0001
0000
0000
0000
,
0301
0010
0100
1000
0002
0000
0000
0000
,
1003
0000
0001
0100
1000
0100
0010
1000
,
1001
0000
1000
0010
0001
0010
0100
0001
,
1001
0000
0001
0100
1000
0100
0010
1000
,
0001
0000
1000
0000
0001
0000
0010
0000
0100
0000
0000
1000
0001
0000
0000
1000
,
0001
2001
3002
0203
,
0320
2030
0001
0001
,
3001
0200
0320
0032
,
1000
2003
0000
0020
,
3030
2001
3020
0230
,
0302
2003
0001
0001
,
3001
0200
0302
2003
,
3020
0230
0000
0302
,
1000
1003
0000
0000
0000
0000
1000
0100
,
0001
0100
0010
0001
0100
0010
1000
0100
,
0001
0100
0010
0001
1001
0000
0001
0010
,
1000
0010
0100
1000
0010
0100
0001
0010
,
1000
0010
0100
1000
1001
0000
0001
0100
,
1000
0100
0010
1000
0100
0010
0001
0100
,
1000
0100
0010
1000
1001
0000
1000
0010
,
0001
0010
0100
0001
0010
0100
1000
0010
,
0001
0010
0100
0001
0010
0100
1002
0000
,
1000
0000
0000
0000
1003
0000
0010
0000
0100
0000
0000
0001
1000
0000
0100
0000
,
1000
0000
0000
0010
0100
0000
0000
0010
0100
0000
0001
0000
1000
0000
0000
0000
,
2001
0000
0000
0000
0001
0000
0000
0000
3001
0000
0000
0001
1000
0000
0000
1000
,
0100
0000
0000
0100
0010
0000
0000
0010
0001
0000
1000
0000
0001
0000
0010
0000
,
1000
0000
0010
0000
0100
0000
1000
0000
0001
0000
0000
1000
0001
0000
0010
0000
,
0001
0000
0000
0100
0010
0000
0000
0100
0010
0000
1000
0000
0001
0000
0100
0000
,
1000
0000
0100
0000
0010
0000
1000
0000
0001
0000
0000
1000
0001
0000
0000
0001
,
0100
0000
0000
0100
0010
0000
1000
0000
0100
0000
0010
0000
0001
0000
0000
0000
,
0000
0000
1001
1001
1001
0000
0000
0000
;

//---------------dance-single - ----------------
#NOTES:
     dance-single:
     :
     Challenge:
     8:
     0.460,0.410,0.180,0.221,0.303: // measure 1
1000
0000
0000
1000
0001
0000
0000
0000
0100
0000
0000
0100
0001
0000
1000
0000
,  // measure 2
0100
0000
0000
0100
0010
0000
0000
0000
0001
0000
0000
0001
1000
0000
0100
0000
,  // measure 3
0010
0000
0000
0010
0001
0000
0000
0000
0100
0000
0000
0100
0010
0000
1000
0000
,  // measure 4
0100
0000
0000
0100
0010
0000
0001
0000
0110
0000
0110
0000
0110
0000
0000
0000
,  // measure 5
1001
0000
0000
1000
0010
0000
0100
0000
0010
0000
0000
1000
0001
0000
0000
0001
,  // measure 6
1000
0000
0100
0000
0010
0000
0000
0001
1000
0000
0000
1000
0001
0000
0000
0000
,  // measure 7
0100
0000
0000
0001
1000
0000
0100
0000
1000
0000
0000
0010
0100
0000
0000
0100
,  // measure 8
0001
0000
0000
0001
1000
0000
0000
1000
0010
0000
0000
0010
0100
0000
0001
0000
,  // measure 9
1001
0000
0000
0001
1000
0000
0100
0000
1000
0000
0000
0001
0100
0000
0000
0100
,  // measure 10
0010
0000
1000
0000
0100
0000
0000
1000
0001
0000
0000
0001
0100
0000
0000
0100
,  // measure 11
0010
0000
1000
0000
0100
0000
0010
0000
0001
0000
0000
1000
0001
0000
0000
0001
,  // measure 12
0100
0000
0000
0100
0010
0000
0000
0010
1000
0000
0100
0000
0010
0000
1001
0000
,  // measure 13
0000
0000
0001
1000
0100
0010
0002
0000
,  // measure 14
1003
0000
1000
0001
0010
0100
2000
0001
,  // measure 15
3001
0000
0001
1000
0100
0010
0001
0010
,  // measure 16
1000
0000
0010
0000
0001
0000
1000
0000
1000
0000
0000
0001
0100
0000
0010
0000
,  // measure 17
0110
0001
1001
0100
0010
0001
2000
0010
,  // measure 18
3010
0000
1000
0001
0010
0100
2000
0001
,  // measure 19
3001
0000
1000
0100
0010
0001
1000
0100
,  // measure 20
0001
0000
0100
0000
1000
0000
0001
0000
0001
0000
0000
0100
0010
0000
0000
0100
,  // measure 21
0010
1000
1002
0000
2003
0000
3020
0000
,  // measure 22
0230
0000
0302
0000
0013
0100
2000
0000
,  // measure 23
3020
0000
2030
0000
3100
0010
0002
0000
,  // measure 24
0203
0000
0320
0000
1000
0000
1030
0001
,  // measure 25
0010
0100
2001
0000
3200
0000
0320
0000
,  // measure 26
0032
0000
2003
0000
3010
0100
0002
0000
,  // measure 27
2003
0000
3002
0000
0103
0010
2000
0000
,  // measure 28
3200
0320
0000
0032
,  // measure 29
1003
0110
0000
0000
0000
0000
1001
0001
,  // measure 30
0100
0000
0001
0100
0001
0000
1000
0010
1000
0000
0001
0000
0001
0000
1000
0000
,  // measure 31
0100
0000
1000
0100
0010
0000
0001
0000
1001
0000
0010
0000
0100
0000
1000
0000
,  // measure 32
0010
0000
1000
0010
1000
0000
0001
0100
0001
0000
1000
0000
1000
0000
0100
0000
,  // measure 33
0001
0000
0100
0000
1000
0001
0000
1000
0001
0100
0001
0000
1001
0000
0010
0000
,  // measure 34
0100
0000
1000
0100
1000
0000
0001
0010
0001
0000
1000
0000
1000
0000
0001
0000
,  // measure 35
0100
0000
0001
0010
0100
0000
1000
0000
1001
0000
0100
0000
0010
0000
0001
0000
,  // measure 36
0100
0000
0001
0010
0001
0000
1000
0100
1000
0000
0001
0000
0001
0000
1000
0000
,  // measure 37
0010
1000
0000
0100
0000
0010
0000
0001
1000
0001
0100
0000
1001
0000
1000
0000
,  // measure 38
0001
0010
0001
0000
1000
0000
1000
0100
0010
0000
0000
0001
0100
0000
0010
0000
,  // measure 39
1000
0000
0000
1000
0010
0000
0000
0010
0100
0000
0001
1000
0001
0000
1000
0000
,  // measure 40
1001
0000
1000
0000
0010
0000
1000
0100
0010
0000
0000
0001
0100
0000
0000
0100
,  // measure 41
0010
0000
0000
0010
1000
0000
0000
1000
0001
0000
0010
0000
0100
1000
0000
0100
,  // measure 42
1000
0010
0100
0000
0010
0000
1000
0001
1000
0000
0000
0001
0100
0000
0010
0000
,  // measure 43
1000
0000
0000
1000
0010
0000
0000
0010
0100
0000
0001
0100
0001
1000
0000
0000
,  // measure 44
1001
0000
0010
0100
0010
0000
0001
0010
0001
0000
0000
1000
0100
0000
0000
0100
,  // measure 45
0010
0000
0000
0010
0001
0000
1000
0000
0100
0000
0010
0000
1001
0000
0000
0000
,  // measure 46
0000
0000
0110
0110
0110
0000
0000
0000
;

//---------------dance-single - ----------------
#NOTES:
     dance-single:
     :
     Beginner:
     1:
     0.061,0.093,0.016,0.000,0.000:
1000
0000
0000
0000
,
0001
0000
0000
0000
,
0100
0000
0000
0000
,
0010
0000
1001
0000
,
1000
0000
0000
0000
,
1000
0000
0000
0000
,
0001
0000
0000
0000
,
0100
0000
0000
0000
,
0010
0000
0000
0000
,
1000
0000
0000
0000
,
0010
0000
0000
0000
,
1000
0000
0000
0000
,
0000
1000
0000
0000
,
0000
0001
0000
0000
,
0000
0100
0000
0000
,
0000
0010
0000
0000
,
0000
0000
1000
0000
,
1000
0000
0001
0000
,
0001
0000
0100
0000
,
0100
0000
0010
0000
,
0010
0000
0000
0000
,
0000
0000
0000
0000
,
0000
0100
0000
0000
,
0000
0001
0000
0000
,
0000
1000
0000
0000
,
0000
0010
0000
0000
,
0000
1000
0000
0000
,
0000
0001
0000
1000
,
0000
0000
0000
0010
,
0000
0000
0000
0100
,
0000
0000
0000
0010
,
0000
0000
0000
1000
,
0000
0000
0000
0001
,
0000
0000
0000
1000
,
0000
0000
0000
0001
,
0000
0000
0000
0010
,
0000
0000
0000
0001
,
0000
0000
0000
0100
,
0000
0000
0000
0010
,
0000
0000
0000
0100
,
0000
0000
0000
0010
,
0000
0000
0000
1000
,
0000
0000
0000
0001
,
0000
0000
0000
1000
,
0000
0000
0000
0001
,
0000
1001
0000
0000
;

//---------------dance-single - ----------------
#NOTES:
     dance-single:
     :
     Medium:
     4:
     0.230,0.279,0.115,0.131,0.000:
1000
0000
0010
0000
,
1000
0000
0001
0000
,
0100
0000
0001
0000
,
1000
0000
0000
0000
0001
0001
0001
0000
,
1000
0100
1000
0100
,
0010
0001
0010
0100
,
1000
0010
0100
0010
,
1000
0100
0010
0001
,
1000
0001
0010
0001
,
0010
0100
1000
0001
,
0100
0010
1000
0001
,
0010
0000
0001
0000
1000
0000
0010
0100
,
0000
0020
0000
0000
,
0000
2030
0000
0000
,
0000
3002
0000
0000
,
0000
0103
0010
0000
,
1001
0000
0001
0100
0010
0100
0002
0000
,
1003
0000
0000
1000
0010
0100
0020
0000
,
1030
0000
0000
0001
0100
0010
0200
0000
,
0301
0000
1000
0001
1000
0000
1001
0000
,
0110
1002
0000
0000
,
0000
0203
0000
0000
,
0000
0302
0000
0000
,
0000
2003
0000
0000
,
0000
3020
0000
0000
,
0000
0230
0000
0000
,
0000
0302
0000
0000
,
0000
2003
0000
0000
,
0000
3001
0000
0000
0100
0000
0010
0000
,
1000
0000
0100
1000
0010
0000
0001
0000
,
0110
0000
0010
1000
0100
0000
0001
0000
,
1001
0000
0100
0001
0010
0000
1000
0000
,
0110
0000
0010
0001
0100
0000
1000
0000
,
1001
0000
0010
0100
1000
0000
0020
0000
,
0130
0000
0001
0010
0100
0000
2000
0000
,
3010
0000
0100
0001
0010
0000
0100
0000
,
1000
0100
1000
0100
0010
0001
0010
0000
,
1001
0000
0010
0100
0001
0000
1001
0000
,
0001
0000
1000
0000
1000
0010
0100
0000
,
1001
0000
0001
0001
0001
0000
0010
0000
,
0100
0000
1000
0000
1001
0000
0100
0010
,
0100
0010
1000
1000
1000
0000
0010
0000
,
0100
0010
1000
0001
,
1001
0000
1000
1000
1000
0000
0010
0000
,
0100
0000
0001
0010
0100
1000
0001
0000
,
0000
0000
0100
0100
0110
0000
0000
0000
;
