#TITLE:COOL EDITION;
#SUBTITLE:;
#ARTIST:桑谷夏子;
#TITLETRANSLIT:;
#SUBTITLETRANSLIT:;
#ARTISTTRANSLIT:NATSUKO KUWATANI;
#CREDIT:DigiMindAxel;
#BANNER:COOL EDITION.png;
#BACKGROUND:COOL EDITION-bg.png;
#LYRICSPATH:COOL EDITION.lrc;
#CDTITLE:DMAxel original simfile.png;
#MUSIC:COOL EDITION.mp3;
#OFFSET:-12.100;
#SAMPLESTART:53.513;
#SAMPLELENGTH:12.000;
#SELECTABLE:YES;
#BPMS:0.000=147.000;
#STOPS:99.500=1.633
;
#BGCHANGES:-30.000=COOL EDITION.avi=1.000=1=1=0,
99999=-nosongbg-=1.000=0=0=0 // don't automatically add -songbackground-
;

//---------------dance-single - ----------------
#NOTES:
     dance-single:
     :
     Easy:
     2:
     0.138,0.149,0.093,0.052,0.000:
0000
0000
0000
0000
,
0001
0000
1000
0000
,
0001
0000
1000
0000
,
0010
0000
0001
0000
,
0010
0000
0001
0000
,
0100
0000
1000
0000
,
0100
0000
1000
0000
,
0010
0000
0100
0000
,
0010
0000
0010
0000
,
0110
0000
0000
0000
,
1000
0000
0000
0000
,
0000
0000
0000
0000
,
1001
0000
0001
0000
,
1001
0000
0000
0000
,
0001
0000
0000
0000
,
0000
0000
0000
0000
,
1001
0000
1000
0000
,
1001
0000
0000
0000
,
0010
0000
0100
0000
,
0010
0000
0010
0000
,
0100
0000
0010
0000
,
0100
0000
0100
0000
,
0001
0000
1000
0000
,
0001
0000
0001
0000
,
0001
0000
1001
0000
,
1000
0000
0001
0000
,
1000
0000
1000
0000
,
0001
0000
0010
0000
,
0100
0000
1000
0000
,
0001
0000
1000
0000
,
0001
0000
0001
0000
,
0001
0000
0010
0000
,
0200
0000
0000
0000
,
0310
0000
0001
0000
,
2000
0000
0000
0000
,
3001
0000
0100
0000
,
0002
0000
0000
0000
,
1003
0000
0000
0000
0000
0000
0000
1001
,
0000
0000
0000
0000
,
0110
0000
0001
0000
,
1000
0000
0010
0000
,
0100
0000
0001
0000
,
1000
0000
0001
0000
,
0010
0000
0100
0000
,
1000
0000
0100
0000
,
0010
0000
0001
0000
,
0010
0000
0100
0000
,
2002
0000
0000
0000
,
3003
0000
0000
0000
;

//---------------dance-single - ----------------
#NOTES:
     dance-single:
     :
     Hard:
     7:
     0.503,0.473,0.477,0.104,0.026:
0001
0000
0010
0000
0100
0000
1000
0000
1001
0000
0000
1001
0000
0000
0001
0000
,
1000
0100
0010
0000
0001
0100
0010
0000
,
1000
0100
0010
0001
0010
0100
0101
0000
,
0001
0010
0100
0000
1000
0010
0100
0000
,
0001
0010
0100
1000
0100
0010
1010
0000
,
0001
1000
0010
0000
1000
0100
0010
0000
,
0001
0100
0001
1000
0100
0001
1001
0000
,
1000
0001
0100
0000
0001
0010
0100
0000
,
1000
0010
1000
0001
0010
1000
0010
0001
,
1001
0000
0000
2002
0000
0000
0000
0000
0000
0000
0000
0000
3003
0000
0000
0000
,
2100
0001
0001
0001
,
3002
0100
0100
0103
,
0101
0000
1100
0000
1001
0000
0001
1000
,
0001
0010
0100
1000
1010
0000
1000
0000
,
0012
1000
1000
1000
,
2003
0010
0010
3010
,
1010
0000
0011
0000
1001
0000
1000
0001
,
1000
0100
0010
0001
0100
0100
0001
1000
,
1001
0000
1000
0000
1010
0000
1000
1000
,
0001
0000
0011
0000
0001
0000
0001
0001
,
1000
0000
1100
0000
1000
0000
1000
1000
,
0001
0000
0100
0001
0100
0000
0001
0001
,
1000
0000
0010
1000
0010
0000
1000
0000
,
1001
0000
0001
0000
1000
0100
0010
0001
,
0100
0000
1000
0000
0001
0000
0010
0000
1000
0000
0000
1001
0000
0000
1001
0000
,
1100
0000
0101
0000
0010
1000
0001
0010
,
0011
0000
1010
0000
0100
0001
1000
0100
,
1100
0000
0001
0010
0100
1000
0001
1000
,
0100
0001
0100
1000
0001
1000
0100
0000
,
1100
0000
0101
0000
0010
1000
0001
0010
,
0011
0000
1010
0000
0100
0001
1000
0100
,
1100
0000
0001
0010
0100
1000
0001
1000
,
0100
0001
0100
1000
0001
0100
0001
1000
,
1001
0000
1000
0100
0010
0100
1000
0001
,
0200
0000
0001
0301
1000
0000
0001
0010
,
0100
0010
0001
1000
0020
0000
1000
1030
,
0001
0010
0100
1000
0001
0000
1001
0000
,
1000
0100
0010
0001
1000
0100
0001
1001
,
0000
0000
0000
0000
0100
0100
0100
0000
,
1010
0000
0011
0000
0100
1000
0001
0000
,
0010
0100
1000
0001
0001
0100
0010
0000
,
0101
0000
1100
0000
0010
0001
1000
0000
,
0100
0010
0001
1000
1000
0010
0100
0000
,
0011
0000
1010
0000
0100
1000
0001
0000
,
0010
0100
1000
0001
0001
0100
0010
0000
,
1100
0000
0101
0000
0010
0001
1000
0000
,
0100
0010
0001
0100
1000
0001
0010
1000
,
1010
0000
0000
2002
0000
0000
0000
0000
0000
0000
0000
3000
0000
0000
0000
0013
;

//---------------dance-single - ----------------
#NOTES:
     dance-single:
     :
     Medium:
     6:
     0.400,0.398,0.291,0.114,0.016: // measure 1
1000
0001
1000
0001
1001
0000
0000
0000
,  // measure 2
1000
0000
0010
1000
0000
1000
0001
0000
,  // measure 3
0100
0001
0100
0000
0001
0000
1000
0000
,  // measure 4
0001
0000
0100
0001
0000
0001
1000
0000
,  // measure 5
0010
1000
0010
0000
1000
0000
0001
0000
,  // measure 6
0100
0000
0001
1000
0000
1000
0200
0000
,  // measure 7
1000
0000
1300
0000
1000
0001
1000
0000
,  // measure 8
0001
0000
1000
0001
0000
0001
0100
0000
,  // measure 9
0001
0100
0001
0100
0001
1000
0100
1000
,  // measure 10
0100
0000
0000
1100
0000
0000
0000
0000
0000
0000
0000
0000
0000
0000
0000
0000
,  // measure 11
2001
0000
0000
0000
,  // measure 12
0002
0000
0000
3003
,  // measure 13
0101
0000
0101
0000
1001
0000
1000
0001
,  // measure 14
1000
0010
1010
0000
,  // measure 15
1002
0000
0000
0000
,  // measure 16
2000
0000
0000
3003
,  // measure 17
1010
1010
1001
0001
,  // measure 18
1000
0010
1000
0010
1000
0001
0010
0001
,  // measure 19
0010
0001
0010
0100
,  // measure 20
1000
1001
0001
1000
,  // measure 21
0010
1000
0001
0010
,  // measure 22
0100
1000
0001
1001
,  // measure 23
1000
0100
0010
0001
,  // measure 24
1001
0001
1000
0010
,  // measure 25
1000
0100
0010
0001
1000
0000
0000
1001
,  // measure 26
1001
0000
1001
0000
1000
0010
1000
0010
,  // measure 27
1000
0000
1001
0000
0001
0100
0001
0100
,  // measure 28
0001
0000
0010
0100
1000
0000
0010
0100
,  // measure 29
0020
1000
1000
1030
,  // measure 30
1001
0000
1001
0000
0001
0010
0001
0010
,  // measure 31
0001
0000
1001
0000
1000
0100
1000
0100
,  // measure 32
1000
0000
0100
0010
0001
0000
0100
0010
,  // measure 33
0200
0001
0001
0301
,  // measure 34
1001
0000
0010
1000
0010
1000
0001
0010
,  // measure 35
0002
0000
1000
0000
1000
0000
1003
1000
,  // measure 36
0001
0100
0001
1000
0100
1000
0002
0000
,  // measure 37
1000
1000
1000
1003
,  // measure 38
0001
0010
0100
1000
0001
0100
0000
0110
,  // measure 39
0000
0000
0002
0000
,  // measure 40
1003
0000
1001
0000
1000
0010
0100
0000
,  // measure 41
0001
0010
0100
1000
0001
0000
1001
0000
,  // measure 42
1000
0000
1001
0000
0001
0100
0010
0000
,  // measure 43
1000
0100
0010
0001
1000
0000
1001
0000
,  // measure 44
1000
0010
0100
0000
0010
0100
0010
0000
,  // measure 45
1000
0100
0010
0001
1000
0010
1000
0000
,  // measure 46
0001
0100
0010
0000
0100
0010
0100
0000
,  // measure 47
0001
0010
0100
1000
0001
1000
0001
1000
,  // measure 48
1001
0000
0000
0002
0000
0000
0000
0000
0000
0000
0000
0000
0000
0000
0000
1003
;

//---------------dance-single - ----------------
#NOTES:
     dance-single:
     :
     Beginner:
     1:
     0.061,0.098,0.073,0.000,0.000:
0000
0000
0000
0000
,
1000
0000
0000
0000
,
0000
0000
0000
0000
,
1000
0000
0000
0000
,
0000
0000
0000
0000
,
0001
0000
0000
0000
,
0000
0000
0000
0000
,
0001
0000
0000
0000
,
0000
0000
0000
0000
,
1001
0000
0000
0000
,
1000
0000
0000
0000
,
0000
0000
0000
0000
,
1001
0000
0000
0000
,
0001
0000
0000
0000
,
1000
0000
0000
0000
,
0000
0000
0000
0000
,
1001
0000
0000
0000
,
1000
0000
0000
0000
,
0001
0000
0000
0000
,
0000
0000
0000
0000
,
1000
0000
0000
0000
,
0000
0000
0000
0000
,
0001
0000
0000
0000
,
1000
0000
0000
0000
,
0001
0000
0000
0000
,
1001
0000
0000
0000
,
0001
0000
0000
0000
,
0001
0000
0000
0000
,
0000
0000
0000
0000
,
1001
0000
0000
0000
,
1000
0000
0000
0000
,
1000
0000
0000
0000
,
0000
0000
0000
0000
,
1001
0000
0000
0000
,
0000
0000
0000
0000
,
0001
0000
0000
0000
,
0000
0000
0000
0000
,
1000
0000
0000
0000
,
0000
0000
0000
0000
,
0001
0000
0000
0000
,
1000
0000
0000
0000
,
0001
0000
0000
0000
,
1000
0000
0000
0000
,
0010
0000
0000
0000
,
0010
0000
0000
0000
,
0100
0000
0000
0000
,
0100
0000
0000
0000
,
0110
0000
0000
0000
;
