#TITLE:ちょっと;
#SUBTITLE:;
#ARTIST:vivi(from iyiyim);
#TITLETRANSLIT:CHOTTO;
#SUBTITLETRANSLIT:;
#ARTISTTRANSLIT:;
#CREDIT:DigiMindAxel;
#BANNER:CHOTTO.png;
#BACKGROUND:CHOTTO-bg.png;
#LYRICSPATH:CHOTTO.lrc;
#CDTITLE:ee'MALL.png;
#MUSIC:CHOTTO.mp3;
#OFFSET:-6.380;
#SAMPLESTART:40.183;
#SAMPLELENGTH:12.000;
#SELECTABLE:YES;
#BPMS:0.000=78.000,112.000=73.000,114.000=70.000;
#STOPS:;
#BGCHANGES:;

//---------------dance-single - ----------------
#NOTES:
     dance-single:
     :
     Easy:
     1:
     0.112,0.115,0.129,0.010,0.000:
1001
1000
0000
0000
,
0001
0000
0000
0000
,
0001
0001
0001
0000
,
0100
0100
0100
0000
,
0110
0000
0110
0000
,
0010
0010
0010
0000
,
1000
0000
0000
0000
,
1000
0000
0001
1000
,
1001
0000
0000
0000
,
0110
0000
0000
0000
,
1001
0000
0000
0000
,
1000
1000
1000
0000
,
0100
0100
0100
0000
,
0110
0000
0110
0000
,
0010
0010
0010
0000
,
0001
0000
0001
1000
,
0001
0000
0010
0000
,
1001
0000
0000
0000
,
0110
0000
0000
0000
,
1001
1000
1000
1000
,
1000
0000
0000
0000
,
0001
0001
0001
0001
,
0001
0000
0110
0000
,
1001
0000
0000
0000
,
1000
0001
1000
0000
,
0001
1000
0001
0000
,
0100
0010
0100
0000
,
0010
0100
0010
0000
,
1000
0000
0002
0000
,
0003
0000
0000
0000
;

//---------------dance-single - ----------------
#NOTES:
     dance-single:
     :
     Medium:
     3:
     0.185,0.201,0.277,0.040,0.000:
1001
0001
0001
0010
,
0100
0000
0000
1100
0000
0000
0000
0000
,
1000
0010
0000
0010
0000
0010
0100
0010
,
0000
1000
0000
1000
0000
1000
0001
1000
,
0001
0001
0000
0000
1000
1000
0000
0000
,
1001
0001
0010
0100
,
1001
0000
1000
0100
,
1000
0001
0010
0001
,
0110
0000
0000
0110
0000
0000
0000
0000
,
1001
0000
0000
1001
0000
0000
0000
0000
,
0220
0000
0000
0330
,
1001
0010
0001
0100
,
0010
1000
0100
1000
,
0001
1000
1000
0000
0001
0001
0000
0000
,
1001
0100
1000
0100
,
1001
0000
0010
0001
,
0010
0000
0100
0000
1000
0000
0001
1000
,
1000
0000
0000
1001
0000
0000
0000
0000
,
0110
0000
0000
0110
0000
0000
0000
0000
,
0001
0001
0000
0000
0010
0000
0100
0000
,
1000
1000
0000
0000
0100
0000
0010
0000
,
0001
0001
0000
0000
0110
0000
0010
0000
,
1001
0110
1001
0110
,
1001
0000
0000
1001
0000
0000
0000
0000
,
0011
0000
0000
0011
0000
0000
0000
0000
,
1100
0000
0000
1100
0000
0000
0000
0000
,
1010
0000
1000
0010
0000
0000
0000
0000
,
0101
0000
0001
0100
0000
0010
1000
0010
,
2000
0000
0002
0000
,
3003
0000
0000
0000
;

//---------------dance-single - ----------------
#NOTES:
     dance-single:
     :
     Hard:
     5:
     0.270,0.244,0.346,0.139,0.010:
1000
0001
2000
0000
0000
3001
0010
0100
,
0110
0000
0000
0101
0000
0000
1000
0000
,
0001
0100
0000
0100
0000
0100
0010
1000
,
0000
1000
0000
1000
0000
0001
0100
0001
,
0100
0110
0000
0000
1000
1001
0000
0001
,
1000
0100
1000
0100
0010
0001
0010
0000
,
1001
0000
0000
0001
0100
0001
0100
0001
,
0010
0001
1000
0100
1000
0000
0000
0000
,
1100
0000
0010
0022
0000
0000
0033
0000
,
0101
0000
0010
2020
0000
0000
3030
0000
,
2002
0000
0000
0000
3000
0000
1003
0100
,
1000
0001
0001
1000
0100
0000
1001
0000
,
0001
1000
1000
0001
0010
0000
1001
0000
,
0000
1010
1010
0000
0011
0011
0000
0001
,
1000
0100
1000
0001
0100
0001
0100
0000
,
0110
0000
0000
1000
0001
0100
0001
0001
,
1000
0100
1000
1000
0001
0000
0000
0000
,
0101
0000
0010
2020
0000
0000
3030
0000
,
1100
0000
0001
0022
0000
0000
0033
0000
,
1000
1000
0100
0000
1000
0001
1000
0000
,
0001
0001
0010
0000
0001
1000
0001
0000
,
1000
1000
0010
0000
0100
0010
0100
0000
,
0101
0110
1010
0110
,
1001
0000
0001
1100
0000
0000
0000
0000
,
1001
0000
1000
0011
0000
0000
0000
0000
,
1001
0000
1001
0000
0000
0000
0010
1000
0000
0000
0000
0000
1100
0000
0000
0000
,
1001
0000
1001
0000
0000
0000
0100
0001
0000
0000
0010
0000
0010
0000
0100
0000
,
1000
1000
0100
0001
0000
0100
1000
0001
,
0020
0000
0000
0030
2002
0000
0000
0000
,
3003
0000
0000
0000
;

//---------------dance-single - ----------------
#NOTES:
     dance-single:
     :
     Beginner:
     1:
     0.057,0.099,0.089,0.000,0.000:
0001
0000
0000
0000
,
1001
0000
0000
0000
,
1000
0000
0000
0000
,
0100
0000
0000
0000
,
1001
0000
1001
0000
,
0001
0000
0000
0000
,
1001
0000
0000
0000
,
0001
0000
0000
0000
,
0110
0000
0000
0000
,
0110
0000
0000
0000
,
1001
0000
0000
0000
,
1000
0000
0000
0000
,
0001
0000
0000
0000
,
1000
0000
0000
0000
,
1000
0000
0000
0000
,
1000
0000
0000
0000
,
0001
0000
0000
0000
,
1001
0000
0000
0000
,
1001
0000
0000
0000
,
1000
0000
0000
0000
,
0001
0000
0000
0000
,
1000
0000
0000
0000
,
0001
0000
0000
0000
,
0001
0000
0000
0000
,
0100
0000
0000
0000
,
0010
0000
0000
0000
,
1000
0000
0000
0000
,
0001
0000
0000
0000
,
0010
0000
0010
0000
;

//---------------dance-single - ----------------
#NOTES:
     dance-single:
     :
     Challenge:
     7:
     0.404,0.388,0.337,0.148,0.322: // measure 1
1001
1000
0100
0000
0010
0001
1000
0100
,  // measure 2
1100
0000
0001
0100
0000
0001
0200
0000
0000
0000
0000
0000
0310
0000
0000
0000
,  // measure 3
1001
1000
0000
1000
0100
1000
0001
0001
,  // measure 4
0000
0001
0000
0001
0010
0001
1000
1000
,  // measure 5
0110
0000
0110
0000
0000
1000
0100
0010
0001
0000
1001
0000
0000
0000
1000
0001
,  // measure 6
1000
0000
0001
0100
0000
0001
0000
1000
0000
0100
1000
0100
1000
0100
0010
0001
,  // measure 7
2000
0001
3001
0000
0100
0001
1000
0000
,  // measure 8
0100
0001
0100
1000
0100
0010
0001
0100
,  // measure 9
0202
0000
0303
2200
0000
0300
3001
0000
,  // measure 10
0202
0000
0303
2200
0000
0300
3001
0001
,  // measure 11
1001
0000
0000
0000
1000
0000
0000
0000
1000
0000
0000
0001
0010
0001
0010
0100
,  // measure 12
1000
0010
0100
0001
0100
1000
0100
0001
,  // measure 13
0100
0000
0010
0000
1000
0100
1000
0100
0010
0000
0001
0000
0100
0010
0100
0010
,  // measure 14
0100
0000
1100
0000
1100
0000
0000
0000
0011
0000
0011
0000
0000
0010
0001
0010
,  // measure 15
0001
0100
0010
0000
0100
0010
1000
0000
0010
0100
0010
0100
0010
0100
0010
0100
,  // measure 16
0020
0000
1000
0000
1030
0000
0010
0100
0010
0000
0100
0001
0010
0000
0001
1000
,  // measure 17
0001
0000
0010
0000
0100
0000
1000
0001
1000
0000
0010
0000
0100
0000
0000
0000
,  // measure 18
1100
0000
0000
0000
0001
0100
0101
0000
0000
0000
0000
0000
0100
0000
0000
0000
,  // measure 19
0101
0000
0000
0000
1000
0100
1100
0000
0000
0000
0000
0000
0001
0010
0100
1000
,  // measure 20
0001
0000
0011
0000
0100
0010
0100
0000
0001
1000
0001
0000
0010
0000
0100
0000
,  // measure 21
1000
0000
1100
0000
0010
0100
0010
0000
1000
0001
1000
0000
0100
0000
0010
0000
,  // measure 22
0001
0000
0011
0000
0100
0010
0100
0001
1000
0000
0100
0000
0010
0000
0001
0000
,  // measure 23
1001
0101
1100
0011
,  // measure 24
1001
0000
0000
1000
0010
0100
0001
0000
0000
0001
0010
0100
1000
0100
0010
0001
,  // measure 25
1000
0010
0000
0010
0000
0000
1000
0001
0000
0100
0001
0100
0000
0100
0000
0000
,  // measure 26
1100
0000
1100
0000
0000
0001
0010
0100
1000
0010
0000
0010
0000
1000
0100
0010
,  // measure 27
0001
0000
0011
0000
1000
0100
0010
0001
0000
0100
0000
0010
0100
0001
0010
0100
,  // measure 28
1000
1100
0001
1001
0000
0100
0010
0001
,  // measure 29
2200
0000
0000
3300
0202
0000
0000
0000
,  // measure 30
0303
0000
0000
0000
;
