#TITLE:CHAIN;
#SUBTITLE:;
#ARTIST:RAM;
#TITLETRANSLIT:;
#SUBTITLETRANSLIT:;
#ARTISTTRANSLIT:;
#CREDIT:DMAxel;
#BANNER:CHAIN.png;
#BACKGROUND:CHAIN-bg.png;
#LYRICSPATH:;
#CDTITLE:beatmania.png;
#MUSIC:CHAIN.mp3;
#OFFSET:-3.620;
#SAMPLESTART:16.174;
#SAMPLELENGTH:12.000;
#SELECTABLE:YES;
#BPMS:0.000=152.000;
#STOPS:;
#BGCHANGES:;

//---------------dance-single - ----------------
#NOTES:
     dance-single:
     :
     Easy:
     3:
     0.206,0.289,0.202,0.051,0.000: // measure 1
1001
0001
0100
0000
,  // measure 2
0000
0000
0000
0000
,  // measure 3
1001
1000
0010
0000
,  // measure 4
0000
0000
0000
0000
,  // measure 5
1001
0001
0010
0000
,  // measure 6
0000
0000
0000
0000
,  // measure 7
1001
1000
0100
0000
,  // measure 8
2002
0000
0000
3003
,  // measure 9
0110
0100
0000
0000
,  // measure 10
1000
0000
0000
0000
,  // measure 11
0110
0010
0000
0000
,  // measure 12
0001
0000
1000
0000
,  // measure 13
0110
0010
0000
0000
,  // measure 14
1000
0000
0001
0000
,  // measure 15
0110
0100
0100
0100
,  // measure 16
0002
0000
0000
0000
,  // measure 17
1003
0000
1000
0000
,  // measure 18
1000
0000
1000
0000
,  // measure 19
0010
0000
0010
0000
,  // measure 20
0100
0000
0000
0000
,  // measure 21
0001
0000
0001
0000
,  // measure 22
0001
0000
0010
0000
,  // measure 23
0010
0000
0100
0000
,  // measure 24
0100
0000
1000
0000
,  // measure 25
1000
0000
0001
0000
,  // measure 26
1000
0000
0001
0000
,  // measure 27
0100
0000
0010
0000
,  // measure 28
0100
0000
0000
0000
,  // measure 29
0110
0000
1000
0000
,  // measure 30
1001
0001
0001
0001
,  // measure 31
1000
0000
0000
0000
,  // measure 32
0010
0000
0100
0000
,  // measure 33
0010
0000
1000
0000
,  // measure 34
0010
0000
1000
0000
,  // measure 35
0010
0000
0000
0000
,  // measure 36
0100
0000
0010
0000
,  // measure 37
0100
0000
0001
0000
,  // measure 38
0100
0000
0000
0000
,  // measure 39
1001
0001
0010
0001
,  // measure 40
0010
0000
0100
0000
,  // measure 41
1001
1000
0100
1000
,  // measure 42
0100
0000
0010
0000
,  // measure 43
1001
0001
0100
0001
,  // measure 44
0100
0000
0010
0000
,  // measure 45
1001
1000
0010
1000
,  // measure 46
0020
0000
0030
1001
;

//---------------dance-single - ----------------
#NOTES:
     dance-single:
     :
     Medium:
     6:
     0.361,0.521,0.443,0.164,0.006: // measure 1
1000
0001
1000
0000
0100
0000
0001
0000
,  // measure 2
0100
0110
0000
0000
,  // measure 3
0001
1000
0001
0000
0100
0000
1000
0000
,  // measure 4
0100
0110
0000
0000
,  // measure 5
1000
0100
1000
0000
0100
0000
0001
0000
,  // measure 6
0100
0110
0000
0000
,  // measure 7
0001
0010
0001
0000
0010
0000
1000
0000
,  // measure 8
0010
0000
0000
0000
,  // measure 9
0101
0000
0001
0000
0000
0100
0000
0000
,  // measure 10
2002
0000
0000
3003
,  // measure 11
1010
0000
1000
0000
0000
0010
0000
0000
,  // measure 12
2002
0000
0000
3003
,  // measure 13
0100
1000
0100
0000
0000
1000
0000
0000
,  // measure 14
0001
0000
0000
0110
0000
0000
0100
0000
,  // measure 15
0001
0000
1000
0000
0001
0000
0000
0100
0000
0000
0100
0000
0000
0000
0000
0000
,  // measure 16
0010
0010
0010
0010
,  // measure 17
1001
0000
0000
1000
0000
0000
1000
0000
,  // measure 18
0010
0000
0000
0000
0010
0000
0000
0010
,  // measure 19
0100
0000
0000
0100
0000
0000
0100
0000
,  // measure 20
0001
0001
0001
0001
,  // measure 21
1001
0000
0001
0100
0000
0100
0000
0100
,  // measure 22
0000
0000
0010
0000
0000
1000
0000
0000
,  // measure 23
1000
0010
0000
0000
0020
0000
0000
0000
,  // measure 24
1030
0100
0010
0001
,  // measure 25
1000
0100
1000
0100
0000
0100
0000
0100
,  // measure 26
0000
0000
1000
0000
0000
0001
0000
0000
,  // measure 27
0001
0010
0000
0000
0020
0000
0000
0000
,  // measure 28
0130
1000
0001
1000
,  // measure 29
0110
0110
1001
1001
,  // measure 30
1100
0101
1100
0101
,  // measure 31
2002
0000
0000
3003
,  // measure 32
0100
1000
0100
0000
0100
0000
1001
0000
,  // measure 33
0001
0011
0100
1000
,  // measure 34
0110
0000
0000
0000
,  // measure 35
0010
0001
0000
0010
0001
0010
0000
0000
,  // measure 36
1001
1000
1100
0010
,  // measure 37
0001
1001
1000
1001
,  // measure 38
0220
0000
0000
0330
,  // measure 39
1001
0000
1001
0000
0000
0100
0000
0000
,  // measure 40
1000
0000
0000
0020
0000
0000
0130
0000
,  // measure 41
1001
0000
1001
0000
0000
0010
0000
0000
,  // measure 42
0001
0000
0000
0200
0000
0000
0310
0000
,  // measure 43
1000
0001
1000
0000
0000
0010
0000
0000
,  // measure 44
1010
0000
0000
0200
0000
0000
0310
0000
,  // measure 45
0001
0010
0100
1000
0000
0000
0000
0000
,  // measure 46
1100
0000
0000
0011
0000
0000
1001
0000
;

//---------------dance-single - ----------------
#NOTES:
     dance-single:
     :
     Hard:
     7:
     0.490,0.524,0.430,0.266,0.076: // measure 1
0100
0000
0001
0000
0100
0000
0000
0002
0000
0000
0000
0000
1003
0000
0000
0000
,  // measure 2
0110
0110
0001
1000
,  // measure 3
0010
0000
1000
0000
0010
0000
0000
2000
0000
0000
0000
0000
3001
0000
0000
0000
,  // measure 4
0110
0110
1000
0001
,  // measure 5
0010
0000
0001
0000
0010
0000
0000
0002
0000
0000
0000
0000
1003
0000
0000
0000
,  // measure 6
0110
0001
1000
0000
,  // measure 7
0100
0000
1000
0000
0100
0000
0000
2000
0000
0000
0000
0000
3001
0000
0000
0000
,  // measure 8
0220
0000
0000
0330
,  // measure 9
0001
0010
0001
0000
1000
0100
0010
0000
,  // measure 10
0101
0000
0000
0200
0000
0000
0310
0000
,  // measure 11
1000
0100
1000
0000
0001
0010
0100
0000
,  // measure 12
1010
0000
0000
0020
0000
0000
0130
0000
,  // measure 13
0001
0000
0010
0000
0001
0000
0000
0000
0000
0000
0100
0000
0000
0010
0000
0000
,  // measure 14
0100
0000
0000
0002
0000
0000
1003
0000
,  // measure 15
0001
0000
0010
0000
0100
0000
0000
0100
0000
0000
0100
0000
0000
0000
0000
0000
,  // measure 16
0100
0100
0100
0100
,  // measure 17
1001
0000
0000
0001
0000
0000
0100
0000
0000
0010
0000
0000
0100
0000
0000
0000
,  // measure 18
0000
0000
0001
0000
0000
1000
0000
0000
0010
0000
0000
1000
0000
0000
0010
0000
,  // measure 19
0100
0001
0010
0000
0100
1000
0010
0000
,  // measure 20
0010
0010
0010
0110
,  // measure 21
0001
0010
0100
2000
0000
0010
0000
3010
,  // measure 22
0000
0010
0100
0000
0100
0001
0000
0001
,  // measure 23
1000
0001
0000
1000
0100
0010
0002
0000
,  // measure 24
0000
0000
0103
0010
0000
0010
1000
0000
,  // measure 25
1000
0100
0010
0002
0000
0100
0000
0103
,  // measure 26
0000
0100
0010
0000
0010
1000
0000
1000
,  // measure 27
0001
1000
0000
0001
0010
0100
1000
0000
,  // measure 28
1100
0101
1100
0101
,  // measure 29
0010
0100
0010
0100
0010
0100
0010
0100
,  // measure 30
1010
0011
1010
0011
,  // measure 31
2002
0000
0000
3003
,  // measure 32
0100
0001
0010
0000
0100
1000
0010
0000
,  // measure 33
1000
0100
0001
0100
1000
0010
0100
0000
,  // measure 34
0110
0000
0010
0000
1000
0100
0010
0001
,  // measure 35
0100
0010
0000
1000
0001
0010
0010
0000
,  // measure 36
0001
0010
0100
0000
1000
0100
0010
0000
,  // measure 37
1001
1001
1001
0110
,  // measure 38
0220
0000
0000
0330
,  // measure 39
1001
0000
1001
0000
1000
0001
0000
0001
,  // measure 40
0010
0100
1000
0020
0000
0000
0130
0000
,  // measure 41
1001
0000
1001
0000
0001
1000
0000
1000
,  // measure 42
0010
0100
0001
0020
0000
0000
0130
0000
,  // measure 43
0001
0000
0001
0000
0001
0000
0000
0000
0000
0000
0101
0000
0000
0100
0000
0000
,  // measure 44
0110
0000
0000
2000
0000
0000
3100
0000
,  // measure 45
1000
0000
1000
0000
0010
0000
0000
0110
0000
0000
0110
0000
0000
0000
0000
0000
,  // measure 46
1000
0100
0000
0001
0100
0000
2002
0000
,  // measure 47
3003
0000
0000
0000
;

//---------------dance-single - ----------------
#NOTES:
     dance-single:
     :
     Beginner:
     1:
     0.067,0.116,0.063,0.000,0.000:
0001
0000
0000
0000
,
0000
0000
0000
0000
,
1000
0000
0000
0000
,
0000
0000
0000
0000
,
0001
0000
0000
0000
,
0000
0000
0000
0000
,
1000
0000
0000
0000
,
0000
0000
0000
0000
,
0010
0000
0000
0000
,
0000
0000
0000
0000
,
0010
0000
0000
0000
,
0000
0000
0000
0000
,
0100
0000
0000
0000
,
0000
0000
0000
0000
,
0100
0000
0000
0000
,
0001
0000
0000
0000
,
1001
0000
0000
0000
,
0000
0000
0000
0000
,
0001
0000
0000
0000
,
0001
0000
0000
0000
,
1000
0000
0000
0000
,
0000
0000
0000
0000
,
0100
0000
0000
0000
,
0000
0000
0000
0000
,
0010
0000
0000
0000
,
0000
0000
0000
0000
,
0001
0000
0000
0000
,
1000
0000
0000
0000
,
1001
0000
0000
0000
,
0000
0000
0000
0000
,
0001
0000
0000
0000
,
1001
0000
0000
0000
,
1000
0000
0000
0000
,
0001
0000
0000
0000
,
1001
0000
0000
0000
,
0001
0000
0000
0000
,
1000
0000
0000
0000
,
1001
0000
0000
0000
,
0010
0000
0000
0000
,
0000
0000
0000
0000
,
0010
0000
0000
0000
,
0000
0000
0000
0000
,
0100
0000
0000
0000
,
0000
0000
0000
0000
,
0100
0000
0000
0000
,
0001
0000
0000
1000
;

//---------------dance-single - ----------------
#NOTES:
     dance-single:
     :
     Challenge:
     8:
     0.609,0.611,0.443,0.114,0.367: // measure 1
1000
0000
0100
0000
1000
0000
0001
1000
0000
0100
0000
0010
0000
0000
0000
0000
,  // measure 2
1001
0000
0000
0000
1001
0000
0000
1000
0000
0100
0000
0010
0000
0000
0000
0000
,  // measure 3
0001
0000
0100
0000
0001
0000
1000
0001
0000
0010
0000
0100
0000
0000
0000
0000
,  // measure 4
1001
0000
0000
0000
1001
0000
0000
1000
0000
0001
0000
0100
0010
0100
0010
0100
,  // measure 5
0001
0000
1000
0000
0100
0000
1000
0001
0000
0100
0000
0010
0000
0000
0000
0000
,  // measure 6
1001
0000
0000
0000
1001
0000
0000
0001
0000
0010
0000
0100
0000
0000
0000
0000
,  // measure 7
1000
0000
0001
0000
0010
0000
0001
1000
0000
0010
0000
0100
0000
0000
0000
0000
,  // measure 8
2002
0000
0000
3003
,  // measure 9
0001
1000
0100
0000
1000
0100
0001
0000
,  // measure 10
0100
1000
0100
0010
0001
0100
0110
0000
,  // measure 11
0100
0001
0010
0000
0001
0010
1000
0000
,  // measure 12
0010
0001
0100
0010
1000
0100
0110
0000
,  // measure 13
0100
0000
0100
0000
1001
0000
0000
0000
0000
0000
0101
0000
0000
0101
0000
0000
,  // measure 14
1001
0000
0100
0010
0001
1000
1010
0000
,  // measure 15
0010
0000
0010
0000
0010
0000
0000
0011
0000
0000
0100
1000
0100
1000
0100
0000
,  // measure 16
0001
0000
0000
0000
0100
0000
0000
0000
1000
0001
1000
0001
1000
0001
1000
0000
,  // measure 17
1010
0000
0000
1010
0000
0000
0110
0000
0000
0101
0000
0000
0101
0000
0000
0000
,  // measure 18
0000
0000
1001
0000
0000
0101
0000
0000
1000
0000
0000
1100
0000
0000
0000
0000
,  // measure 19
0100
0000
0100
0000
0100
0000
0000
0010
0000
0010
0000
0010
1000
0000
0001
0010
,  // measure 20
0001
0011
1100
1001
,  // measure 21
0001
0100
1000
0200
0000
0001
0000
0310
,  // measure 22
1000
0100
0010
0000
0010
0001
0000
0001
,  // measure 23
1000
0100
0000
1000
0100
0001
0100
1000
,  // measure 24
0010
0000
0000
0000
0010
0000
0100
0000
0000
0000
0100
0000
0001
1000
0001
0000
,  // measure 25
1000
0100
0001
0200
0000
1000
0000
0310
,  // measure 26
1000
0100
0010
0000
0010
0001
0000
0001
,  // measure 27
1000
0100
0000
1000
0100
0001
0100
1000
,  // measure 28
0010
0000
0000
0000
0110
0000
0000
0000
0010
0000
0100
0010
0000
0000
1000
0000
,  // measure 29
0100
0001
0100
1000
0001
0010
1000
0010
,  // measure 30
0001
0100
0001
0000
1000
0100
1000
0000
0001
0010
0001
0000
1000
0010
1000
0000
,  // measure 31
0001
0000
0000
0001
0000
0000
0100
0000
,  // measure 32
0100
0000
0000
0100
0010
0000
0000
0010
1000
0000
0000
1000
0001
0000
0100
0000
,  // measure 33
0100
0000
0010
0000
0010
0000
0000
0010
0100
0000
0000
0100
0001
0000
0000
0000
,  // measure 34
1001
0000
0000
0000
1000
0000
0000
0000
0001
0000
1000
0000
0010
0100
0010
0100
,  // measure 35
0010
1000
0000
1000
0001
0001
0100
0000
,  // measure 36
0100
0000
0000
0100
0001
0000
0000
0001
1000
0000
0010
0000
0100
0000
0000
0000
,  // measure 37
0001
0010
1000
0010
0001
0100
1000
0100
,  // measure 38
0001
0000
0000
0000
0001
0000
0000
0000
1000
0000
0000
1000
0000
0001
0100
0000
,  // measure 39
0001
0010
0100
0000
1000
0100
0000
0100
,  // measure 40
0010
0001
1000
0020
0000
0000
0130
0000
,  // measure 41
1001
0000
1001
0000
0001
0100
0000
0100
,  // measure 42
0010
1000
0100
0020
0000
0000
0130
0000
,  // measure 43
1000
0000
1000
0000
1000
0000
0000
0000
0000
0000
1010
0000
0000
1010
0000
0000
,  // measure 44
0110
0000
0100
0220
0000
0330
0110
0000
,  // measure 45
0001
0000
0001
0000
0001
0000
1000
0010
0000
0010
0100
0000
0000
0000
0000
0000
,  // measure 46
0001
0001
0100
1000
1000
0100
0002
0000
,  // measure 47
0003
0000
0000
0000
;
