#TITLE:Birds;
#SUBTITLE:-AMETHYST mix-;
#ARTIST:Sana Remixed 伸也 from AMETHYSTGRP;
#TITLETRANSLIT:;
#SUBTITLETRANSLIT:;
#ARTISTTRANSLIT:Sana Remixed SHINYA from AMETHYSTGRP;
#CREDIT:DigiMindAxel;
#BANNER:Birds -AMETHYST mix-.png;
#BACKGROUND:Birds -AMETHYST mix--bg.png;
#LYRICSPATH:Birds -AMETHYST mix-.lrc;
#CDTITLE:Konami original REMIX.png;
#MUSIC:Birds -AMETHYST mix-.mp3;
#OFFSET:-10.100;
#SAMPLESTART:43.179;
#SAMPLELENGTH:12.000;
#SELECTABLE:YES;
#BPMS:0.000=145.000;
#STOPS:;
#BGCHANGES:;

//---------------dance-single - ----------------
#NOTES:
     dance-single:
     :
     Easy:
     3:
     0.258,0.232,0.078,0.258,0.000:
1000
0001
1000
0020
,
0200
0000
0000
0330
,
0001
1000
0001
0200
,
0020
0000
0000
0330
,
1000
0100
0010
0001
,
1000
0010
1000
0010
,
1000
0100
0010
0001
,
1000
0010
1000
0010
,
0100
0001
0100
0001
,
0010
0100
1000
0001
,
0100
0001
0100
0001
,
2000
0000
0000
0000
,
3001
0010
0001
0022
,
0000
0000
0033
0001
,
1000
0100
1000
2200
,
0000
0000
3300
1000
,
0001
0100
0001
0202
,
0000
0000
0303
0001
,
1000
0010
1000
2020
,
0000
0000
3030
0000
,
1000
0100
1000
0100
,
0010
0001
0010
0001
,
0100
0010
0100
0010
,
1000
0001
1000
0100
,
0020
0000
0001
0000
,
0001
0000
0031
0010
,
0100
1000
0010
0100
,
0020
0000
0000
0000
,
1030
0010
1000
0010
,
0100
0001
0100
0001
,
0100
0010
0100
0010
,
1000
0001
1000
0010
,
0200
0000
0001
0000
,
0001
0000
0301
0010
,
0100
1000
0010
0100
,
0020
0000
0000
0000
,
0130
0010
0000
0110
,
0100
0000
1001
0001
,
0000
1001
1000
0000
,
0001
0000
1000
0010
,
0200
0000
0000
0001
,
0002
0300
0000
1000
,
2003
0000
0000
3002
0000
0000
2003
0000
,
0000
0000
0000
0000
,
3001
0010
0200
0000
,
0000
0000
0000
0000
,
0300
0000
0000
0000
;

//---------------dance-single - ----------------
#NOTES:
     dance-single:
     :
     Medium:
     6:
     0.394,0.387,0.112,0.213,0.000:
0001
1000
0001
0000
1000
0000
0100
0000
,
0020
0001
0001
0031
,
1000
0001
1000
0000
0001
0000
0010
0000
,
0200
1000
1000
1300
,
1001
0010
0100
1000
,
0001
0100
0001
0000
1000
0100
1000
0000
,
0001
0010
0100
1000
,
0001
0010
0001
0000
1000
0010
1000
0000
,
0010
0100
0010
1000
,
0100
0010
0100
0000
1000
0001
1000
0000
,
0010
0100
0010
1000
,
0002
1000
1000
1003
,
1001
0000
0100
1000
0010
0000
0120
0000
,
0100
0100
0130
1000
,
1001
0000
0010
0001
0100
0000
0210
0000
,
0010
0010
0310
0001
,
1001
0000
0100
1000
0010
0000
0120
0000
,
0100
0100
0130
1000
,
1001
0000
0010
0001
0100
0000
0210
0000
,
0010
0000
0010
0000
0310
1000
0001
0000
,
0010
0001
0010
0000
0100
0000
0010
0001
,
0000
1000
0000
0100
0000
1000
0000
0002
,
0000
1000
2003
0000
0100
0000
0100
0000
,
0001
0000
0001
0000
3001
0000
0001
0100
,
0020
1000
1000
1030
,
0100
0000
0001
0000
0100
0000
1000
0010
,
0100
0000
0001
0010
0100
0000
1000
0001
,
2000
0001
0001
3001
,
0100
1000
0100
0000
0010
0000
0100
1000
,
0000
0001
0000
0010
0000
0001
0000
2000
,
0000
0001
3002
0000
0100
0000
0100
0000
,
1000
0000
1000
0000
1003
0000
1000
0010
,
0200
0001
0001
0301
,
0100
0000
1000
0000
0100
0000
0001
0010
,
0100
0000
1000
0001
0000
1000
0001
0000
,
1000
0001
2000
0000
0001
0000
0001
0000
,
3001
0010
0100
1000
0000
0000
0100
0010
,
0001
1000
0000
0000
0001
0010
0100
1000
,
0000
0000
0100
0010
0001
1000
0010
0000
,
0100
0000
0010
0000
1000
0000
0001
0010
,
0200
0000
1000
0000
1300
0100
0010
0001
,
0020
0000
0001
0000
0031
0010
0100
1000
,
0001
0000
0100
0010
0000
1000
0001
0000
,
1002
1000
1000
1003
,
0100
1000
0010
0100
0002
0000
0000
0000
,
0000
0000
0000
0000
,
0003
0000
0000
0000
;

//---------------dance-single - ----------------
#NOTES:
     dance-single:
     :
     Hard:
     7:
     0.516,0.490,0.235,0.247,0.017: // measure 1
1000
0010
0100
0001
0010
0100
0010
0000
,  // measure 2
0210
0001
0001
0301
,  // measure 3
0001
0100
0010
1000
0100
0010
0100
0000
,  // measure 4
0120
0000
1030
0001
0001
1000
1000
0100
,  // measure 5
0010
0001
0100
0001
0010
0000
1100
0000
,  // measure 6
0001
0100
1000
0100
0002
0000
1003
0000
,  // measure 7
0100
1000
0010
1000
0100
0000
0011
0000
,  // measure 8
1000
0100
0001
0100
2000
0000
3001
0000
,  // measure 9
0100
0001
0010
0001
0100
0000
1010
0000
,  // measure 10
0001
0100
1000
0100
0002
0000
1003
0000
,  // measure 11
0010
1000
0100
1000
0010
0000
0101
0000
,  // measure 12
0120
1000
1000
1030
,  // measure 13
0001
0001
1000
0100
0001
0000
0110
1000
,  // measure 14
0100
0010
0001
0010
0100
0000
1001
0000
,  // measure 15
1000
1000
0001
0100
1000
0000
0110
0001
,  // measure 16
0010
0100
1000
0100
0010
0000
1001
0000
,  // measure 17
0001
0001
1000
0100
0001
0000
0110
1000
,  // measure 18
0100
0010
0001
0010
0100
0000
1001
0000
,  // measure 19
1000
0000
1000
0000
0001
0000
0100
0000
1000
0100
0000
0000
1001
0000
0000
0000
,  // measure 20
1000
0001
1000
0000
0001
1000
0001
0000
0010
0000
0100
0000
1000
0000
0001
0000
,  // measure 21
1000
0100
1000
0001
0010
0001
1000
0100
,  // measure 22
0001
0100
0000
0011
0000
1001
0000
1000
,  // measure 23
0001
0010
0100
1000
0001
0000
1001
0000
,  // measure 24
1000
0100
0010
0001
1000
0000
0001
0100
,  // measure 25
2000
0100
0001
0100
,  // measure 26
3001
0010
0100
1000
0001
0000
1000
0020
,  // measure 27
0000
1030
0001
0200
0000
0310
1000
0001
,  // measure 28
1000
1000
0100
0100
0001
0100
2000
0000
,  // measure 29
3001
0010
0001
1000
0100
1000
0001
0100
,  // measure 30
1000
0100
0000
1010
0000
1001
0000
0001
,  // measure 31
1000
0100
0010
0001
1000
0000
1001
0000
,  // measure 32
0001
0010
0100
1000
0001
0000
1000
0100
,  // measure 33
0002
0100
1000
0100
,  // measure 34
1003
0100
0010
0001
1000
0000
0001
0010
,  // measure 35
0200
0000
1300
0020
0000
0130
0002
0000
,  // measure 36
0013
0100
1000
0010
0100
0001
0010
0100
,  // measure 37
1000
0100
0001
0200
0000
0000
1300
0010
,  // measure 38
0001
0020
0000
0000
1030
0100
0010
0002
,  // measure 39
0000
0000
0013
0100
1000
0001
0100
0000
,  // measure 40
0001
0010
0100
1000
0001
0000
1000
0100
,  // measure 41
0002
0000
0100
0000
1003
0100
0010
0001
,  // measure 42
2000
0000
0100
0000
3001
0100
1000
0100
,  // measure 43
0020
0000
1030
0002
0000
0013
0100
0000
,  // measure 44
1001
0000
0100
1000
0010
0100
0001
0000
,  // measure 45
0010
0010
0100
0100
2000
0000
0000
0000
,  // measure 46
0000
0000
0000
0000
,  // measure 47
3000
0000
0000
0000
;

//---------------dance-single - ----------------
#NOTES:
     dance-single:
     :
     Beginner:
     1:
     0.086,0.100,0.112,0.000,0.000:
1000
0000
0000
0000
,
1001
0000
0000
0000
,
0001
0000
0000
0000
,
1001
0000
0000
0000
,
1000
0000
0000
0000
,
1000
0000
0000
0000
,
0001
0000
0000
0000
,
0001
0000
0000
0000
,
0100
0000
0000
0000
,
0100
0000
0000
0000
,
0010
0000
0000
0000
,
0110
0000
0000
0000
,
1000
0000
0000
1001
,
0000
0000
0000
0000
,
0001
0000
0000
1001
,
0000
0000
0000
0000
,
1000
0000
0000
1001
,
0000
0000
0000
0000
,
0001
0000
0000
1001
,
0000
0000
0000
0000
,
1000
0000
0000
0000
,
1000
0000
0000
0000
,
0001
0000
0000
0000
,
0001
0000
0000
0000
,
0110
0000
0000
0000
,
0000
0000
0000
0000
,
1000
0000
0000
0000
,
0001
0000
0000
0000
,
1000
0000
0000
0000
,
1000
0000
0000
0000
,
0001
0000
0000
0000
,
0001
0000
0000
0000
,
0110
0000
0000
0000
,
0000
0000
0000
0000
,
0001
0000
0000
0000
,
1000
0000
0000
0000
,
0010
0000
0000
0010
,
0000
0000
0100
0000
,
0000
0100
0000
0000
,
0000
0000
0000
0000
,
0001
0000
0000
0000
,
1000
0000
0000
0000
,
0001
0000
0000
1000
,
0000
0000
0000
0000
,
0010
0000
0110
0000
;

//---------------dance-single - ----------------
#NOTES:
     dance-single:
     :
     Challenge:
     8:
     0.567,0.542,0.135,0.269,0.090: // measure 1
0001
0000
0001
0000
1000
0000
0100
1000
0100
0000
0010
0000
0100
0000
1000
0000
,  // measure 2
0001
0100
0001
0100
0001
0100
0001
0100
,  // measure 3
0001
0000
0001
0000
1000
0000
0100
1000
0100
0000
0010
0000
0100
0000
1000
0000
,  // measure 4
0001
0000
0100
0001
0100
0000
0010
0000
1000
0000
0001
1000
0001
1000
0001
0000
,  // measure 5
1000
0100
0010
0100
1000
0000
1002
0000
,  // measure 6
0013
0100
1000
0001
0100
0010
0100
0000
,  // measure 7
0001
0010
0100
0010
0001
0000
2001
0000
,  // measure 8
3100
0010
0001
1000
0010
0100
0010
0000
,  // measure 9
1000
0100
0010
0100
1000
0000
2001
0000
,  // measure 10
3001
0010
0100
1000
0010
0100
0010
1000
,  // measure 11
0001
0010
0100
0010
0001
0000
2001
0000
,  // measure 12
3010
0100
0010
0100
0010
0100
0010
0100
,  // measure 13
0001
0000
0010
0000
0100
0000
1000
0100
1000
0000
0010
0000
0110
0000
0000
0000
,  // measure 14
0010
0100
1000
0100
0010
0000
1001
0000
,  // measure 15
1000
0000
0100
0000
0010
0000
0001
0100
0001
0000
0000
0000
0110
0000
0000
0000
,  // measure 16
0100
0010
0001
0010
0100
0000
1001
0000
,  // measure 17
0010
0000
0100
0000
1000
0000
0001
0100
0001
0000
0000
0000
1001
0000
0000
0000
,  // measure 18
0001
0100
1000
0100
0001
0000
1001
0000
,  // measure 19
0100
0000
0010
0000
0001
0000
1000
0010
1000
0001
0000
0000
1001
0000
0000
0000
,  // measure 20
0001
1000
0001
1000
0001
1000
0001
0000
0010
0000
0100
0000
1000
0000
0001
0000
,  // measure 21
0100
0010
0100
0001
0010
0001
1000
0100
,  // measure 22
0010
0200
0000
2300
0000
3002
0000
1003
,  // measure 23
0100
0010
0001
1000
0100
1000
0010
0000
,  // measure 24
0100
0001
0010
0001
1000
0100
0010
0001
,  // measure 25
0001
0010
0100
0010
0001
0100
0001
0000
,  // measure 26
0010
0100
1000
0010
1000
0100
0010
0002
,  // measure 27
0000
0013
0100
2000
0000
3100
0010
0001
,  // measure 28
1000
0000
0010
0000
0100
0000
0001
1000
0001
1000
0001
0000
1000
0000
1000
0000
,  // measure 29
0010
0100
0010
1000
0100
1000
0001
0010
,  // measure 30
0100
0020
0000
0032
0000
2003
0000
3001
,  // measure 31
0010
0100
1000
0001
0010
0001
1000
0000
,  // measure 32
0100
1000
0010
0100
0001
0010
0100
1000
,  // measure 33
1000
0100
0010
0100
1000
0010
0100
0000
,  // measure 34
0001
0010
0100
0010
0001
0100
0010
2000
,  // measure 35
0000
3100
0010
0002
0000
0103
0020
0000
,  // measure 36
1030
0020
0000
0130
0001
1000
0100
0010
,  // measure 37
0001
0100
1000
0200
0000
0000
0301
0100
,  // measure 38
1000
0200
0000
0000
0301
0100
1000
0200
,  // measure 39
0000
0000
0301
0100
1000
0100
0001
0100
,  // measure 40
0010
0000
1000
0010
0100
0000
0001
2000
,  // measure 41
0100
0000
0100
0000
3100
0010
0001
0200
,  // measure 42
0001
0000
0001
0000
0301
0010
0100
1000
,  // measure 43
0020
0000
1030
0002
0000
0013
0100
1000
,  // measure 44
1001
0000
0001
0010
0100
1000
0010
0000
,  // measure 45
0100
0000
0010
0100
0010
0000
1000
0000
0002
0000
0000
0000
0000
0000
0000
0000
,  // measure 46
0000
0000
0000
0000
,  // measure 47
0003
0000
0000
0000
;
