#TITLE:Beyond The Earth;
#SUBTITLE:;
#ARTIST:猫叉Master;
#TITLETRANSLIT:;
#SUBTITLETRANSLIT:;
#ARTISTTRANSLIT:Nekomata Master;
#CREDIT:DigiMindAxel;
#BANNER:Beyond The Earth.png;
#BACKGROUND:Beyond The Earth-bg.png;
#LYRICSPATH:;
#CDTITLE:pop'n music.png;
#MUSIC:Beyond The Earth.mp3;
#OFFSET:-9.816;
#SAMPLESTART:30.377;
#SAMPLELENGTH:12.000;
#SELECTABLE:YES;
#BPMS:0.000=140.000;
#STOPS:;
#BGCHANGES:-21.000=Beyond The Earth.AVI=1.000=1=1=0,
99999=-nosongbg-=1.000=0=0=0 // don't automatically add -songbackground-
;

//---------------dance-single - ----------------
#NOTES:
     dance-single:
     :
     Easy:
     3:
     0.216,0.233,0.094,0.383,0.000:
0002
0000
0000
0000
,
1003
0010
1000
0000
,
2000
0000
0000
3000
,
1001
0000
0001
0000
,
2000
0000
0000
0000
,
3001
0100
0001
0000
,
0002
0000
0000
0003
,
1001
0000
1000
0000
,
0020
0000
0100
0000
,
0130
0001
0100
0000
,
0020
0000
0130
0000
,
0110
0000
0000
0000
,
2000
0000
0000
0000
,
3200
0000
0000
0000
,
0320
0000
0000
0000
,
0032
0000
1003
0000
,
0002
0000
0000
0000
,
0203
0000
0000
0000
,
0320
0000
0000
0000
,
2030
0000
3001
0000
,
0200
0000
0302
0000
,
2003
0000
3010
0100
,
0020
0000
2030
0000
,
0002
0000
3003
0000
,
0020
0000
2030
0000
,
3002
0000
0103
0010
,
0200
0000
0000
0000
,
0020
0000
0000
0330
,
1001
0000
0010
0100
,
2000
0000
3001
0000
,
0020
0000
0230
0000
,
1300
0000
1001
0000
,
1001
0000
0100
0010
,
0002
0000
1003
0000
,
0020
0000
1030
0100
,
0020
0000
0030
0000
,
0001
1000
0001
0000
,
0100
0001
0100
0000
,
0010
1000
0010
0000
,
1000
0001
1000
0000
,
1001
0000
0001
0000
,
0001
0000
1000
0000
,
1001
0000
1000
0000
,
1002
0000
1003
0000
,
0020
0000
0000
0000
,
0230
0000
0000
0000
,
0320
0000
0000
0000
,
0230
0000
0000
0000
,
0302
0000
0000
0000
,
2003
0000
0000
0000
,
3002
0000
0000
0000
,
1003
0000
0000
0000
,
2000
0000
3200
0000
,
0320
0000
0031
1000
,
0020
0000
0230
0000
,
0302
0000
0003
0000
,
0020
0000
0230
0000
,
2300
0000
3001
0100
,
0002
0000
0000
0000
,
2003
0000
0000
0000
,
3010
0100
0010
0000
,
0100
0001
0100
0000
,
0010
1000
0010
0000
,
0100
0001
0010
0100
,
1000
0001
1000
0000
,
0010
0100
0010
0000
,
0100
0001
0100
0000
,
0010
1000
0100
0010
,
0002
0000
2003
0000
,
3020
0000
0130
0000
,
0101
0000
1100
0000
,
1001
0000
1000
1001
;

//---------------dance-single - ----------------
#NOTES:
     dance-single:
     :
     Medium:
     5:
     0.387,0.415,0.210,0.455,0.000:
1000
0002
0000
0000
0103
0000
0001
0000
,
0100
0010
0100
0000
0001
1000
0001
0000
,
2000
0000
3010
0010
,
1001
0000
1001
0000
,
0001
2000
0000
0000
3010
0000
1000
0000
,
0010
0100
0010
0000
1000
0001
1000
0000
,
0002
0203
0320
1030
,
1001
0000
1001
0000
,
1000
0002
0000
0000
0013
0000
0100
0000
,
0010
0001
0010
0000
0001
1000
0001
0000
,
2000
0000
3010
0010
,
2002
0000
0000
3003
,
1001
0010
0100
1000
,
0010
0100
0010
1000
,
0100
0010
0001
1000
,
0010
0100
0001
0100
,
0001
0100
0010
1000
,
0001
1000
0001
0100
,
0010
1000
0100
1000
,
0010
0100
0001
0010
,
0002
1000
2003
0001
,
3002
0000
0100
0000
0103
0001
0100
0000
,
0020
1000
2030
0001
,
3002
1000
1003
1001
,
2000
0001
3002
1000
,
2003
0000
0010
0000
3010
1000
0010
0000
,
0200
0000
0000
0000
,
0320
0100
0100
0130
,
0110
0000
1000
0100
2000
0000
0001
0000
,
3001
0010
0100
1000
0001
0000
1000
0000
,
0002
1003
2000
3001
,
0100
0100
1001
1001
,
0110
0000
0001
0010
0002
0000
1000
0000
,
1003
0100
0010
0001
1000
0000
0001
0000
,
2000
3001
0002
1003
,
0100
0100
0100
0000
,
0100
0000
0100
0010
0100
0000
0100
0001
,
0100
0000
0100
0010
0100
0000
0100
0001
,
0100
0000
0010
1000
0010
0000
0010
0100
,
0010
0000
0010
1000
0010
0000
0010
0100
,
0002
1003
2000
3010
,
0020
0130
0200
0301
,
1001
1001
0110
0110
,
2001
0000
0001
3001
,
0020
0000
0000
0230
,
2300
0000
0000
0000
,
3200
0000
0000
0000
,
0320
0000
0032
0000
,
0203
0000
0000
0000
,
0320
0000
0000
0000
,
0230
0000
0000
0000
,
0310
0000
0000
0000
0110
0000
0000
0001
,
2000
0000
0000
3100
0020
0000
0000
0031
,
2000
0000
0000
3001
0100
0010
0100
0000
,
0002
1000
2003
0100
,
3200
0000
0000
0000
0010
0000
0310
0001
,
2000
0000
0000
3010
0200
0000
0000
0301
,
2000
0000
0000
3001
0100
0010
0100
0000
,
0020
0000
0000
0000
,
0100
0100
0100
0130
,
0100
0001
0200
0000
0010
0000
0310
0000
,
0010
1000
0020
0000
0100
0000
0130
0000
,
0001
0010
0001
0000
0010
0001
1000
0000
,
0002
0203
2300
3200
,
0301
0100
0002
0000
1000
0000
1003
0000
,
1000
0010
2000
0000
0001
0000
3001
0000
,
1000
0100
1000
0000
0100
1000
0001
0000
,
2000
3200
0302
0203
,
1300
1100
1000
1100
,
0001
0011
0001
0011
,
0110
0110
1010
1010
,
0101
0101
0110
1001
;

//---------------dance-single - ----------------
#NOTES:
     dance-single:
     :
     Hard:
     8:
     0.595,0.571,0.296,0.369,0.304: // measure 1
0001
1000
0000
0001
1000
0100
0010
0100
,  // measure 2
1000
0100
0001
0100
1000
0000
0010
1000
,  // measure 3
0002
0000
0000
0000
1000
0000
0000
0000
1003
0000
0000
1000
0001
0000
0000
0000
,  // measure 4
0110
0000
0000
0110
0000
0000
0220
0000
0000
0000
0000
0330
0000
0000
0001
0000
,  // measure 5
0010
0200
0000
1300
0001
0010
0100
0010
,  // measure 6
0001
0100
1000
0100
0001
0000
1000
0010
,  // measure 7
0200
0000
0301
0010
0200
0000
1300
0001
,  // measure 8
1001
0000
0000
1001
0000
0000
0001
0000
1000
0000
0010
0000
0100
0000
0010
0000
,  // measure 9
1000
0200
0000
0310
0001
0010
0100
0010
,  // measure 10
0001
0100
1000
0100
0001
0000
0100
0010
,  // measure 11
2000
0000
0000
0000
0001
0000
0000
0000
3001
0000
0000
0001
1000
0000
0000
0000
,  // measure 12
0110
0000
0000
0110
0000
0000
0220
0000
0000
0000
0000
0000
0330
0000
0000
0000
,  // measure 13
1000
0010
1000
0010
0100
0001
0010
1000
,  // measure 14
0010
0001
0010
0001
0100
0010
1000
0100
,  // measure 15
0001
0100
1000
0010
0100
0010
1000
0100
,  // measure 16
0001
0100
1000
0010
0100
0001
1000
0010
,  // measure 17
0001
0010
1000
0100
0010
0100
1000
0100
,  // measure 18
0001
0100
0010
0001
1000
0100
0001
0100
,  // measure 19
1000
0001
0100
1000
0100
0010
1000
0100
,  // measure 20
0001
0000
0100
0000
1000
0000
0010
0000
0100
0000
0010
0000
1000
0000
0001
0100
,  // measure 21
0002
0000
0000
0000
1003
0000
0010
1000
0020
0000
0000
0000
1030
0000
0100
0010
,  // measure 22
0200
0000
0000
0000
0301
0000
1000
0001
1000
0000
0010
0000
0010
0000
0000
1000
,  // measure 23
0002
0000
0000
0000
1003
0000
0100
1000
0200
0000
0000
0000
0310
0000
0001
0010
,  // measure 24
0002
0000
0000
0000
1000
0000
0000
0000
0100
0000
0000
0000
1003
0000
0100
1000
,  // measure 25
0200
0000
0000
0000
0310
0000
0001
0010
0002
0000
0000
0000
1003
0000
0100
0010
,  // measure 26
0200
0000
0000
0000
1300
0000
0001
0010
0001
0000
1000
0000
1000
0000
0000
0001
,  // measure 27
2000
0000
0000
0000
0001
0000
0000
0000
0100
0000
0000
0000
3001
0000
0100
0010
,  // measure 28
0100
0001
0100
0010
0100
0001
1000
0100
,  // measure 29
0001
0100
0000
1000
0100
0010
0100
1000
,  // measure 30
0001
0000
0010
0000
1000
0000
0010
0000
0001
0000
0000
1000
0001
0000
0010
0000
,  // measure 31
0100
0000
0000
1000
0001
0000
0100
0000
0010
0000
0000
1000
0001
0000
0010
0000
,  // measure 32
0100
0000
0000
0100
0000
0000
0100
0000
1001
0000
0000
0000
0110
0000
0100
0000
,  // measure 33
0001
1000
0000
0010
1000
0100
0010
0001
,  // measure 34
0100
0000
1000
0000
0100
0000
0001
0000
1000
0000
0000
0001
1000
0000
0100
0000
,  // measure 35
0020
0000
0001
0000
0100
0000
0031
0100
,  // measure 36
1001
0000
0000
1001
0000
0000
2002
0000
0000
0000
0000
0000
3003
0000
0000
0000
,  // measure 37
1001
0000
0000
1000
0010
0000
0100
0000
0010
0000
0000
0100
0001
0000
0010
0000
,  // measure 38
0001
0000
0000
1000
0010
0000
0100
0000
0010
0000
1000
0100
0000
1000
0100
0000
,  // measure 39
0010
0000
0000
0001
0100
0000
0010
0000
0100
0000
0000
0010
1000
0000
0100
0000
,  // measure 40
1000
0000
0000
0001
0100
0000
0010
0000
0100
0000
0001
0010
0000
0001
0010
0000
,  // measure 41
1100
0000
0000
1100
0000
0000
1000
0000
0011
0000
0000
0011
0000
0000
0001
0000
,  // measure 42
1010
0000
0000
1010
0000
0000
1000
0000
0010
0100
0000
0100
0001
0000
0100
0000
,  // measure 43
0101
0000
0000
0101
0000
0000
1000
0000
1100
0000
0000
1100
0000
0000
1000
0000
,  // measure 44
0010
0000
0100
0000
0001
0000
0010
0000
0000
0100
0000
0000
0100
0000
0000
0000
0000
0000
0110
0000
0000
0000
0000
0000
,  // measure 45
0200
0000
0000
2000
0000
0000
0000
0000
0300
0000
0000
0000
3100
0000
0000
0000
,  // measure 46
0020
0000
0000
0002
0000
0000
0000
0000
0000
0000
0000
0000
0033
0000
0000
0000
,  // measure 47
0020
0000
0000
2000
0000
0000
0000
0000
0000
0000
0000
0000
3030
0000
0000
0000
,  // measure 48
0200
0000
0002
0303
,  // measure 49
0020
0000
0000
0002
0000
0000
0000
0000
0030
0000
0000
0000
0013
0000
0000
0000
,  // measure 50
0200
0000
0000
2000
0000
0000
0000
0000
0000
0000
0000
0000
3300
0000
0000
0000
,  // measure 51
0200
0000
0000
0002
0000
0000
0000
0000
0000
0000
0000
0000
0303
0000
0000
0000
,  // measure 52
1010
0000
0000
0000
0000
0000
0000
0000
0110
0000
0000
0110
0000
0000
0100
0001
,  // measure 53
0200
0000
0000
0000
0301
0000
1000
0001
2000
0000
0000
0000
3001
0000
0010
0001
,  // measure 54
0020
0000
0000
0000
0031
0000
0100
1000
0100
0000
0010
0000
0010
0000
0000
0001
,  // measure 55
2000
0000
0000
0000
3001
0000
0100
1000
0200
0000
0000
0000
1300
0000
0001
1000
,  // measure 56
0002
0000
0000
0000
1000
0000
0000
0000
1003
0000
0000
0000
1001
0000
0100
0001
,  // measure 57
0200
0000
0000
0000
0301
0000
1000
0100
2000
0000
0000
0000
3001
0000
0100
0010
,  // measure 58
0200
0000
0000
0000
0310
0000
1000
0001
1000
0000
0010
0000
0010
0000
0000
1000
,  // measure 59
0002
0000
0000
0000
1000
0000
0000
0000
0100
0000
0000
0000
1003
0000
0010
0100
,  // measure 60
0010
0000
1000
0000
0010
0000
0100
0000
0010
0000
1000
0000
0001
0000
0100
0001
,  // measure 61
0100
0000
0001
0000
0010
0000
0100
1000
0100
0000
1000
0000
0001
0000
1000
0010
,  // measure 62
1000
0000
0100
0000
0010
0000
0001
0010
0002
0000
1000
0000
1003
0000
0000
0001
,  // measure 63
1000
0000
0100
0000
0010
0000
0001
0100
0001
0000
0010
0000
0100
0000
1000
0001
,  // measure 64
2000
0000
0000
0000
0100
0000
0000
0000
3100
0000
0000
0000
1001
0000
0100
0010
,  // measure 65
0100
0000
0001
0000
1000
0000
0001
0010
0001
0000
0100
0000
0010
0000
1000
0100
,  // measure 66
1000
0000
0100
0000
0010
0000
0001
0100
0002
0000
1000
0000
1003
0000
0000
1000
,  // measure 67
0002
0000
0000
0000
1000
0000
0000
0000
0100
0000
0000
0000
1003
0000
0010
0100
,  // measure 68
0010
1000
0010
0100
0010
1000
0100
0010
,  // measure 69
0001
0000
0000
0101
0000
0000
0001
0000
1000
0000
0000
1010
0000
0000
1000
0000
,  // measure 70
0010
0000
0000
0110
0000
0000
0001
0000
0100
0000
0000
0110
0000
0000
1000
0000
,  // measure 71
0101
0000
0000
0101
0000
0000
0001
0000
1100
0000
0000
1100
0000
0000
1000
0000
,  // measure 72
0110
0000
0000
0110
0000
0000
0001
0000
0100
0010
0000
0000
1001
0000
0000
0000
;

//---------------dance-single - ----------------
#NOTES:
     dance-single:
     :
     Beginner:
     1:
     0.083,0.156,0.051,0.000,0.000:
1000
0000
0000
0000
,
1000
0000
0000
0000
,
0001
0000
0000
0000
,
0001
0000
0000
0000
,
1000
0000
0000
0000
,
0001
0000
0000
0000
,
1000
0000
0000
0000
,
0010
0000
0000
0000
,
0100
0000
0000
0000
,
0010
0000
0000
0000
,
0010
0000
0000
0000
,
0110
0000
0000
0000
,
1000
0000
0000
0000
,
1000
0000
0000
0000
,
0100
0000
0000
0000
,
0100
0000
0000
0000
,
0010
0000
0000
0000
,
0010
0000
0000
0000
,
0001
0000
0000
0000
,
0001
0000
0000
0000
,
1000
0000
0000
0000
,
0001
0000
0000
0000
,
1000
0000
0000
0000
,
0001
0000
0000
0000
,
0100
0000
0000
0000
,
0010
0000
0000
0000
,
0100
0000
0000
0000
,
0100
0000
0000
0000
,
0001
0000
0000
0000
,
0000
0000
0000
0000
,
0001
0000
0000
0000
,
0000
0000
0000
0000
,
1000
0000
0000
0000
,
0000
0000
0000
0000
,
1000
0000
0000
0000
,
0000
0000
0000
0000
,
1001
0000
0001
0000
,
1000
0000
0001
0000
,
1000
0000
0001
0000
,
1000
0000
0001
0000
,
0100
0000
0000
0000
,
0100
0000
0000
0000
,
0110
0000
0000
0000
,
0010
0000
0000
0000
,
1001
0000
0000
0000
,
1000
0000
0000
0000
,
1000
0000
0000
0000
,
1000
0000
0000
0000
,
0001
0000
0000
0000
,
0001
0000
0000
0000
,
0001
0000
0000
0000
,
0001
0000
0000
0000
,
1000
0000
0000
0000
,
0100
0000
0000
0000
,
0010
0000
0000
0000
,
0001
0000
0000
0000
,
1000
0000
0000
0000
,
0001
0000
0000
0000
,
1000
0000
0000
0000
,
0001
0000
0000
0000
,
0010
0000
0000
0000
,
0100
0000
0000
0000
,
1000
0000
0000
0000
,
0001
0000
0000
0000
,
1000
0000
0000
0000
,
0001
0000
0000
0000
,
1000
0000
0000
0000
,
1000
0000
0000
0000
,
1001
0000
0000
0000
,
0001
0000
0000
0000
,
1001
0000
0000
0000
,
1000
0000
0000
1001
;

//---------------dance-double - ----------------
#NOTES:
     dance-double:
     :
     Easy:
     3:
     0.215,0.467,0.101,0.289,0.000:
00000000
00000000
00000000
00000000
,
00000000
00000000
00000000
00000000
,
00000000
00000000
00000000
00000000
,
00000000
00000000
00000000
00000000
,
10000000
00000000
00000000
00000000
,
00010000
00000000
00000000
00000000
,
00001000
00000000
00000000
00000000
,
00000001
00000000
00000000
00000000
,
00000100
00000000
00000000
00000000
,
00010000
00000000
00000000
00000000
,
01000000
00000000
00000000
00000000
,
10000000
00000000
00000000
00000000
,
10010000
10000000
01000000
00000000
,
00010000
00001000
00010000
00000000
,
00000010
00001000
00000010
00000000
,
00001000
00000100
00000001
00000000
,
00000001
00000100
00001000
00000000
,
00010000
00001000
00100000
00000000
,
00010000
01000000
00100000
00000000
,
10000000
01000000
00010000
00000000
,
00002000
00003000
00000200
00000300
,
00000002
00000003
00002000
00003000
,
00000001
00000100
00001000
00010000
,
00001000
00000010
00000001
00000000
,
00000200
00000300
00002000
00003000
,
00020000
00030000
02000000
03000000
,
10000000
01000000
00010000
00001000
,
00010000
00100000
10000000
00000000
,
00010000
01000000
00000000
00100000
,
10000000
01000000
00000000
00010000
,
00001000
00010000
00000000
00001000
,
00000100
00000001
00000000
00000010
,
00000001
00000100
00000000
00001000
,
00010000
00001000
00000000
00010000
,
01000000
10000000
00000000
00100000
,
10000000
00010000
00000000
00000000
,
01000000
00000000
10000000
00000000
,
00010000
00000000
00001000
00000000
,
00000001
00000000
00000100
00000000
,
00001000
00000000
00010000
00000000
,
00022000
00033000
00020200
00030300
,
00022000
00033000
02002000
03003000
,
00022000
00033000
00020020
00030030
,
00022000
00033000
00202000
00303000
,
00011000
00000000
00000000
00000000
,
01000000
00000000
00000000
00000000
,
00100000
00000000
00000000
00000000
,
10000000
00000000
00000000
00000000
,
10010000
00000000
00000000
00000000
,
01000000
00000000
00000000
00000000
,
00010000
00000000
00000000
00000000
,
00011000
00000000
00000000
00000000
,
00020000
00030000
00200000
00300000
,
20000000
30000000
00020000
00030000
,
10000000
00100000
00010000
00001000
,
00010000
01000000
10000000
00000000
,
00200000
00300000
00020000
00030000
,
00002000
00003000
00000020
00000030
,
00000001
00000010
00001000
00010000
,
00001000
00000100
00000001
00000000
,
00002000
00003000
00020000
00030000
,
20000000
30000000
00020000
00030000
,
10000000
01000000
00010000
00001000
,
00010000
00100000
10000000
00000000
,
00020000
00030000
00002000
00003000
,
00000002
00000003
00002000
00003000
,
00000001
00000100
00001000
00010000
,
00001000
00000010
00000001
00000000
,
00001000
00000000
00010000
00000000
,
10000000
00000000
00010000
00000000
,
00001000
00000000
00000001
00000000
,
00001000
00000000
00011000
00011000
;

//---------------dance-double - ----------------
#NOTES:
     dance-double:
     :
     Medium:
     6:
     0.397,0.441,0.174,0.289,0.043:
00000000
00000000
00000000
00000000
,
00000000
00000000
00000000
00000000
,
00000000
00000000
00000000
00000000
,
00000000
00000000
00000000
00000000
,
00000001
00000000
00000100
00000000
00000010
00000000
00001000
00000100
,
00001000
00000000
00000001
00000100
00001000
00000000
00011000
00001000
,
01000000
00000000
00010000
01000000
00010000
00000000
10000000
01000000
,
00010000
00000000
00010000
01000000
10000000
00000000
10010000
00000000
,
10000000
00000000
00100000
00000000
01000000
00000000
00010000
00100000
,
00010000
00000000
10000000
00100000
00010000
00000000
00011000
00010000
,
00000010
00000000
00001000
00000010
00001000
00000000
00000001
00000010
,
00001000
00000000
00000000
00000010
00000000
00000000
00000001
00000000
00000000
00000000
00000000
00000000
00000000
00000000
00000000
00000000
,
00000001
00000000
00001000
00000000
00000001
00000000
00000100
00001000
,
00010000
00000000
00001000
00000000
00000100
00000000
00000001
00001000
,
00000001
00000000
00000010
00000000
00001000
00000000
00010000
01000000
,
10000000
00000000
00000000
00010000
00000000
00000000
01000000
00000000
00100000
00000000
00000000
00000000
00000000
00000000
00000000
00000000
,
10000000
00000000
00010000
00000000
10000000
00000000
00100000
00010000
,
00001000
00000000
00010000
00000000
00100000
00000000
10000000
00010000
,
10000000
00000000
01000000
00000000
00010000
00000000
00001000
00000010
,
00000001
00000000
00000000
00001000
00000000
00000000
00000010
00000000
00000100
00000000
00000000
00000000
00000000
00000000
00000001
00000000
,
00000200
00000000
00000300
00001000
00020000
00000000
00030000
01000000
,
20000000
00000000
30000000
00100000
00020000
00000000
00001000
00000000
,
00032000
00000000
00003000
00000010
00000002
00000000
00000003
00001000
,
00000200
00000000
00000010
00000000
00000001
00000000
00000310
00000001
,
00000200
00000000
00001300
00010000
00200000
00000000
10300000
01000000
,
00020000
00000000
00031000
00000100
00000002
00000000
00000010
00000000
,
00002003
00000000
00000010
00000000
00000001
00000000
00003010
00001000
,
00000200
00000000
00010000
00000000
00001000
00000000
00000301
00000100
,
00000010
00000001
00000100
00000010
00001000
00000000
00000001
00000100
,
00001000
00000000
00000100
00001000
00010000
00000000
00001000
00010000
,
01000000
00000000
00010000
01000000
10000000
00000000
01000000
10000000
,
00100000
01000000
00010000
01000000
10000000
00000000
00000000
01000000
,
00100000
10000000
00100000
01000000
00010000
00000000
10000000
00100000
,
00010000
00000000
00100000
00010000
00001000
00000000
00010000
00001000
,
00000010
00000000
00001000
00000010
00000001
00000000
00000010
00000001
,
00000100
00000000
00000000
00000001
00000000
00000000
00001000
00000000
00000000
00000000
00000000
00000000
00000000
00000000
00000000
00000000
,
00000101
00000010
00001100
00011000
,
00010000
01010000
11000000
10100000
,
01000000
10010000
01100000
10010000
,
20000000
30200000
00320000
01030000
,
10010000
00000000
00011000
00000000
,
00001001
00000000
00000101
00000000
,
00001100
00000000
00011000
00000000
,
01010000
11000000
10010000
00000000
,
20000000
00000000
01000000
00000000
,
32000000
00000000
00010000
00000000
,
03020000
00000000
00001000
00000000
,
00032000
00000000
00000100
00000000
,
00003200
00000000
00000001
00000000
,
00000302
00000000
00000010
00000000
,
00000023
00000000
00001000
00000030
,
00011000
00000000
00000000
00000000
00000000
00000000
00000000
00000000
00010000
00000000
00000000
00001000
00000000
00000000
00010000
00000000
,
00001000
00000000
01000000
00100000
10000000
00000000
01000000
00010000
,
01000000
00000000
00100000
00001000
00010000
00000000
00000100
00001000
,
00000100
00000000
00000010
00000001
00000100
00000000
00001000
00010000
,
00002000
00000000
00010000
00000000
00000100
00000000
00013000
00001000
,
00010000
00000000
00000010
00000100
00000001
00000000
00000010
00001000
,
00000010
00000000
00000100
00010000
00001000
00000000
00100000
00010000
,
00100000
00000000
01000000
10000000
00100000
00000000
00010000
00001000
,
00020000
00000000
00001000
00000000
00100000
00000000
00031000
01000000
,
00010000
01000000
10000000
01000000
00010000
01000000
10000000
01000000
,
00010000
10000000
01000000
00010000
01000000
10000000
01000000
00010000
,
00002000
00003200
00000302
00002003
,
00003200
00000000
00000320
00000000
00000032
00000000
00000103
00000010
,
00001000
00000100
00000001
00000100
00001000
00000100
00000001
00000100
,
00001000
00000001
00000100
00001000
00000100
00000001
00000100
00001000
,
00020000
02030000
23000000
30020000
,
02030000
03200000
20300000
30020000
,
01030000
00000000
00000000
01000000
00000000
00000000
00000000
00000000
00100000
00000000
00000000
00100000
00000000
00000000
00000000
00000000
,
10000000
00000000
00000000
10000000
00000000
00000000
00000000
00000000
01000000
00000000
00000000
01000000
00000000
00000000
00000000
00000000
,
00010000
00000000
00000000
00001000
00000000
00000000
00000000
00000000
00000100
00000000
00000000
00000001
00000000
00000000
00000000
00000000
,
00000001
00000000
00000000
00001000
00000000
00000000
00000000
00000000
00000110
00000000
00000000
00000000
00001001
00000000
00000000
00000000
;

//---------------dance-double - ----------------
#NOTES:
     dance-double:
     :
     Hard:
     8:
     0.517,0.571,0.289,0.101,0.463:
00000000
00000000
00000000
00000000
,
00000000
00000000
00000000
00000000
,
00000000
00000000
00000000
00000000
,
00000000
00000000
00000000
00000000
00000000
00000000
00000000
00100000
,
10000000
01000000
00100000
00010000
10000000
00000000
01010000
01000000
,
00100000
00000000
00100000
00010000
00001000
00000000
00011000
00001000
,
00000100
00000000
00000100
00000010
00001000
00000000
00001100
00001000
,
00000100
00000001
00000100
00010000
00001000
00000000
00000000
00000100
,
00000001
00000010
00000100
00001000
00000001
00000000
00001010
00000010
,
00000100
00000000
00000100
00001000
00010000
00000000
00011000
00010000
,
00100000
00000000
00100000
01000000
00010000
00000000
00110000
10000000
,
00010000
00000000
00000000
00001000
00000000
00000000
00000001
00000000
00000000
00000000
00000000
00000000
00000000
00000000
00000000
00000000
,
00001001
00000000
00001000
00000100
00000000
00000000
00000100
00000010
00000000
00000000
00000010
00000001
00000000
00000000
00000001
00000100
,
00000000
00000000
00000100
00001000
00000000
00000000
00001000
00010000
00000000
00000000
00010000
01000000
00000000
00000000
01000000
00100000
,
00000000
00000000
00100000
00010000
00000000
00000000
00010000
10000000
00000000
00000000
10000000
00100000
00000000
00000000
00100000
00010000
,
00000000
00000000
00010000
00001000
00000000
00000000
00001000
00000100
00000000
00000000
00000100
00000010
00000000
00000000
00001000
00000000
,
00001010
00000000
00000000
00000000
00000101
00000000
00000001
00000100
00000000
00000000
00000100
00001000
00000000
00000000
00001000
00010000
,
00000000
00000000
00010000
01000000
00000000
00000000
01000000
10000000
00000000
00000000
10000000
00100000
00000000
00000000
00100000
00010000
,
00000000
00000000
00010000
00001000
00000000
00000000
00001000
00000100
00000000
00000000
00000100
00000001
00000000
00000000
00000001
00000010
,
00000000
00000000
00000010
00000100
00000000
00000000
00000100
00001000
00000000
00000000
00001100
00000000
00000000
00000000
00000000
00000000
,
00000012
00000000
00000000
00000000
00000003
00000000
00000010
00001000
00020000
00000000
00000000
00000000
00030000
00000000
00100000
00010000
,
00002000
00000000
00000000
00000000
00003000
00000000
00000010
00001000
00010000
00000000
00000100
00000000
00000010
00000000
00000000
00000001
,
00002000
00000000
00000000
00000000
00003000
00000000
00100000
01000000
00010000
00000000
00000000
00000000
00000000
00000000
10000000
01000000
,
00200000
00001000
00310000
00110000
,
21000000
00000000
00000000
00000000
30000000
00000000
01000000
00010000
00002000
00000000
00000000
00000000
00003000
00000000
00000100
00001000
,
00020000
00000000
00000000
00000000
00030000
00000000
00100000
00010000
00001000
00000000
00010000
00000000
00001000
00000000
00000000
00000010
,
00000002
00000000
00000000
00000000
00000000
00000000
00000000
00000000
00000000
00000000
00000000
00000000
00000000
00000000
00000000
00000000
00001000
00000000
00000000
00000000
00000000
00000000
00000000
00000000
00000000
00000000
00000000
00000000
00000000
00000000
00000000
00000000
00001000
00000000
00000000
00000000
00000000
00000000
00000000
00000000
00000000
00000000
00000000
00000000
00000000
00000000
00000000
00000000
00000003
00000000
00000000
00000000
00000000
00000000
00000010
00000000
00000000
00000000
00000000
00000100
00000000
00000000
00000000
00000000
,
00002000
00000000
00000001
00000000
00000001
00000000
00003000
00000001
,
00000100
00000010
00000100
00000001
00000010
00000100
00010000
00000010
,
00000100
00000000
00001000
00000000
00010000
00000000
00100000
00000000
10000000
00000000
00000000
00010000
10000000
00000000
01000000
00000000
,
00010000
00000000
00000000
00001000
00010000
00000000
00001000
00000000
00000100
00000000
00000000
00001000
00010000
00000000
01000000
00000000
,
00100000
00000000
00000000
00001000
00000000
00000000
01000000
00000000
00100000
00000000
00000000
00000000
00000000
00000000
10000000
00000000
,
00100000
01000000
00100000
10000000
01000000
00100000
00001000
01000000
,
00100000
00000000
00010000
00000000
00001000
00000000
00000100
00000000
00000001
00000000
00000000
00001000
00000001
00000000
00000010
00000000
,
00002000
00000000
00000000
00000000
00000000
00000000
00000000
00000000
00103000
00000000
00000000
00001000
00010000
00000000
00000000
00000000
,
00011000
00000000
00000000
01010000
00000000
00000000
11000000
00000000
00000000
00000000
00000000
00000000
00000000
00000000
00000000
01000000
,
10000000
00000000
00000000
01000000
10000000
00000000
00000000
00010000
01000000
00000000
00000000
00100000
01000000
00000000
00000000
00100000
,
00010000
00000000
00000000
00001000
00010000
00000000
00000000
00000010
00001000
00000000
00000000
00000010
00001000
00000000
00000000
00000001
,
00000100
00000000
00000000
00000001
00000100
00000000
00000000
00001000
00010000
00000000
00000000
00001000
00010000
00000000
00000000
00100000
,
10000000
00000000
00000000
01000000
00010000
00000000
00000000
00001000
00000010
00000000
00000000
00000001
00000100
00000000
00000000
00001000
,
00010000
00000000
00000000
00011000
00000000
00000000
00000000
00000000
00001000
00000100
00000000
00001100
00000000
00000000
00000000
00000000
,
00000010
00010000
00000000
00010010
00000000
00000000
00000000
00000000
00100000
00001000
00000000
00101000
00000000
00000000
00000000
00000000
,
00011000
00000000
00000000
00101000
00000000
00000000
00000000
00000000
00110000
00000000
00000000
01100000
00000000
00000000
00000000
00000000
,
10010000
00000000
00000000
00000000
00000000
01000000
00000000
00000000
00000000
00000000
00100000
00000000
00000000
00000000
00000000
00000000
10010000
00000000
00000000
00000000
00000000
00000000
00000000
00000000
01100000
00000000
00000000
00000000
00000000
00000000
00000000
00000000
10010000
00000000
00000000
00000000
00000000
00000000
00000000
00000000
00000000
00000000
00000000
00000000
00000000
00000000
00000000
00000000
01100000
00000000
00000000
00000000
00000000
00000000
00000000
00000000
00000000
00000000
00000000
00000000
00000000
00000000
00000000
00000000
,
10010000
00000000
00000000
10000000
00000000
00000000
01000000
00000000
00000000
00000000
00010000
00000000
00000000
00010000
00000000
00000000
,
00000000
00000000
00000000
00001000
00000000
00000000
00000001
00000000
00000000
00000000
00000001
00000000
00000100
00000010
00000000
00000000
,
00000001
00000000
00000000
00000100
00000000
00000000
00001000
00000000
00000000
00000000
00001000
00000000
00000000
00001000
00000000
00000000
,
00000000
00000000
00000000
00010000
00000000
00000000
10000000
00000000
00000000
00000000
10000000
00000000
01000000
00100000
00000000
00000000
,
00110000
00000000
00000000
00001000
00000000
00000000
00010000
00000000
00000000
00000000
01000000
00000000
00000000
00010000
00000000
00000000
,
00000000
00000000
00000000
00001000
00000000
00000000
00000010
00000000
00000000
00000000
00001000
00000000
00000010
00000100
00000000
00000000
,
00000001
00000000
00000000
00000100
00000000
00000000
00010000
00000000
00000000
00000000
00001000
00000000
00000000
00010000
00000000
00000000
,
00011000
00000000
00000000
00000000
00000000
00000000
00000000
00000000
00001000
00000000
00000000
00000100
00000000
00000000
00000001
00000000
,
00000010
00000000
00000000
00000000
00000001
00000000
00000100
00001000
00010000
00000000
00000000
00000000
00001000
00000000
00010000
01000000
,
10000000
00000000
00000000
00000000
00100000
00000000
10000000
01000000
00100000
00000000
00001000
00000000
00010000
00000000
00000000
00001000
,
00010000
00000000
00000000
00000000
00001000
00000000
00000100
00000010
00001000
00000000
00000000
00000000
00000001
00000000
00000010
00001000
,
00020000
00001000
00031000
00110000
,
00011000
00000000
00000000
00000000
01010000
00000000
01000000
10000000
00100000
00000000
00000000
00000000
00010000
00000000
00001000
00000100
,
00000010
00000000
00000000
00000000
00001000
00000000
00000100
00000001
00000100
00000000
00000010
00000000
00001000
00000000
00000000
00000010
,
00000002
00000000
00000000
00000000
00000000
00000000
00000000
00000000
00000000
00000000
00000000
00000000
00000000
00000000
00000000
00000000
00001000
00000000
00000000
00000000
00000000
00000000
00000000
00000000
00000000
00000000
00000000
00000000
00000000
00000000
00000000
00000000
00001003
00000000
00000000
00000000
00000000
00000000
00000000
00000000
00000000
00000000
00000000
00000000
00000000
00000000
00000000
00000000
00000000
00000000
00000000
00000000
00000000
00000000
00000010
00000000
00000000
00000000
00000000
00010000
00000000
00000000
00000000
00000000
,
00002000
00000000
00000000
00000000
00000000
00000000
00000000
00000000
00013000
01000000
00000000
00010000
00001000
00000000
01000000
00000000
,
10100000
00000000
00010000
00000000
01000000
00000000
00100000
10000000
01000000
00000000
00010000
00000000
00001000
00000000
00010000
00001000
,
00000100
00000000
00000010
00000000
00000001
00000000
00000010
00000100
00000001
00000000
00000010
00000000
00001000
00000000
00010000
00000100
,
00001000
00000000
00000001
00000000
00000100
00000000
00001000
00010000
00001000
00000000
01000000
00000000
00100000
00000000
00010000
00001000
,
00010000
00001000
00000100
00000010
00001000
00000100
00000110
00000000
,
00001001
00000000
00000000
00000000
00001010
00000000
00000001
00000100
00001000
00000000
00010000
00000000
01000000
00000000
10000000
00010000
,
00100000
00000000
00001000
00000000
00010000
00000000
00000010
00001000
00000100
00000000
00010000
00000000
00001000
00000000
00000100
00000010
,
00000100
00000000
00001000
00000000
00010000
00000000
00100000
00000000
10000000
00000000
01000000
00000000
00010000
00000000
00001000
00010000
,
00001000
00100000
00000000
00001000
00010000
00000000
00100000
00000000
01000000
00010000
00000000
10000000
00100000
00000000
01000000
00000000
,
00000000
00000000
00000000
10000000
00000000
00000000
10000000
00000000
00000000
00000000
00000000
01000000
00000000
00000000
01000000
00000000
,
00000000
00000000
00000000
00010000
00000000
00000000
00010000
00000000
00000000
00000000
00000000
00000100
00000000
00000000
00000100
00000000
,
00000000
00000000
00000000
00000001
00000000
00000000
00000001
00000000
00000000
00000000
00000000
00001000
00000000
00000000
00001000
00000000
,
00000000
00000000
00000000
00000001
00000000
00000000
00000001
00000000
00000100
00000010
00000000
00000000
00001001
00000000
00000000
00000000
;
