#TITLE:Be OK;
#SUBTITLE:;
#ARTIST:good-cool ft. Florence;
#TITLETRANSLIT:;
#SUBTITLETRANSLIT:;
#ARTISTTRANSLIT:;
#CREDIT:DigiMindAxel;
#BANNER:Be OK.png;
#BACKGROUND:Be OK-bg.png;
#LYRICSPATH:Be OK.lrc;
#CDTITLE:beatmania IIDX.png;
#MUSIC:Be OK.mp3;
#OFFSET:-6.420;
#SAMPLESTART:42.360;
#SAMPLELENGTH:12.000;
#SELECTABLE:YES;
#BPMS:0.000=160.000;
#STOPS:;
#BGCHANGES:;

//---------------dance-single - ----------------
#NOTES:
     dance-single:
     :
     Easy:
     3:
     0.227,0.308,0.149,0.083,0.000: // measure 1
0001
0001
0001
0000
,  // measure 2
1000
1000
1000
0000
,  // measure 3
0001
0001
0001
0000
,  // measure 4
1000
1000
1000
0000
,  // measure 5
0010
0100
0010
0000
,  // measure 6
0100
0010
0100
0000
,  // measure 7
0010
0100
0010
0000
,  // measure 8
1000
1000
0000
1001
,  // measure 9
0001
0000
0100
0000
,  // measure 10
0001
0000
0010
0000
,  // measure 11
0001
0000
0100
0000
,  // measure 12
0001
0000
0010
0010
,  // measure 13
1001
0000
0010
0000
,  // measure 14
1000
0000
0100
0000
,  // measure 15
1000
0000
0010
0000
,  // measure 16
1000
0000
0000
0000
,  // measure 17
1001
0000
0001
0000
,  // measure 18
0010
0000
0100
0000
,  // measure 19
1000
0000
0001
0000
,  // measure 20
1000
0000
0000
0000
,  // measure 21
1001
0000
0000
0000
,  // measure 22
1001
0000
0000
0000
,  // measure 23
1001
0000
0000
0000
,  // measure 24
0110
0000
0000
0000
,  // measure 25
1000
1000
0000
0001
,  // measure 26
1000
0001
1000
0001
,  // measure 27
0010
0000
0001
0000
,  // measure 28
1000
0000
0100
0000
,  // measure 29
1000
1000
0000
0001
,  // measure 30
1000
0010
0100
0010
,  // measure 31
1000
0000
1000
0000
,  // measure 32
0001
0000
0001
0000
,  // measure 33
1001
0000
0000
1000
,  // measure 34
0001
1000
0001
1000
,  // measure 35
0001
0000
0100
0000
,  // measure 36
0010
0000
0100
0000
,  // measure 37
0001
0001
0000
0000
,  // measure 38
1000
0001
1000
0001
,  // measure 39
1000
0000
0010
0000
,  // measure 40
0100
0000
0001
0000
,  // measure 41
2002
0000
0000
3003
,  // measure 42
0220
0000
0000
0330
,  // measure 43
2002
0000
0000
3003
,  // measure 44
0220
0000
0000
0330
,  // measure 45
1001
0000
1000
0000
,  // measure 46
0010
0000
0100
0000
,  // measure 47
0010
0000
1000
0000
,  // measure 48
1001
0000
0000
0000
,  // measure 49
1001
0000
0010
0000
,  // measure 50
0001
0000
0010
0000
,  // measure 51
0100
0000
1000
0000
,  // measure 52
0100
0000
0100
0000
,  // measure 53
1000
0000
0010
0000
,  // measure 54
1000
0000
0100
0000
,  // measure 55
0010
0000
0001
0000
,  // measure 56
0100
0000
0001
0000
,  // measure 57
1000
0000
1000
0000
,  // measure 58
0010
0000
0100
0000
,  // measure 59
0001
0000
0001
0000
,  // measure 60
0010
0000
0100
0000
,  // measure 61
1001
0000
1000
0000
,  // measure 62
0010
0000
0100
0000
,  // measure 63
0001
0000
1000
0000
,  // measure 64
0001
1000
0001
1000
,  // measure 65
0010
0000
0010
0000
,  // measure 66
0100
0000
0100
0000
,  // measure 67
0010
0000
0010
0000
,  // measure 68
1000
0001
1000
0000
,  // measure 69
0010
1000
0010
0000
,  // measure 70
0100
0001
0100
0000
,  // measure 71
0001
0010
0001
0000
,  // measure 72
1000
0100
1000
0000
,  // measure 73
1001
0000
0000
0000
,  // measure 74
0010
0100
0010
0000
,  // measure 75
2002
0000
3003
0000
;

//---------------dance-single - ----------------
#NOTES:
     dance-single:
     :
     Medium:
     6:
     0.453,0.462,0.587,0.149,0.004: // measure 1
1000
0001
1000
0100
,  // measure 2
0001
0100
1000
0001
,  // measure 3
1000
0100
0001
0100
,  // measure 4
1000
0001
1000
1000
,  // measure 5
1001
0100
0010
0001
,  // measure 6
0010
1000
0010
0001
,  // measure 7
0010
1000
0001
1000
,  // measure 8
0100
0001
0000
1100
,  // measure 9
1001
0100
0010
0001
,  // measure 10
1000
0001
0010
0100
,  // measure 11
1000
0001
1000
0100
,  // measure 12
0010
0001
0011
0011
,  // measure 13
1001
0010
0100
1000
,  // measure 14
0001
1000
0100
0010
,  // measure 15
0001
1000
0001
0100
,  // measure 16
0010
0000
0100
0001
0000
0001
1000
0000
,  // measure 17
1001
0010
0100
1000
,  // measure 18
0001
0001
1000
1000
,  // measure 19
0001
0010
0100
1000
,  // measure 20
0001
1000
0001
0000
0100
0000
0100
0000
,  // measure 21
2002
0000
3003
0011
,  // measure 22
2002
0000
3003
1100
,  // measure 23
2002
0000
0000
3003
,  // measure 24
0010
0010
0000
0000
1010
0000
1010
0000
,  // measure 25
1001
0001
1000
0100
,  // measure 26
1000
0001
1000
0000
0001
1000
0001
0000
,  // measure 27
0011
0000
0100
0000
1000
0001
1000
0000
,  // measure 28
0010
1010
0100
0101
,  // measure 29
1001
0010
0100
1000
,  // measure 30
0001
1000
0001
0000
1000
0001
1000
0000
,  // measure 31
0010
1010
0100
0101
,  // measure 32
0010
1010
0100
0101
,  // measure 33
1001
1001
0100
0010
,  // measure 34
0001
1000
0001
0000
1000
0100
1000
0000
,  // measure 35
0001
0000
1000
0010
0000
1000
0001
0000
,  // measure 36
0100
0010
0100
0000
0001
0100
0001
0000
,  // measure 37
1001
1001
0010
0100
,  // measure 38
1000
0001
1000
0000
0001
0010
0001
0000
,  // measure 39
1000
1100
0001
0011
,  // measure 40
1001
0000
0100
0000
1000
0001
1000
0000
,  // measure 41
2200
0000
0000
3300
,  // measure 42
2002
0000
0000
3003
,  // measure 43
0022
0000
0000
0033
,  // measure 44
1001
1001
1001
0000
,  // measure 45
1001
0100
0001
0110
,  // measure 46
1000
0010
1000
0110
,  // measure 47
0001
0010
0001
0110
,  // measure 48
1010
1010
0011
0011
,  // measure 49
1001
0010
0100
1000
,  // measure 50
0001
1000
0001
0000
1000
0001
1000
0000
,  // measure 51
0100
0010
0001
0100
,  // measure 52
0110
0110
1001
1001
,  // measure 53
1001
0100
0010
0001
,  // measure 54
1000
0001
1000
0000
0001
1000
0001
0000
,  // measure 55
0010
0100
1000
0010
,  // measure 56
0110
0110
1001
1001
,  // measure 57
2002
0000
0000
0000
,  // measure 58
3003
0100
0010
0100
,  // measure 59
0001
0010
0001
1000
,  // measure 60
1100
1100
0101
0101
,  // measure 61
2002
0000
0000
0000
,  // measure 62
3003
0010
0100
0010
,  // measure 63
1000
0100
1000
0001
,  // measure 64
0011
0011
1010
1010
,  // measure 65
1001
0010
0001
1000
,  // measure 66
0001
0010
1000
0010
,  // measure 67
0001
1000
0100
0001
,  // measure 68
0100
0000
1000
0000
0010
0100
0010
0000
,  // measure 69
1001
0100
0001
1000
,  // measure 70
0001
0010
1000
0010
,  // measure 71
0001
0100
1000
0100
,  // measure 72
0001
0000
0100
0010
0100
0000
1001
0000
,  // measure 73
0010
0100
0010
0100
0010
0100
0010
0000
,  // measure 74
1100
0000
0000
0000
0110
0000
0000
0000
0011
0000
0000
0000
0000
0000
0000
2002
,  // measure 75
0000
0000
3003
0000
;

//---------------dance-single - ----------------
#NOTES:
     dance-single:
     :
     Beginner:
     1:
     0.092,0.122,0.083,0.000,0.000: // measure 1
1000
0000
0000
0000
,  // measure 2
0001
0000
0000
0000
,  // measure 3
1000
0000
0000
0000
,  // measure 4
0001
0000
0000
0000
,  // measure 5
1000
0000
0000
0000
,  // measure 6
0010
0000
0000
0000
,  // measure 7
0100
0000
0000
0000
,  // measure 8
0010
0000
0000
0000
,  // measure 9
1000
0000
0000
0000
,  // measure 10
0000
0000
0000
0000
,  // measure 11
0001
0000
0000
0000
,  // measure 12
0000
0000
0000
0000
,  // measure 13
1000
0000
0000
0000
,  // measure 14
0000
0000
0000
0000
,  // measure 15
0001
0000
0000
0000
,  // measure 16
0000
0000
0000
0000
,  // measure 17
1001
0000
0000
0000
,  // measure 18
0001
0000
0000
0000
,  // measure 19
0010
0000
0000
0000
,  // measure 20
0100
0000
0000
0000
,  // measure 21
1001
0000
0000
0000
,  // measure 22
0100
0000
0000
0000
,  // measure 23
0010
0000
0000
0000
,  // measure 24
1001
0000
0000
0000
,  // measure 25
0001
0000
0000
0000
,  // measure 26
0010
0000
0000
0000
,  // measure 27
0001
0000
0000
0000
,  // measure 28
0010
0000
0000
0000
,  // measure 29
1001
0000
0000
0000
,  // measure 30
0100
0000
0000
0000
,  // measure 31
1000
0000
0000
0000
,  // measure 32
0100
0000
0000
0000
,  // measure 33
1001
0000
0000
0000
,  // measure 34
1000
0000
0000
0000
,  // measure 35
0001
0000
0000
0000
,  // measure 36
1000
0000
0000
0000
,  // measure 37
0010
0000
0000
0000
,  // measure 38
0010
0000
0000
0000
,  // measure 39
0100
0000
0000
0000
,  // measure 40
0100
0000
0000
0000
,  // measure 41
1001
0000
0000
0000
,  // measure 42
0001
0000
0000
0000
,  // measure 43
0001
0000
0000
0000
,  // measure 44
1000
0000
0000
0000
,  // measure 45
1001
0000
0000
0000
,  // measure 46
1000
0000
0000
0000
,  // measure 47
0010
0000
0000
0000
,  // measure 48
1000
0000
0000
0000
,  // measure 49
0001
0000
0000
0000
,  // measure 50
0000
0000
0000
0000
,  // measure 51
0100
0000
0000
0000
,  // measure 52
0001
0000
0000
0000
,  // measure 53
1001
0000
0000
0000
,  // measure 54
1000
0000
0000
0000
,  // measure 55
0010
0000
0000
0000
,  // measure 56
1000
0000
0000
0000
,  // measure 57
0010
0000
0000
0000
,  // measure 58
0000
0000
0000
0000
,  // measure 59
0100
0000
0000
0000
,  // measure 60
0010
0000
0000
0000
,  // measure 61
0010
0000
0000
0000
,  // measure 62
0000
0000
0000
0000
,  // measure 63
1000
0000
0000
0000
,  // measure 64
1001
0000
0000
0000
,  // measure 65
0001
0000
0000
0000
,  // measure 66
0010
0000
0000
0000
,  // measure 67
0001
0000
0000
0000
,  // measure 68
1000
0000
0000
0000
,  // measure 69
0100
0000
0000
0000
,  // measure 70
1000
0000
0000
0000
,  // measure 71
0001
0000
0000
0000
,  // measure 72
1000
0000
0000
0000
,  // measure 73
0001
0000
0000
0000
,  // measure 74
0001
0000
0000
0000
,  // measure 75
1001
0000
0000
0000
;

//---------------dance-single - ----------------
#NOTES:
     dance-single:
     :
     Hard:
     8:
     0.584,0.555,0.703,0.041,0.058: // measure 1
0001
0010
0100
0000
0010
0000
1100
0000
,  // measure 2
1000
0100
0010
0000
0100
0000
0011
0000
,  // measure 3
0001
0010
0100
0000
1000
0001
1000
0001
,  // measure 4
1000
0100
0010
0000
0001
1000
0001
0000
,  // measure 5
1000
0100
0010
0000
0100
0000
0011
0000
,  // measure 6
0001
0010
0100
0000
0010
0000
1100
0000
,  // measure 7
1000
0100
0010
0000
0001
1000
0001
1000
,  // measure 8
0001
0010
0100
0000
0100
0000
1100
0000
,  // measure 9
1001
0000
0010
0100
1000
0000
0100
0000
,  // measure 10
0001
0100
1000
0000
0100
0000
0010
0000
,  // measure 11
0001
0010
1000
0000
0010
0000
0001
0010
,  // measure 12
0100
0010
0011
0011
,  // measure 13
1001
0000
0100
0010
0001
0000
1000
0000
,  // measure 14
0001
0010
1000
0000
0010
0000
0001
0000
,  // measure 15
1000
0000
0010
0100
0010
1000
0100
0000
,  // measure 16
0010
0000
0100
1000
0000
0001
1001
0000
,  // measure 17
0001
0100
0001
0000
1000
0010
1000
0000
,  // measure 18
0001
0110
1000
0110
,  // measure 19
0001
0010
0001
0000
1000
0100
1000
0000
,  // measure 20
0100
0010
0001
1000
0001
0000
0101
0000
,  // measure 21
0001
0010
1000
0010
0001
0000
1010
0000
,  // measure 22
1000
0100
0001
0100
1000
0000
0101
0000
,  // measure 23
0001
0010
1000
0010
0001
1000
0001
1000
,  // measure 24
0010
0010
0000
0000
1010
0000
1010
0000
,  // measure 25
1001
0000
1001
0000
0000
0010
0100
0010
,  // measure 26
1000
0010
0001
0000
1000
0100
0001
0000
,  // measure 27
1001
0101
1010
0101
,  // measure 28
1100
1001
0011
1001
,  // measure 29
1001
0000
1001
0000
0000
0010
0100
0010
,  // measure 30
0001
0010
1000
0000
0001
0100
1000
0000
,  // measure 31
1010
1001
0101
1001
,  // measure 32
0011
1001
1100
1001
,  // measure 33
1001
0000
1001
0000
0000
0010
0100
0010
,  // measure 34
1000
0010
0001
1000
0001
0010
1000
0000
,  // measure 35
1001
1010
1010
0101
,  // measure 36
0101
0011
1001
1100
,  // measure 37
1001
0000
1001
0000
0000
0100
0010
0100
,  // measure 38
0001
0100
1000
0001
1000
0100
0001
0000
,  // measure 39
0101
1001
1010
1001
,  // measure 40
0011
1001
1100
1001
,  // measure 41
1200
1000
1000
1300
,  // measure 42
0021
0001
0001
0031
,  // measure 43
1200
1000
1000
1300
,  // measure 44
1000
0001
1000
0001
1000
1000
0000
0000
,  // measure 45
1001
0000
0000
0001
0000
0100
0110
0000
,  // measure 46
1001
0000
0000
1000
0000
0010
0110
0000
,  // measure 47
1001
0000
0000
0001
0000
0100
0110
0000
,  // measure 48
1000
0000
1000
0010
0000
0010
0100
0000
0100
0001
0000
0000
,  // measure 49
0100
0001
0010
0000
0001
1000
0001
0000
,  // measure 50
0010
0100
1000
0001
1000
0100
0010
0000
,  // measure 51
0001
0100
0010
0000
1000
0001
1000
0000
,  // measure 52
1010
0110
0101
0110
,  // measure 53
1001
0000
1000
0000
0100
0010
0001
0000
,  // measure 54
1000
0001
1000
0000
0001
0010
0100
1000
,  // measure 55
0001
1000
0001
0000
0010
0100
1000
0000
,  // measure 56
1100
0110
0011
0110
,  // measure 57
1001
0010
0100
1000
,  // measure 58
0001
0100
0010
0100
0001
0100
1000
0100
,  // measure 59
0001
0010
0100
1000
0010
0100
0010
0000
,  // measure 60
0100
0100
0010
1000
1000
0001
1000
0001
,  // measure 61
1001
0100
0010
0001
,  // measure 62
1000
0010
0100
0010
1000
0010
0001
0010
,  // measure 63
1000
0100
0010
0001
0100
0010
0100
0000
,  // measure 64
0010
0010
0100
0001
0001
1000
0100
0010
,  // measure 65
0001
0000
0000
0100
0000
0000
0010
0000
0000
0100
0000
0000
0001
0000
1000
0000
,  // measure 66
0001
0000
0000
0010
0000
0000
0100
0000
0000
0000
1000
0000
0010
0000
1000
0000
,  // measure 67
0001
0000
0000
0010
0000
0000
0100
0000
0000
0000
1000
0000
0001
0000
1000
0000
,  // measure 68
0001
0000
0000
0010
0000
0000
0100
0000
0010
0000
0000
0000
0011
0000
0000
0000
,  // measure 69
1001
0000
0000
0010
0000
0000
0100
0000
0000
1000
0000
0000
0010
0000
0100
0000
,  // measure 70
0001
0000
0000
0100
0000
0000
0010
0000
0000
0000
1000
0000
0010
0000
0100
0000
,  // measure 71
0001
0000
0000
0100
0000
0000
0010
0000
0000
0000
1000
0000
0100
0000
0010
0000
,  // measure 72
0001
0000
0000
0100
0000
0000
0010
0000
1000
0000
0000
0000
1001
0000
0000
0000
,  // measure 73
1000
0100
0010
0001
1000
0100
0010
0000
,  // measure 74
0101
0000
0000
0000
1100
0000
0000
0000
0101
0000
0000
0000
1100
0000
0000
2002
,  // measure 75
0000
0000
3003
0000
;

//---------------dance-single - ----------------
#NOTES:
     dance-single:
     :
     Challenge:
     9:
     0.681,0.616,0.463,0.099,0.256: // measure 1
1000
0000
0000
0010
0000
0000
0100
0000
0000
0001
0000
0000
0010
0000
0100
0000
,  // measure 2
1000
0000
0000
0010
0000
0000
0100
0000
0000
0001
0010
0000
0100
0000
1000
0000
,  // measure 3
0001
0000
0000
0010
0000
0000
0100
0000
0000
1000
0010
0000
0100
0000
0001
0000
,  // measure 4
1000
0000
0000
0100
0000
0000
0010
0000
0001
0000
1000
0000
0001
0000
1000
0000
,  // measure 5
0001
0000
0000
0100
0000
0000
0010
0000
0000
1000
0000
0000
0100
0000
0010
0000
,  // measure 6
0001
0000
0000
0010
0000
0000
0100
0000
0000
1000
0010
0000
0100
0000
0001
0000
,  // measure 7
1000
0000
0000
0100
0000
0000
0010
0000
0000
0001
0100
0000
0010
0000
1000
0000
,  // measure 8
0001
0000
0000
0010
0000
0000
0100
0000
0000
0000
0000
0000
1010
0000
0000
0000
,  // measure 9
1001
0000
0100
0010
0001
1000
0001
1000
,  // measure 10
0001
0010
0100
1000
0001
0100
0001
1000
,  // measure 11
0001
0000
0010
0100
1000
0001
1000
0001
,  // measure 12
1000
0100
0010
0001
0101
0000
1100
0000
,  // measure 13
1001
0000
0100
0010
1000
0001
1000
0001
,  // measure 14
1000
0010
0100
0001
1000
0001
0010
0001
,  // measure 15
1000
0000
0010
0100
0001
1000
0001
1000
,  // measure 16
0001
0100
0010
1010
0000
1010
1001
0000
,  // measure 17
0010
1000
0100
0020
0000
0031
1000
0001
,  // measure 18
0100
0110
1001
1001
,  // measure 19
0100
0001
0010
0200
0000
1300
0001
1000
,  // measure 20
0010
0100
0010
1000
0100
1000
0001
1000
,  // measure 21
0001
0010
0100
2000
0000
3010
0101
0000
,  // measure 22
1000
0100
0010
0002
0000
0103
1010
0000
,  // measure 23
0001
0010
0100
1000
0100
0001
0100
1000
,  // measure 24
0010
0000
0110
0000
0000
0000
0000
0000
1001
0000
0100
0001
0100
0000
0010
1000
,  // measure 25
0010
0000
1001
0000
1000
0001
0010
1000
,  // measure 26
0010
0000
0001
0000
0010
0000
0100
0000
1000
0000
0000
0010
0000
0000
0100
0000
,  // measure 27
0001
0010
0100
2000
0000
3010
0100
0010
,  // measure 28
1000
0000
0000
0000
1001
0000
0000
0000
0010
0001
0010
0000
0100
1000
0100
0000
,  // measure 29
1001
0000
1001
0000
0001
1000
0100
0001
,  // measure 30
0100
0000
1000
0000
0100
0000
0010
0000
0001
0000
0000
0100
0000
0000
0010
0000
,  // measure 31
1000
1000
1010
0000
1000
0001
0101
0000
,  // measure 32
0001
1000
1100
0000
1000
0001
0011
0000
,  // measure 33
1001
0000
1001
0000
0100
0010
0100
0001
,  // measure 34
0010
1000
0020
0000
0031
1000
0020
0000
,  // measure 35
1030
0100
0010
0002
0000
0103
0010
0100
,  // measure 36
0001
0000
0001
0000
1001
0000
0000
0000
0100
1000
0100
0000
0010
0001
0010
0000
,  // measure 37
1001
0000
1001
0000
1000
0001
0100
1000
,  // measure 38
0100
0000
0001
0000
0010
0000
0100
0000
1000
0000
0000
0010
0000
0000
0100
0000
,  // measure 39
0001
0001
0101
0000
0001
1000
1010
0000
,  // measure 40
1000
0001
0011
0000
0001
1000
1100
0000
,  // measure 41
1001
0000
0000
0010
0000
0000
0001
0000
0000
0100
0000
0000
0001
0000
1000
0000
,  // measure 42
1001
0000
0000
0100
0000
0000
1000
0000
0000
0010
0000
0000
1000
0000
0001
0000
,  // measure 43
1001
0000
0000
0100
0000
0000
0001
0000
0000
0010
0000
0000
0001
0000
1000
0000
,  // measure 44
0010
0010
0010
0010
0010
0100
0000
0000
,  // measure 45
1001
0000
1000
0010
0000
0010
0110
0000
,  // measure 46
1001
0000
0001
0100
0000
0100
0110
0000
,  // measure 47
1001
0000
1000
0010
0000
0010
0110
0000
,  // measure 48
0001
0100
0001
0100
0001
1000
0010
1000
0010
1000
0000
0000
,  // measure 49
0001
1000
0001
1000
0001
0100
1000
0100
,  // measure 50
0001
0010
0001
0010
0100
1000
0100
0000
,  // measure 51
1000
0100
0010
0001
0010
1000
0010
0001
,  // measure 52
1000
1000
0100
0100
0010
0010
0001
0001
,  // measure 53
1001
0000
1000
0001
1000
0001
1000
0010
,  // measure 54
0001
0010
1000
0100
1000
0100
0010
0000
,  // measure 55
0001
1000
0010
1000
0010
1000
0001
1000
,  // measure 56
0001
0001
0010
0010
0100
0100
1000
1000
,  // measure 57
1001
0011
1010
0011
,  // measure 58
1010
0010
0100
0010
1000
0010
0001
0010
,  // measure 59
1000
0100
0010
0002
0000
1003
0001
0000
,  // measure 60
0100
0010
0100
0000
0001
0000
0100
0010
0100
0000
0001
0000
1000
0000
0100
0000
,  // measure 61
1001
1100
0101
1100
,  // measure 62
0101
0100
0010
0100
0001
0100
1000
0100
,  // measure 63
0001
0100
0010
2000
0000
3001
1000
0000
,  // measure 64
0010
0100
0010
0000
1000
0000
0010
0100
0010
0000
1000
0000
0001
0000
0010
0000
,  // measure 65
1001
0000
0000
0010
0000
0000
0100
0000
0000
1000
0000
0000
0010
1000
0010
0000
,  // measure 66
1000
0000
0000
0100
0000
0000
0010
0000
0000
0001
0100
0000
0010
1000
0010
0000
,  // measure 67
1000
0000
0000
0100
0000
0000
0010
0000
0000
0001
1000
0000
0100
0000
0010
0000
,  // measure 68
0001
0000
0000
0100
0000
0000
0010
0000
1000
0100
1000
0000
0001
0000
0010
0000
,  // measure 69
1001
0000
0000
0100
0000
0000
0010
0000
0000
0001
0000
0000
0100
0001
0100
0000
,  // measure 70
0001
0000
0000
0010
0000
0000
0100
0000
0000
1000
0010
0000
0100
0001
0100
0000
,  // measure 71
0001
0000
0000
0010
0000
0000
0100
0000
0000
1000
0001
0000
0010
0000
0100
0000
,  // measure 72
1000
0000
0000
0010
0000
0000
0100
0000
0001
0000
0000
0000
1001
0000
0000
0000
,  // measure 73
0001
0010
0100
1000
0001
0010
0100
0000
,  // measure 74
1000
0010
1000
0000
0001
0010
0001
0000
1000
0000
1000
0000
0010
0100
0000
2002
,  // measure 75
0000
0000
3003
0000
;
