#TITLE:亡國覚醒カタルシス;
#SUBTITLE:;
#ARTIST:ALI PROJECT;
#TITLETRANSLIT:BOUKOKU KAKUSEI CATHARSIS;
#SUBTITLETRANSLIT:;
#ARTISTTRANSLIT:;
#CREDIT:DigiMindAxel;
#BANNER:BOUKOKU KAKUSEI CATHARSIS.png;
#BACKGROUND:BOUKOKU KAKUSEI CATHARSIS-bg.png;
#LYRICSPATH:BOUKOKU KAKUSEI CATHARSIS.lrc;
#CDTITLE:DMAxel original simfile.png;
#MUSIC:BOUKOKU KAKUSEI CATHARSIS.mp3;
#OFFSET:-4.320;
#SAMPLESTART:67.114;
#SAMPLELENGTH:12.000;
#SELECTABLE:YES;
#BPMS:0.000=130.000;
#STOPS:;
#BGCHANGES:-8.000=BOUKOKU KAKUSEI CATHARSIS.avi=1.000=1=1=0,
99999=-nosongbg-=1.000=0=0=0 // don't automatically add -songbackground-
;

//---------------dance-single - ----------------
#NOTES:
     dance-single:
     :
     Easy:
     3:
     0.224,0.291,0.074,0.117,0.000:
1000
1000
0001
0001
,
0010
0100
1000
0001
,
1000
1000
0001
0001
,
1000
0100
0010
0000
,
0100
0010
0100
0010
,
0100
1000
0001
0100
,
0010
0100
0010
0100
,
0001
0010
0100
1000
,
0002
0000
0000
0000
,
1003
0100
0010
0000
,
1001
0000
0001
0000
,
0100
0000
0010
0000
,
1000
0000
0100
0000
,
0010
0000
0001
0000
,
0010
0000
0100
0000
,
2000
0000
0100
0000
,
3002
0000
0100
0000
,
1003
0000
0000
0000
,
0010
0000
0100
0000
,
0001
0000
0010
0000
,
0100
0000
1000
0000
,
0001
0000
1000
0000
,
0010
0000
0100
0000
,
0020
0000
0100
0000
,
2030
0000
0001
0000
,
3100
0000
0000
0000
,
1001
1000
0001
0000
,
0100
0001
0100
0000
,
0010
1000
0010
0000
,
0100
0010
0100
0001
,
2000
0000
0000
3100
,
0020
0000
0000
0031
,
0200
0000
0320
0000
,
0130
0000
0000
0000
,
1001
0001
0010
0010
,
0001
0010
0100
1000
,
0100
0100
1000
1000
,
0010
0100
0010
0000
,
1000
1000
0001
0001
,
0010
0100
1000
0001
,
0100
0100
0010
0010
,
1000
0010
0100
0000
,
0001
0001
1001
1000
,
0100
0010
0001
1000
,
1001
1000
1001
0100
,
0010
0001
0220
0330
;

//---------------dance-single - ----------------
#NOTES:
     dance-single:
     :
     Medium:
     6:
     0.390,0.413,0.223,0.149,0.016:
0001
0100
0001
0100
0001
0010
0100
0000
,
1000
0010
1000
0010
1000
0100
0010
0000
,
0001
1000
0010
1000
0001
0010
0100
0000
,
0000
1001
0000
1001
0000
0001
0002
0000
,
0103
0001
0010
0001
0100
0001
0010
0000
,
0100
1000
0010
1000
0100
0000
1000
0000
,
0010
0100
1000
0100
0010
0000
0100
0000
,
1000
0001
0100
0001
1000
0000
0000
0000
,
0200
0000
0320
0000
,
0230
0000
0300
0000
,
1001
0010
0100
1000
,
0001
0001
1000
1000
,
0100
0010
0001
0010
,
0100
0010
0001
1000
,
0100
0010
0001
0100
,
0020
0000
0000
1000
2030
0000
0000
0001
,
3002
0000
0000
0100
0203
0000
0000
0010
,
0310
1000
0100
0010
,
1001
1000
0010
0100
,
0001
0100
1000
0100
,
0001
0010
0001
1000
,
0001
0010
1000
0010
,
0001
0010
0100
1000
,
0100
0010
0100
1000
,
0002
0000
0000
0100
0203
0000
0000
0010
,
0310
1000
0100
0010
,
0001
0100
0010
0000
0110
0000
0000
0000
,
0100
0010
0100
0000
0010
1000
0010
0000
,
1000
0010
0100
0000
0110
0000
0000
0000
,
0010
0100
0010
0000
0100
0001
1000
0000
,
0210
0001
0001
0301
,
0120
1000
1000
1030
,
0110
0001
0110
1000
,
0001
0010
0100
1000
0001
0010
0100
1000
,
0001
0000
0101
0000
0010
0100
0010
0000
,
1000
0100
0010
0000
0001
0100
0010
0000
,
1000
0000
1010
0000
0010
0100
0010
0000
,
0000
1001
0000
1001
0000
1000
1000
0000
,
0001
0100
0010
0000
0100
0000
0101
0000
,
0010
0001
1000
0000
0100
0000
1100
0000
,
0010
0100
0010
0000
0100
0000
0101
0000
,
0001
0010
0100
1000
0010
0000
0000
0000
,
1000
0000
1000
0000
0001
0000
0001
0000
0010
0100
0000
0000
0110
0000
0000
0000
,
0001
0000
0010
0000
0100
0000
1000
0000
0100
0010
0000
0000
0110
0000
0000
0000
,
0100
0000
0001
0000
0010
0000
0100
0000
1000
0001
0000
0000
1001
0000
0000
0000
,
0001
0010
0100
1000
0220
0000
0330
0000
;

//---------------dance-single - ----------------
#NOTES:
     dance-single:
     :
     Hard:
     8:
     0.567,0.631,0.074,0.202,0.239: // measure 1
1000
0000
1000
0000
0010
0000
0010
0000
0100
0000
0000
0001
0010
0000
0100
0000
,  // measure 2
1000
0100
0001
0100
2000
0000
3010
0000
,  // measure 3
0100
0000
0100
0000
0001
0000
0001
0000
1000
0000
0100
1000
0100
0000
0010
0000
,  // measure 4
0001
0000
0110
0000
0000
0000
0110
0000
0000
0000
1000
0000
0010
0100
0010
0000
,  // measure 5
1000
0000
1000
0000
0001
0000
0001
0000
0100
0000
0000
0010
1000
0000
0001
0000
,  // measure 6
0010
1000
0010
0001
2000
0000
3010
0100
,  // measure 7
1000
0000
0100
0000
0001
0000
0100
0000
0020
0000
0000
0000
0130
0000
0000
0001
,  // measure 8
1000
0000
0100
0000
0010
0000
0000
0001
0100
0000
0010
0000
0200
0000
0000
0000
,  // measure 9
0301
0010
0100
1000
0001
0000
0001
0000
,  // measure 10
1000
0000
0000
0000
1000
0000
0000
0000
0001
1000
0000
1000
0100
0000
0000
0000
,  // measure 11
1000
0001
0010
0100
0000
0010
0001
0100
,  // measure 12
0000
0001
0010
0100
0000
0010
0001
0100
,  // measure 13
0010
1000
0100
0010
0000
0100
1000
0010
,  // measure 14
0000
1000
0100
0010
0000
0100
1000
0010
,  // measure 15
0100
0001
0010
0100
0000
0010
0001
1000
,  // measure 16
0020
0100
0000
2030
0000
3001
0010
0100
,  // measure 17
1000
0001
1000
0001
1000
0000
0010
0000
0200
0000
0000
0000
0000
0000
0301
0000
,  // measure 18
0100
1000
0100
0001
1000
0000
0001
0001
,  // measure 19
0001
1000
0010
0100
0000
1000
0100
0010
,  // measure 20
0000
1000
0010
0100
0000
1000
0100
0010
,  // measure 21
0100
0001
0100
0010
0000
0001
0010
0100
,  // measure 22
0000
0001
0100
0010
0000
0001
0010
0100
,  // measure 23
0010
1000
0010
0100
0000
0001
0010
0100
,  // measure 24
0020
0001
0000
0032
0000
1003
0100
0010
,  // measure 25
0001
0000
0100
0000
0010
0000
1000
0100
0020
0000
0000
0000
0000
0000
0031
1000
,  // measure 26
0001
0000
0100
0000
0001
0000
0100
0000
0010
0000
1000
0000
0010
0000
1000
0000
0001
0000
0100
0000
0000
0100
0000
0000
,  // measure 27
0110
0001
0010
0100
0001
0100
1000
0000
,  // measure 28
0010
0100
1000
0100
0001
0100
0010
0000
,  // measure 29
1000
0100
0010
1000
0010
0001
0100
0000
,  // measure 30
0001
0000
0000
0010
0000
0000
0100
0000
0000
0001
0000
0000
0100
0000
0000
1000
0000
0000
0001
0000
0100
0000
0010
0000
,  // measure 31
0200
0000
0001
0000
0310
1000
0100
0010
,  // measure 32
0200
0000
1000
0000
0310
0100
1000
0001
,  // measure 33
0200
0000
0000
0000
0301
0000
0100
0010
0100
0000
0010
0100
0010
0000
0100
0001
,  // measure 34
1000
0100
1000
0000
0001
0010
0001
0000
0100
0010
0100
0010
0100
0010
0100
0000
,  // measure 35
0110
0000
1000
0000
0100
0000
0001
0000
0100
0000
1000
0100
0010
0000
0100
0000
,  // measure 36
1000
0010
0001
0010
1000
0001
0100
0100
,  // measure 37
0001
0000
1000
0000
0100
0000
0001
0000
0100
0000
1000
0100
0010
0000
0001
0100
,  // measure 38
0001
0000
0110
0000
0000
0000
0110
0000
0000
0000
1000
0000
0010
0100
0010
0000
,  // measure 39
1000
0000
0001
0000
0010
0000
1000
0000
0010
0000
0001
0010
0100
0000
0010
0000
,  // measure 40
0001
0100
1000
0100
0002
0000
1003
0001
,  // measure 41
0010
0000
0100
0000
0001
0000
0100
0000
2000
0000
0000
0000
3001
0000
0000
1000
,  // measure 42
0001
0000
0010
0000
0100
0000
0001
0000
0100
1000
0100
0000
1001
0000
0000
0000
,  // measure 43
0001
0000
0001
0000
0100
0000
0100
0000
0010
2000
0000
0000
0001
0000
3001
0000
,  // measure 44
1000
0100
1000
0100
0010
0001
0010
0001
0100
0020
0000
0000
1030
0000
0000
0000
,  // measure 45
0001
0000
0001
0000
0010
0000
0010
0000
0100
2000
0000
0000
0010
0000
3010
0000
,  // measure 46
1000
0000
0100
0010
0001
1000
0001
1000
0200
0000
0000
0000
0300
0000
0000
0000
;

//---------------dance-single - ----------------
#NOTES:
     dance-single:
     :
     Beginner:
     1:
     0.070,0.145,0.053,0.000,0.000:
0000
0000
0000
0000
,
0000
0000
0000
0000
,
0000
0000
0000
0000
,
0000
0000
0000
0000
,
1000
0000
0000
0000
,
0001
0000
0000
0000
,
0100
0000
0000
0000
,
0010
0000
0000
0000
,
1000
0000
0000
0000
,
0000
0000
0000
0000
,
1001
0000
0000
0000
,
0001
0000
0000
0000
,
1000
0000
0000
0000
,
0001
0000
0000
0000
,
1000
0000
0000
0000
,
0001
0000
0000
0000
,
0010
0000
0000
0000
,
0100
0000
0000
0000
,
1000
0000
0000
0000
,
0001
0000
0000
0000
,
1000
0000
0000
0000
,
0001
0000
0000
0000
,
1000
0000
0000
0000
,
0010
0000
0000
0000
,
0100
0000
0000
0000
,
0010
0000
0000
0000
,
1001
0000
0000
0000
,
0000
0000
0000
0000
,
0001
0000
0000
0000
,
0000
0000
0000
0000
,
1000
0000
0000
0000
,
0010
0000
0000
0000
,
0010
0000
0010
0000
,
0000
0000
0000
0000
,
1001
0000
0000
0000
,
0001
0000
0000
0000
,
1000
0000
0000
0000
,
0001
0000
0000
0000
,
0010
0000
0000
0000
,
0100
0000
0000
0000
,
0010
0000
0000
0000
,
0100
0000
0000
0000
,
1000
0000
0000
0000
,
0001
0000
0000
0000
,
1001
0000
0001
0000
,
1000
0000
1001
0000
;
