#TITLE:ビーマニ戦隊ポップンファイブ;
#SUBTITLE:;
#ARTIST:うた:石原慎一 さくし:RYO;
#TITLETRANSLIT:BEMANI SENTAI POP'N FIVE;
#SUBTITLETRANSLIT:;
#ARTISTTRANSLIT:UTA:SHINICHI ISHIHARA SAKUSHI:RYO;
#CREDIT:DigiMindAxel;
#BANNER:BEMANI SENTAI POP'N FIVE.png;
#BACKGROUND:BEMANI SENTAI POP'N FIVE-bg.png;
#LYRICSPATH:BEMANI SENTAI POP'N FIVE.lrc;
#CDTITLE:pop'n music.png;
#MUSIC:BEMANI SENTAI POP'N FIVE.mp3;
#OFFSET:-5.360;
#SAMPLESTART:8.104;
#SAMPLELENGTH:12.000;
#SELECTABLE:YES;
#BPMS:0.000=172.000;
#STOPS:;
#BGCHANGES:;

//---------------dance-single - ----------------
#NOTES:
     dance-single:
     :
     Easy:
     4:
     0.291,0.384,0.347,0.173,0.000:
2000
0000
0000
0000
,
3002
0000
0003
0000
,
1001
0000
0000
1000
,
0100
0010
0001
1000
,
1001
0000
0000
0001
,
0010
0100
1000
0001
,
1001
0000
0000
0100
,
0010
1000
0100
0010
,
1001
0000
0110
0000
,
1001
0001
0001
0001
,
2000
0000
0000
0000
,
3002
0000
0000
0000
,
1003
0000
0100
0000
,
0010
0000
0001
0000
,
1000
0000
0001
0000
,
0010
0000
0100
0000
,
1000
0000
0001
0000
,
1000
0000
0010
0000
,
0100
0000
0000
0000
,
0110
0000
0000
0000
,
1001
0000
0010
0000
,
0100
0000
1000
0000
,
0010
0000
0100
0000
,
0010
0000
0100
0000
,
0001
0000
1000
0000
,
0001
0000
1000
0000
,
1001
0000
0110
0000
,
1001
0000
0001
0000
0001
0000
0000
2000
,
0000
0000
0000
0000
0000
0001
0000
3002
,
0000
0000
0000
0000
0000
1000
0000
2003
,
0000
0000
0000
0000
0000
0001
0000
3001
,
0000
1001
0000
1000
0000
1001
0000
0000
,
0200
0000
0000
0000
0000
0010
0000
0320
,
0000
0000
0000
0000
0000
0100
0000
0230
,
0000
0000
0000
0000
0000
0010
0000
0310
,
0000
0110
0000
1000
0000
1001
0000
0000
,
0002
0000
0000
0000
0000
1000
0000
2003
,
0000
0000
0000
0000
0000
0001
0000
3002
,
0000
0000
0000
0000
0000
1000
0000
1003
,
0000
1001
0000
0001
0000
1001
0000
0000
,
0020
0000
0000
0000
0000
0100
0000
0230
,
0000
0000
0000
0000
0000
0010
0000
0320
,
0000
0000
0130
0000
,
1001
1000
0001
1000
,
0020
0000
0000
0000
,
0000
0000
0000
0030
,
1001
0000
0000
1000
,
0100
0010
0001
1000
,
1001
0000
0000
0001
,
0010
0100
1000
0001
,
1001
0000
0000
0100
,
0010
1000
0100
0010
,
1001
0000
0110
0000
,
1001
0001
1000
0001
,
1001
0000
0000
0001
,
0010
0100
1000
0001
,
1001
0000
0000
1000
,
0100
0010
0001
1000
,
1001
0000
0000
0001
,
0010
0100
1000
0010
,
0110
0000
1001
0000
,
0110
0110
0110
0110
,
0000
0000
0000
1001
;

//---------------dance-single - ----------------
#NOTES:
     dance-single:
     :
     Medium:
     6:
     0.452,0.480,0.653,0.265,0.000:
0002
0000
0203
0000
,
0320
0000
1030
0000
,
1001
1001
0000
0001
,
0001
0010
0001
0000
1000
0100
1000
0000
,
1001
1001
0000
1000
,
1000
0100
1000
0000
0001
0010
0001
0000
,
1001
1001
0000
0001
,
0001
0100
0001
0000
1000
0010
1000
0000
,
1001
0000
1100
0000
,
0101
0101
0101
0101
,
1002
0000
0000
0000
,
2003
0000
0001
3001
,
1001
0010
0100
0000
,
1000
0001
1000
0001
,
1000
0100
0010
0001
,
1000
0100
0010
0001
,
0200
0000
0320
0000
,
0230
0000
0302
0000
,
1003
0100
0010
0001
,
0110
0000
0000
0110
0000
0000
0000
0000
,
1001
0100
0010
0000
,
0001
1000
0001
1000
,
0001
0010
0100
1000
,
0001
0010
0100
1000
,
0020
0000
0230
0000
,
0320
0000
1030
0000
,
1001
0000
0110
0000
,
1001
0000
1001
0000
1000
0001
0000
0200
,
0000
0000
0001
0000
0000
0301
0000
2000
,
0000
0000
0010
0000
0000
3010
0000
0200
,
0000
0000
0010
0000
0000
0310
0000
0110
,
0000
1100
0000
0011
0000
1001
0000
0000
,
0020
0000
1000
0000
0000
1030
0000
0002
,
0000
0000
0100
0000
0000
0103
0000
0020
,
0000
0000
0100
0000
0000
0130
0000
0110
,
0000
0011
0000
1100
0000
1001
0000
0000
,
0200
0000
0001
0000
0000
0301
0000
2000
,
0000
0000
0010
0000
0000
3010
0000
0200
,
0000
0000
0010
0000
0000
0310
0000
0110
,
0000
1010
0000
0101
0000
1001
0000
0000
,
0200
0000
1000
0000
0000
1300
0000
0002
,
0000
0000
0010
0000
0000
0013
0000
0000
,
1001
0000
0110
0000
,
1010
1010
1010
1010
,
1002
0000
0000
0000
,
2003
0000
0001
3001
,
1001
1001
0000
0001
,
0001
0010
0001
0000
1000
0010
1000
0000
,
1001
1001
0000
1000
,
1000
0100
1000
0000
0001
0100
0001
0000
,
1001
1001
0000
1000
,
1000
0010
1000
0000
0001
0010
0001
0000
,
0101
0000
1100
0000
,
0110
0110
0110
0110
,
1001
1001
1000
0001
,
1000
0010
1000
0000
0001
0010
0001
0000
,
1001
1001
0001
1000
,
0001
0010
0001
0000
1000
0010
1000
0000
,
1001
1001
1000
0001
,
0100
0010
0100
0000
0001
1000
0001
0000
,
0101
0100
1100
0100
,
1001
0110
1001
0110
,
0002
0000
0000
0000
0000
1000
1003
0000
;

//---------------dance-single - ----------------
#NOTES:
     dance-single:
     :
     Hard:
     8:
     0.622,0.544,0.846,0.122,0.000:
1000
0100
1000
0000
0100
0010
0100
0000
,
0010
0001
0010
0000
0100
1000
0001
0000
,
1001
0000
1001
0000
1000
0000
0010
0100
,
0001
0010
0100
0000
1000
0100
0010
0000
,
1001
0000
1001
0000
0001
0000
0100
0010
,
1000
0100
0010
0000
0001
0010
0100
0000
,
1001
0000
1001
0000
1000
0000
0010
0100
,
0001
0010
0100
0000
1000
0100
0010
0000
,
0101
0000
1100
0000
,
1001
0110
1001
0110
,
1000
0100
1000
0000
0100
0010
0100
0000
,
0010
0001
0010
0000
0100
1000
0001
0000
,
1001
0000
0010
1000
0010
0100
0000
0001
,
0100
0010
0100
0000
0001
1000
0001
0010
,
0100
1000
0010
0000
0100
0001
0010
0000
,
0001
1000
0002
0000
0203
0000
0320
0000
,
2030
0001
3002
0100
,
0203
0010
0320
1000
,
1030
0001
0000
0100
0010
0000
1000
0100
,
0010
0010
0000
0001
1000
0000
0000
0000
,
1001
0000
0010
0001
0100
0010
0000
1000
,
0010
0100
0010
0000
1000
0001
1000
0100
,
0010
0001
0100
0000
0010
1000
0100
0000
,
1000
0001
1000
0200
0000
0320
0000
0031
,
2000
0010
3020
0100
,
0230
0001
0301
0000
,
1100
0000
0101
0000
,
1001
0000
0110
0000
0001
1000
0000
1001
,
0000
1000
0100
1000
0100
1100
0000
1001
,
0000
0001
0100
0001
0100
0101
0000
1001
,
0000
1000
0010
1000
0010
1010
0000
0101
,
0000
0110
0000
0110
0000
1001
0000
0000
,
1001
0000
0001
0100
0001
0101
0000
1001
,
0000
1000
0010
1000
0010
1010
0000
1001
,
0000
0001
0010
0001
0010
0011
0000
1100
,
0000
0110
0000
0110
0000
1001
0000
0000
,
1001
0000
1000
0100
1000
1100
0000
1001
,
0000
0001
0010
0001
0010
0011
0000
1001
,
0000
1000
0010
1000
0010
1010
0000
0101
,
0000
0110
0000
0110
0000
1001
0000
0000
,
1001
0000
0001
0100
0001
0101
0000
0110
,
0000
1000
0010
1000
0010
1010
0000
0000
,
0110
0000
1001
0000
,
0110
0110
1001
1001
,
0001
0010
0001
0000
0010
0100
0010
0000
,
0100
1000
0100
0000
0010
0001
1000
0000
,
1001
0000
1001
0000
0001
0000
1000
0100
,
0010
0100
1000
0001
0010
0100
0010
0000
,
1001
0000
1001
0000
1000
0000
0001
0010
,
0100
0010
0001
1000
0100
0010
0100
0000
,
1001
0000
1001
0000
0001
0000
0100
0010
,
0100
0001
0010
0001
1000
0100
0010
0001
,
1001
1000
1001
0001
,
0101
1010
0101
1010
,
0110
0000
0110
0000
1000
0000
0010
0100
,
0010
1000
0100
1000
0001
0010
0100
0000
,
0110
0000
0110
0000
0001
0000
0100
0010
,
0100
0001
0010
0001
1000
0100
0010
0000
,
0110
0000
0110
0000
1000
0000
0010
0100
,
0010
1000
0100
0010
0100
1000
0001
0000
,
0101
0100
1100
0100
,
1001
0110
1001
0110
,
1000
0100
0010
0100
1000
0001
1001
0000
;

//---------------dance-single - ----------------
#NOTES:
     dance-single:
     :
     Challenge:
     9:
     0.724,0.736,0.612,0.112,0.163: // measure 1
1000
0100
0010
0000
0100
0010
0001
0000
,  // measure 2
0100
0000
0010
0000
0100
0000
0000
0000
0001
1000
0001
1000
0001
0000
0000
0000
,  // measure 3
0102
0000
1000
1003
0000
0010
0100
0010
,  // measure 4
1000
0100
0001
0100
1000
0100
0010
0000
,  // measure 5
2010
0000
0001
3001
0000
0100
0010
0100
,  // measure 6
0001
0100
1000
0100
0001
0010
0100
0000
,  // measure 7
0102
0000
1000
1003
0000
0010
1000
0001
,  // measure 8
0010
0001
1000
0100
0010
0001
1000
0100
,  // measure 9
1100
0100
0101
0100
,  // measure 10
1100
0101
1100
0101
,  // measure 11
0010
1000
0100
0000
1000
0100
0000
1000
,  // measure 12
0001
0000
0000
0000
0100
0000
0010
0000
1000
0001
1000
0001
1000
0000
0000
0000
,  // measure 13
0001
0100
0010
0100
0001
1000
0000
0100
,  // measure 14
0010
0100
1000
0100
0010
0001
0100
1000
,  // measure 15
0100
0001
0100
0010
0100
0001
0100
0000
,  // measure 16
0010
1000
0010
0100
0010
1000
0100
0001
,  // measure 17
0100
1000
0010
0000
0100
0001
0010
0000
,  // measure 18
0100
1000
0010
0000
0100
0001
0010
0000
,  // measure 19
0001
0000
2000
0000
0000
0000
0010
0000
3010
0000
0000
0000
0100
0001
0100
0000
,  // measure 20
0010
0000
0100
0000
0000
0000
0010
0000
0100
0000
0010
1000
0010
0000
0000
0000
,  // measure 21
1000
0010
0100
0010
1000
0001
0000
0010
,  // measure 22
0100
0010
0001
0010
0100
1000
0100
0001
,  // measure 23
0100
1000
0010
0100
0010
1000
0010
0000
,  // measure 24
0100
0000
0001
0000
0010
0000
0100
0000
0000
0000
1100
0000
0000
0000
0001
1000
,  // measure 25
0001
0100
0010
0000
0100
0010
1000
0000
,  // measure 26
0100
1000
0010
0000
0100
0001
0010
0000
,  // measure 27
1001
0000
0100
1000
0100
0000
0000
0000
1001
0000
0100
1000
0100
0000
0000
0000
,  // measure 28
1001
0000
0010
0001
0010
0000
0001
0010
0001
0000
1000
0000
0000
0000
1001
0000
,  // measure 29
0000
0001
0010
0100
1000
1010
0000
0110
,  // measure 30
0000
1000
0100
0010
0001
0101
0000
0110
,  // measure 31
0000
0001
0010
0100
1000
1010
0000
0110
,  // measure 32
0000
0011
0000
0011
0000
1010
0000
0000
,  // measure 33
1001
0010
0100
1000
0001
0011
0000
0110
,  // measure 34
0000
1000
0010
0100
0001
0011
0000
1001
,  // measure 35
0000
0001
0100
0010
1000
1100
0000
1001
,  // measure 36
0000
0101
0000
0101
0000
1001
0000
0000
,  // measure 37
1001
0100
0010
0001
1000
1100
0000
1001
,  // measure 38
0000
0001
0010
0100
1000
1010
0000
1001
,  // measure 39
0000
1000
0100
0010
0001
0101
0000
1001
,  // measure 40
0000
1100
0000
1100
0000
1001
0000
0000
,  // measure 41
1001
0010
0100
1000
0001
0101
0000
0110
,  // measure 42
0000
0000
1000
0000
0100
0000
0010
0000
0001
0000
1001
0000
0000
0000
0100
1000
,  // measure 43
0100
0000
0000
0000
0000
0000
0010
0001
0010
0000
0000
0000
0000
0000
0001
1000
,  // measure 44
0001
0000
1000
0001
1000
0000
0100
1000
0100
0000
0010
0001
0010
0001
0010
0000
,  // measure 45
0001
1000
0010
0000
1000
0010
0000
1000
,  // measure 46
0001
0000
0000
0000
0100
0000
0010
0000
1000
0001
1000
0001
1000
0000
0000
0000
,  // measure 47
1002
0000
0100
0103
0000
0010
1000
0100
,  // measure 48
0001
0100
1000
0001
0010
0100
1000
0001
,  // measure 49
2001
0000
0010
3010
0000
0100
0001
0010
,  // measure 50
1000
0010
0001
1000
0100
0010
0001
1000
,  // measure 51
1002
0000
0010
0013
0000
0100
1000
0001
,  // measure 52
0100
0000
1000
0000
0100
0000
0001
0000
1000
0000
0100
0000
0010
0000
0001
0100
,  // measure 53
0001
0000
0000
0000
1001
0000
1000
0010
1000
0000
0000
0000
1001
0000
0000
0000
,  // measure 54
0011
1100
0011
1100
,  // measure 55
0210
0000
0001
0301
0000
0010
1000
0100
,  // measure 56
0010
1000
0010
0001
0010
0100
1000
0010
,  // measure 57
0120
0000
1000
1030
0000
0100
0001
0010
,  // measure 58
0100
0000
0001
0000
0100
0000
1000
0000
0100
0000
0010
0000
0001
0000
0100
0010
,  // measure 59
0200
0000
0001
0301
0000
0010
1000
0010
,  // measure 60
0001
0000
0010
0000
0100
0000
0001
0000
0010
0000
0100
0000
1000
0000
0010
0100
,  // measure 61
0010
0000
0000
0000
1001
0000
0100
0001
0100
0000
0000
0000
1001
0000
0010
1000
,  // measure 62
0010
0000
0100
0010
0100
0000
0001
0010
0001
0000
1000
0100
1000
0100
1000
0000
,  // measure 63
0001
0000
1000
0000
0001
0010
0002
0000
0000
0000
1003
0001
1000
0000
0000
0000
;

//---------------dance-single - ----------------
#NOTES:
     dance-single:
     :
     Beginner:
     2:
     0.095,0.160,0.071,0.000,0.000:
0000
0000
0000
0000
,
0000
0000
0000
0000
,
1001
0000
0000
0000
,
0001
0000
1000
0000
,
0001
0000
0000
0000
,
1000
0000
0001
0000
,
1000
0000
0000
0000
,
0010
0000
0100
0000
,
0010
0000
0010
0000
,
0010
0000
0000
0000
,
1000
0000
0000
0000
,
0000
0000
0000
0000
,
1000
0000
0000
0000
,
0001
0000
0000
0000
,
1000
0000
0000
0000
,
0000
0000
0000
0000
,
0001
0000
0000
0000
,
1000
0000
0000
0000
,
0001
0000
0000
0000
,
0000
0000
0000
0000
,
0100
0000
0000
0000
,
0010
0000
0000
0000
,
0100
0000
0000
0000
,
0000
0000
0000
0000
,
0001
0000
0000
0000
,
1000
0000
0000
0000
,
1001
0000
0000
0000
,
1001
0000
0000
0000
0000
0000
0000
0100
,
0000
0000
0000
0000
,
0100
0000
0000
0000
,
0100
0000
0000
0000
,
0000
0000
0000
0000
,
0010
0000
0000
0000
,
0010
0000
0000
0000
,
0010
0000
0000
0000
,
0010
0000
0000
0000
,
1000
0000
0000
0000
,
1000
0000
0000
0000
,
1000
0000
0000
0000
,
1000
0000
0000
0000
,
0001
0000
0000
0000
,
0001
0000
0000
0000
,
0001
0000
0000
0000
,
0001
0000
0000
0000
,
1000
0000
0000
0000
,
0000
0000
0000
0000
,
1001
0000
0000
0000
,
1000
0000
0000
0000
,
0001
0000
0000
0000
,
1000
0000
0000
0000
,
0001
0000
0000
0000
,
1000
0000
0000
0000
,
0010
0000
0000
0000
,
0100
0000
0000
0000
,
1001
0000
0000
0000
,
0000
0000
0000
0000
,
0001
0000
0000
0000
,
0000
0000
0000
0000
,
1001
0000
0000
0000
,
0000
0000
0000
0000
,
1000
0000
0001
0000
,
1000
0000
0000
0000
,
1000
0000
0000
1001
;
