#TITLE:薔薇は美しく散る;
#SUBTITLE:;
#ARTIST:中山マミ;
#TITLETRANSLIT:BARA WA UTSUKUSHIKU CHIRU;
#SUBTITLETRANSLIT:;
#ARTISTTRANSLIT:MAMI NAKAYAMA;
#CREDIT:DigiMindAxel;
#BANNER:BARA WA UTSUKUSHIKU CHIRU.png;
#BACKGROUND:BARA WA UTSUKUSHIKU CHIRU-bg.png;
#LYRICSPATH:BARA WA UTSUKUSHIKU CHIRU.lrc;
#CDTITLE:pop'n music.png;
#MUSIC:BARA WA UTSUKUSHIKU CHIRU.mp3;
#OFFSET:-6.832;
#SAMPLESTART:59.656;
#SAMPLELENGTH:12.000;
#SELECTABLE:YES;
#BPMS:0.000=127.000,203.000=122.000,204.000=121.000,205.000=118.000,207.000=105.000,208.000=99.000,208.500=87.000,209.750=66.000,210.375=59.000;
#DISPLAYBPM:127;
#STOPS:132.000=1.417
,201.000=1.417
;
#BGCHANGES:;

//---------------dance-single - ----------------
#NOTES:
     dance-single:
     :
     Easy:
     3:
     0.223,0.222,0.101,0.338,0.004:
1000
1000
1000
1000
,
2002
0000
0000
3003
,
0110
0010
0010
0010
,
0200
0000
0310
0000
,
0200
0000
0310
0000
,
2000
0000
3001
0000
,
2000
0000
3001
0000
,
0002
0000
1003
0000
,
0002
0000
1003
0000
,
0020
0000
0130
0000
,
0020
0000
0130
0010
,
1000
0100
0010
0001
,
1000
0000
1000
0000
,
0001
0010
0100
1000
,
0001
0000
0001
0000
,
0100
0010
1000
0100
,
0020
0000
0031
0000
,
0001
1000
0001
0010
,
0200
0000
2300
0000
,
3001
0000
0000
0000
,
1001
0000
0100
1000
,
0100
0000
0010
0001
,
0100
0000
0010
0100
,
0010
0000
0100
0001
,
0010
0000
0100
1000
,
0010
0000
0100
0010
,
0100
0100
0010
0010
,
0100
0100
0200
0300
,
1001
0000
0000
1001
0000
0000
0000
0000
,
2000
0000
3200
0000
,
0310
0002
0000
0203
,
0000
0302
0000
1003
,
1001
0000
0000
1001
0000
0000
0000
0000
,
0001
2000
0000
3200
,
0000
0320
0000
0032
,
0000
2003
0000
3200
,
0000
0320
0000
0032
,
0000
2003
0000
3002
,
0000
0203
0000
0000
,
0301
1000
2000
0000
,
0000
3000
0010
0100
,
0010
2000
0000
0000
,
0000
0000
3001
1000
,
0001
0200
0000
0320
,
0000
0230
0000
0300
,
0000
0000
1001
0000
0000
1001
0000
0000
,
0000
0002
0000
0023
,
0000
0130
2000
0000
,
3020
0000
0230
0000
,
0301
0000
1001
0000
0000
1001
0000
0000
,
0000
1000
0001
0010
,
0100
1000
0001
1000
,
0001
0000
0000
0000
0000
0000
0000
0000
1000
0000
0000
0000
0000
0000
0000
0000
0000
0000
0000
1001
0000
0000
0000
0000
0000
0000
0000
0000
0000
0000
0000
0000
;

//---------------dance-single - ----------------
#NOTES:
     dance-single:
     :
     Hard:
     8:
     0.492,0.474,0.203,0.287,0.148:
0001
0000
0000
0001
0100
0000
0000
0100
0010
0000
1000
0000
0100
0000
0010
0000
,
0002
0203
0320
1030
,
0110
0110
1001
1001
,
0200
0000
1300
0000
0010
0001
0100
0010
,
0100
0001
1000
0001
,
0020
0000
0031
0000
0100
1000
0010
0100
,
0010
1000
0001
1000
,
0010
0100
0010
0000
1000
0100
0001
0100
,
1000
0001
1000
0001
,
0100
0010
0100
0000
0001
0100
1000
0100
,
0001
1000
1001
0110
,
1000
0100
0001
0000
0100
1000
0010
0100
,
0010
2000
3200
0320
,
0031
0100
1000
0000
0100
0001
0010
0100
,
0010
0002
0023
0230
,
1300
0001
0100
0000
1000
0100
0001
0010
,
0200
2300
3002
2003
,
3001
1000
0100
0000
0001
0100
1000
0100
,
0010
0001
0100
0010
1000
0100
0010
0001
,
1000
0000
0000
0000
0000
0000
0000
0000
0001
0000
0000
0001
0000
0000
0001
0000
,
1000
0000
1010
0000
0100
0001
0010
1000
,
0010
0000
0011
0000
0100
0001
0010
1000
,
0010
0000
1001
0000
1000
0100
0010
0001
,
0100
0000
0110
0000
0010
1000
0100
0001
,
0100
0000
1100
0000
0010
1000
0100
0001
,
0100
0000
1001
0000
0010
0001
0010
0100
,
1000
0000
0000
1000
0010
0000
0000
0010
0100
0000
0000
0100
0001
0000
0000
0001
,
2000
0000
3010
0000
0100
0001
1000
0001
,
1001
0010
0100
1001
0010
0100
1000
0001
,
0200
0000
0301
0010
0200
0000
1300
0010
,
0100
0000
0001
0100
0001
0000
2000
0000
0000
0000
3010
0100
0010
0000
2000
0000
,
0000
0000
3001
0100
0001
0000
2000
0000
0000
0000
3010
0000
0100
0000
0010
0000
,
1001
0100
0010
1001
0100
0010
0001
1000
,
0020
0000
0000
0030
0000
0000
0000
0000
0000
0000
0000
0000
0000
0000
0000
0000
0000
0000
0000
0000
0000
0000
0000
0000
0000
0000
0000
0000
0000
0000
0000
0000
0000
0000
0000
0000
0000
0000
0000
0000
0000
0000
0000
0000
0000
0000
0000
0000
1000
0000
0000
0000
0000
0000
0000
0000
0000
0000
0000
0000
0000
0000
0000
0000
0010
0000
0000
0000
0000
0000
0000
0000
0000
0000
0000
0000
0000
0000
0000
0000
1000
0000
0000
0000
0000
0000
0000
0000
0000
0000
0000
0000
0000
0000
0000
0000
0010
0000
0000
0000
0000
0000
0000
0000
0000
0000
0000
0000
0000
0000
0000
0000
0100
0000
0000
0000
0000
0000
0000
0000
0000
0000
0000
0000
0000
0000
0000
0000
0001
0000
0000
0000
0000
0000
0000
0000
0000
0000
0000
0000
0000
0000
0000
0000
1000
0000
0000
0000
0000
0000
0000
0000
0000
0000
0000
0000
0000
0000
0000
0000
0000
0000
0000
0000
0000
0000
0000
0000
0000
0000
0000
0000
0000
0000
0000
0000
0000
0000
0000
0000
0000
0000
0000
0000
0000
0000
0000
0000
0000
0000
0000
0000
,
1001
0000
0000
0001
0010
0001
0010
0100
1000
0001
0000
0000
,
1001
0000
0000
0100
0001
0100
0001
0010
0100
1000
0000
0000
,
1001
0000
0000
1000
0100
1000
0010
0100
0001
1000
0100
1000
,
0010
0000
0100
0000
0010
0000
1000
0000
0000
0001
0000
0000
0100
0000
0000
0001
0000
0000
1000
0000
0000
0100
0000
0000
,
0010
0100
1000
0001
0100
0001
1000
0001
,
0100
1000
0100
0001
0010
0100
0010
0001
,
1000
0010
0100
0010
1000
0001
0100
1000
,
0100
0001
1000
0010
0100
0010
1000
0001
,
0100
0001
1000
0100
1000
0001
0010
1000
,
0010
0001
0100
0100
0002
0000
0103
0100
,
0002
0000
2003
0000
3001
0010
0200
0000
,
0310
0000
1001
0010
0100
1001
0010
0100
,
1000
0001
0200
0000
0310
1000
0200
0000
,
1300
0000
0001
0000
0100
0000
0001
0100
0001
0000
2000
0000
0000
0000
3010
0100
,
0010
0000
2000
0000
0000
0000
3001
0100
0001
0000
2000
0000
0000
0000
3010
0000
,
0100
0010
1001
0100
0010
1001
0100
0010
,
0001
0000
0000
0000
0000
0000
0000
0000
1000
0000
0000
0000
0000
0000
0000
0000
0020
0030
0000
0000
0000
0000
0000
0000
0000
0000
0000
0000
0000
0000
0000
0000
1000
0000
0000
0000
0000
0000
0000
0000
0100
0000
0000
0000
0000
0000
0000
0000
0010
0000
0000
0000
0000
0000
0000
0000
0001
0000
0000
0000
0000
0000
0000
0000
,
0100
1000
0100
0010
1000
0100
0001
0100
,
0010
0000
0000
0000
0001
0000
0000
0000
1000
0000
0000
0000
0000
0000
0100
0000
0000
0000
0000
2002
0000
0000
0000
0000
0000
0000
0000
0000
0000
0000
0000
0000
,
0000
0000
3003
0000
;

//---------------dance-single - ----------------
#NOTES:
     dance-single:
     :
     Challenge:
     9:
     0.583,0.700,0.135,0.253,0.367:
1000
0000
0100
1000
0100
0000
0010
0100
0010
0000
0001
0000
0001
0000
1000
0000
,
1000
0100
0001
0100
1000
0010
0001
0010
,
1010
0000
0110
0000
0101
0000
1001
1000
,
0010
0100
0010
1000
0100
0001
0100
0000
,
1000
0000
0100
0000
0010
0000
0000
0001
1000
0000
0100
0000
1000
0000
0000
0000
,
0010
0100
0010
1000
0100
0001
0100
1000
,
0001
0000
0010
0000
0100
0000
0000
1000
0001
0000
0100
0000
0001
0000
0000
0000
,
0100
1000
0100
0001
1000
0100
0010
0000
,
0001
0000
0100
0000
0010
0000
0000
1000
0001
0000
0010
0000
0001
0000
0000
0000
,
0100
1000
0100
0001
0100
1000
0010
0100
,
0001
0000
0010
0000
0100
0000
0000
0000
1000
0001
1000
0000
1001
0000
0000
0000
,
0001
0100
0001
1000
0100
0001
0100
1000
,
0002
0203
2300
3200
,
0301
0100
0001
1000
0100
0001
0100
1000
,
0010
0200
0320
0230
,
0301
1000
1000
0001
0001
1000
0100
0010
,
0002
0203
0320
2030
,
3001
0100
2000
0000
3100
0001
1000
0010
,
0100
0001
0100
0001
0100
0001
0100
0000
0010
1000
0010
1000
0010
1000
0100
0010
,
0001
0000
0000
0000
0000
0000
0000
0000
0100
0000
0000
0100
0000
0000
0100
0000
,
0110
0000
1001
0000
0001
0100
1000
0100
,
0001
0010
0100
0000
1000
0100
0001
0100
,
1000
0100
0010
0000
0001
0010
1000
0010
,
0001
0010
0100
0000
1000
0010
0001
0010
,
1000
0100
0010
0000
0100
1000
0001
0010
,
1000
0010
0001
0000
0100
0001
0100
0010
,
1000
0000
0100
1000
0100
0000
0010
0100
0010
0000
0001
0010
0001
0000
1000
0001
,
2000
0000
0010
0000
3010
0000
0000
0100
0001
0000
0001
0000
1000
0000
1000
0000
,
1001
0000
0100
0000
0010
0000
1001
0000
0100
0000
0010
0000
0001
0100
0001
1000
,
0200
1000
1300
0001
0200
0000
0301
1000
,
0100
0000
0010
0001
0100
0000
0020
0000
0000
0000
0130
0001
0010
0000
0200
0000
,
0000
0000
1300
0010
0100
0000
0002
0000
0000
0000
1003
0100
1000
0001
0100
0000
,
1001
0000
0010
0000
0100
0000
1001
0000
0010
0000
0100
0000
1000
0010
0100
0001
,
0200
0000
0000
0300
0000
0000
0000
0000
0000
0000
0000
0000
0000
0000
0000
0000
0000
0000
0000
0000
0000
0000
0000
0000
0000
0000
0000
0000
0000
0000
0000
0000
0000
0000
0000
0000
0000
0000
0000
0000
0000
0000
0000
0000
0000
0000
0000
0000
0001
0000
0000
0000
0000
0000
0000
0000
0000
0000
0000
0000
0000
0000
0000
0000
0010
0000
0000
0000
0000
0000
0000
0000
0000
0000
0000
0000
0000
0000
0000
0000
0100
0000
0000
0000
0000
0000
0000
0000
0000
0000
0000
0000
0000
0000
0000
0000
1000
0000
0000
0000
0000
0000
0000
0000
0000
0000
0000
0000
0000
0000
0000
0000
0001
0000
0000
0000
0000
0000
0000
0000
0000
0000
0000
0000
0000
0000
0000
0000
1000
0000
0000
0000
0000
0000
0000
0000
0000
0000
0000
0000
0000
0000
0000
0000
0001
0000
0000
0000
0000
0000
0000
0000
0000
0000
0000
0000
0000
0000
0000
0000
0010
0000
0000
0000
0000
0000
0000
0000
0000
0000
0000
0000
0000
0000
0000
0000
0100
0000
0000
0000
0000
0000
0000
0000
0000
0000
0000
0000
0000
0000
0000
0000
,
1000
0010
0100
0010
1000
0100
0010
0001
0100
0010
0100
0001
,
0010
0100
1000
0010
0100
0001
1000
0001
1000
0010
0100
0001
,
0010
0100
0010
0001
0100
1000
0100
0001
1000
0010
0001
0010
,
1000
0000
0010
0000
0100
0000
0001
0000
0000
0100
0000
0000
1000
0000
0000
0100
0000
0000
0001
0000
0000
0010
0000
0000
,
0100
0010
0001
1000
0100
0001
0100
1000
,
1000
0001
0001
1000
0100
0010
0100
1000
,
0001
0010
1000
0010
0001
0001
0100
0100
,
0010
0010
1000
0100
0001
0100
0010
0001
,
0100
1000
0100
0010
1000
0001
0010
0100
,
1000
0001
0100
0100
0002
0000
1003
1000
,
0200
0000
0000
0000
2300
0000
0000
0000
0000
0000
3001
0100
0001
0000
1000
0000
,
0100
1000
1001
0010
0100
1001
0010
0100
,
1000
0010
1000
0001
0020
0000
0001
0000
0031
0000
1000
0000
0200
0000
0000
0000
,
1300
0000
0001
0000
0100
0000
0010
1000
0100
0000
0020
0000
0000
0000
0031
0010
,
0100
0000
2000
0000
0000
0000
3010
0100
0001
0000
0200
0000
0000
0000
0310
0100
,
0010
1000
0100
0000
1001
0000
0100
0000
0010
0000
1001
0000
0100
0000
0010
0000
,
0001
0000
0000
0000
0100
0000
0000
0000
0001
0000
0000
0000
1000
0000
0000
0000
0200
0300
0000
0000
0000
0000
0000
0000
0000
0000
0000
0000
0000
0000
0000
0000
1000
0000
0000
0000
0010
0000
0000
0000
1000
0000
0000
0000
0010
0000
0000
0000
0100
0000
0000
0000
0001
0000
0000
0000
0100
0000
0000
0000
0001
0000
0000
0000
,
0010
0100
1000
0100
1000
0001
0010
0001
0010
0100
1000
0100
1000
0010
0100
0010
,
0100
0000
0001
0000
1000
0000
0001
0000
1000
0000
0000
0010
0000
0000
0100
0000
0001
0000
0000
2002
0000
0000
0000
0000
0000
0000
0000
0000
0000
0000
0000
0000
,
0000
0000
3003
0000
;

//---------------dance-single - ----------------
#NOTES:
     dance-single:
     :
     Medium:
     5:
     0.313,0.339,0.084,0.211,0.004:
2000
0001
0001
3001
,
0220
0330
2002
3003
,
1000
1001
0001
1001
,
0100
0001
0100
0001
,
1000
0001
1000
0001
,
1000
0010
1000
0010
,
0100
0010
0100
0010
,
1000
0001
1000
0001
,
1000
0100
0010
0001
,
0100
0010
0100
0010
,
1000
0010
0100
0001
,
1000
0100
0010
0001
,
2000
0000
3002
0000
,
0013
0100
1000
0010
,
0200
0000
0320
0000
,
1030
0100
0010
0001
,
2000
0000
3002
0000
,
0013
0100
1000
0010
,
0100
0001
1000
0010
,
0110
0000
2000
0000
,
3001
0000
0000
0000
0100
0001
1000
0000
,
1100
0000
0010
0100
,
0010
0000
0000
0000
1000
0001
0010
0000
,
0011
0000
0001
0010
,
0100
0000
0000
0000
1000
0001
0100
0000
,
0010
0000
0100
0010
,
1000
0100
0001
0100
,
1000
0000
0000
0001
1000
0000
0010
0000
,
0100
0001
0100
0001
1000
0100
1000
0000
,
0002
0010
0023
0100
,
0130
0000
1000
0010
0000
0100
0001
0010
,
0000
0100
1000
0010
0000
2000
0000
0000
,
3001
0100
0001
1000
0100
1000
0001
0000
,
2002
3003
0000
0000
0000
0000
0000
0000
0000
0000
0000
0000
0000
0000
0000
0000
0001
0000
0000
0000
0000
0000
0000
0000
0000
0000
0000
0000
0000
0000
0000
0000
0100
0000
0000
0000
0000
0000
0000
0000
0000
0000
0000
0000
0000
0000
0000
0000
1000
0000
0000
0000
0000
0000
0000
0000
0000
0000
0000
0000
0000
0000
0000
0000
,
0100
0001
0010
1000
,
0010
0001
0100
1000
,
0100
0000
0001
0000
1000
0000
0001
1000
,
0001
1000
0001
0000
1000
0000
0010
1000
,
0100
0000
0010
0100
0010
0000
0001
0100
,
0001
0100
0001
0000
1000
0000
0010
0000
,
0100
0000
0001
0000
0100
0010
0100
0000
,
0001
1000
0100
1000
0100
0000
0010
0100
,
0010
0001
1000
0010
,
0100
0000
0010
0100
0010
0000
1000
0001
,
1000
0000
0002
0000
0000
1000
1003
0000
,
0000
0000
0001
0010
0001
0010
0001
1000
,
0010
2000
0100
3200
,
0010
0000
0310
0000
0001
0100
0000
0010
,
1000
0100
0000
0010
0001
0100
0000
0002
,
0000
0000
1003
0100
1000
0100
1000
0001
,
0100
0000
0000
0000
0000
0000
0000
0000
0000
0000
0000
0000
0000
0000
0000
0000
2002
3003
0000
0000
0000
0000
0000
0000
0000
0000
0000
0000
0000
0000
0000
0000
1000
0000
0000
0000
0000
0000
0000
0000
0000
0000
0000
0000
0000
0000
0000
0000
0100
0000
0000
0000
0000
0000
0000
0000
0000
0000
0000
0000
0000
0000
0000
0000
,
0001
0100
1000
0010
,
0100
0000
0000
0000
0000
0000
0000
0000
0001
0000
0000
0000
0000
0000
0000
0000
0000
0000
0000
2002
0000
0000
0000
0000
0000
0000
0000
0000
0000
0000
0000
0000
,
0000
0000
3003
0000
;

//---------------dance-single - ----------------
#NOTES:
     dance-single:
     :
     Beginner:
     1:
     0.066,0.111,0.059,0.000,0.004: // measure 1
1000
0000
0000
0000
,  // measure 2
0001
0000
0000
0000
,  // measure 3
1001
0000
0000
0000
,  // measure 4
0010
0000
0000
0000
,  // measure 5
0010
0000
0000
0000
,  // measure 6
0100
0000
0000
0000
,  // measure 7
0100
0000
0000
0000
,  // measure 8
0010
0000
0000
0000
,  // measure 9
0010
0000
0000
0000
,  // measure 10
0100
0000
0000
0000
,  // measure 11
0100
0000
0000
0000
,  // measure 12
0001
0000
0000
0000
,  // measure 13
0000
0000
0000
0000
,  // measure 14
1000
0000
0000
0000
,  // measure 15
0000
0000
0000
0000
,  // measure 16
0001
0000
0000
0000
,  // measure 17
0000
0000
0000
0000
,  // measure 18
0100
0000
0000
0000
,  // measure 19
0010
0000
0000
0000
,  // measure 20
0000
0000
0000
0000
,  // measure 21
1001
0000
0000
0000
,  // measure 22
1000
0000
0000
0000
,  // measure 23
0001
0000
0000
0000
,  // measure 24
0001
0000
0000
0000
,  // measure 25
0010
0000
0000
0000
,  // measure 26
0100
0000
0000
0000
,  // measure 27
1000
0000
0000
0000
,  // measure 28
0001
0000
0000
0000
,  // measure 29
1001
0000
0000
0000
,  // measure 30
0010
0000
0100
0000
,  // measure 31
0010
0000
0000
0000
,  // measure 32
0000
0000
0000
0000
,  // measure 33
1001
0000
0000
0000
,  // measure 34
0100
0001
0000
0000
,  // measure 35
0000
0010
0000
0000
,  // measure 36
0000
0100
0000
0000
,  // measure 37
0000
1000
0000
0000
,  // measure 38
0000
0001
0000
0000
,  // measure 39
0000
0000
0000
0000
,  // measure 40
0000
1000
0000
0000
,  // measure 41
0000
0000
0000
0000
,  // measure 42
0000
0001
0000
0000
,  // measure 43
0000
0000
0000
0000
,  // measure 44
0000
1000
0000
0010
,  // measure 45
0000
0100
0000
0000
,  // measure 46
0000
1001
0000
0000
,  // measure 47
0000
0100
0000
0010
,  // measure 48
0000
0100
0000
0000
,  // measure 49
0000
0000
0000
0000
,  // measure 50
0000
1001
0000
0000
,  // measure 51
0000
0010
1000
0000
,  // measure 52
0000
0000
0000
0000
,  // measure 53
0000
0000
0000
0000
0000
0000
0000
0000
0000
0000
0000
0000
0000
0000
0000
0000
0000
0000
0000
1001
0000
0000
0000
0000
0000
0000
0000
0000
0000
0000
0000
0000
;
