#TITLE:Atalante;
#SUBTITLE:;
#ARTIST:Kozo Nakamura;
#TITLETRANSLIT:;
#SUBTITLETRANSLIT:;
#ARTISTTRANSLIT:;
#CREDIT:DigiMindAxel;
#BANNER:Atalante.png;
#BACKGROUND:Atalante-bg.png;
#LYRICSPATH:;
#CDTITLE:GUITAR FREAKS & drummania.png;
#MUSIC:Atalante.mp3;
#OFFSET:-10.420;
#SAMPLESTART:57.175;
#SAMPLELENGTH:12.000;
#SELECTABLE:YES;
#BPMS:0.000=236.000;
#STOPS:;
#BGCHANGES:-48.000=Atalante.AVI=1.000=1=1=0,
99999=-nosongbg-=1.000=0=0=0 // don't automatically add -songbackground-
;

//---------------dance-single - ----------------
#NOTES:
     dance-single:
     :
     Easy:
     4:
     0.285,0.433,0.199,0.199,0.000:
2002
0000
0000
3003
,
0001
0010
0100
1000
,
2002
0000
0000
3003
,
1000
0100
0010
0000
,
2002
0000
0000
3003
,
0001
0010
0100
1000
,
0010
0000
0100
0000
,
0010
0000
1000
0000
,
2002
0000
0000
0000
,
0000
0000
0000
3003
,
0010
0000
0001
0000
,
0010
0000
0100
0000
,
1001
0000
0000
0000
,
1001
0000
0000
0000
,
0100
0000
1000
0000
,
0100
0000
0010
0000
,
1001
0000
0000
0000
,
1001
0000
0000
0000
,
0100
0000
0001
0000
,
0010
0000
0001
0000
,
1001
0000
0000
0000
,
1001
0000
0000
0000
,
0010
0000
1000
0000
,
0100
0000
1000
0000
,
1001
0000
0100
0000
,
0010
0000
0001
0000
,
2000
0000
0000
0000
,
3002
0000
0000
0000
,
2003
0000
0000
3000
,
0000
1001
0000
0000
0000
0000
0000
0000
,
0001
0000
0010
0000
,
0100
0000
1000
0000
,
0001
0000
1000
0000
,
0100
0000
0010
0000
,
0001
0000
0010
0000
,
0001
0000
0100
0000
,
0001
0000
0010
0000
,
0100
0000
1000
0000
,
0010
0000
1000
0000
,
0100
0000
1000
0000
,
0010
0000
0100
0000
,
0010
0000
1000
0000
,
0010
0000
0100
0000
,
0001
0000
0010
0000
,
0001
0000
1000
0000
,
0100
0000
0010
0000
,
0001
1000
0001
1000
,
0010
0100
0010
0100
,
0001
0000
0010
0000
,
0100
0000
1000
0000
,
0001
1000
0001
1000
,
0010
0100
0010
0100
,
0001
0000
1000
0000
,
0100
0000
0010
0000
,
0202
0000
0000
0000
,
0000
0303
0000
0000
,
0020
0000
0000
0030
,
1001
0000
1001
0000
,
0022
0000
0000
0000
,
0033
0000
0000
0000
,
0001
0000
0100
0000
,
1000
0000
0110
0000
,
2200
0000
0000
0000
,
3300
0000
0000
0000
,
1000
0000
0100
0000
,
0001
0000
0110
0000
,
1000
0000
0010
0000
,
1000
0000
0010
0000
,
0100
0000
0010
0000
,
0100
0000
0001
0000
,
0010
0000
0001
0000
,
1000
0000
0001
0000
,
1000
0000
0010
0000
,
0100
0000
0001
0000
,
1001
0000
0001
0000
,
0010
0000
0100
0000
,
1000
0000
0010
0000
,
1000
0000
0100
0000
,
0010
0000
0001
0000
,
1000
0000
0001
0000
,
0110
0000
0110
0000
,
0110
0000
1001
0000
,
0010
0100
0010
0100
,
0001
1000
0001
1000
,
0010
0000
1000
0000
,
0100
0000
0010
0000
,
0001
1000
0001
1000
,
0010
0100
0010
0100
,
0010
0000
1000
0000
,
0100
0000
0010
0000
,
0000
0000
0000
0000
,
0001
0000
0000
0010
,
0000
0000
1000
0000
,
0000
0020
0000
0000
,
0001
0030
0000
0100
,
0000
0000
1000
0000
,
0000
0200
0000
0000
,
0301
0000
0000
0010
,
0000
0000
0100
0000
,
0000
2000
0000
0000
,
3001
0000
0000
0010
,
0000
0000
0100
0000
,
0000
2000
0000
0000
,
3002
0000
0000
0203
,
0000
0000
0300
0000
;

//---------------dance-single - ----------------
#NOTES:
     dance-single:
     :
     Hard:
     8:
     0.680,0.735,0.588,0.124,0.000: // measure 1
1100
0000
0000
1010
0000
0000
1001
0000
,  // measure 2
0100
1000
0100
0010
,  // measure 3
0011
0000
0000
0101
0000
0000
1001
0000
,  // measure 4
0100
0000
1000
0000
0010
0100
0000
0000
,  // measure 5
1010
0000
0000
1100
0000
0000
1001
0000
,  // measure 6
0100
0001
0010
0001
,  // measure 7
0100
0010
0100
0000
0010
1000
0010
0000
,  // measure 8
0100
0001
0100
0001
2000
0000
0000
0000
,  // measure 9
3200
0000
0000
1000
0000
0000
1300
0000
,  // measure 10
0100
0010
0001
0100
,  // measure 11
0001
0001
1000
1000
,  // measure 12
0100
0100
0010
0010
,  // measure 13
0001
0000
0100
0010
0000
0010
1000
0000
,  // measure 14
0200
0000
0000
1000
0000
1300
0000
0000
,  // measure 15
1000
1000
0001
0001
,  // measure 16
0010
0010
0100
0100
,  // measure 17
1000
0000
0010
0100
0000
0100
0001
0000
,  // measure 18
0020
0000
0000
0001
0000
0031
0000
0000
,  // measure 19
0100
0001
0100
0002
0000
0000
0013
0000
,  // measure 20
0100
0000
1000
0010
0000
0010
1000
0000
,  // measure 21
0110
0000
0001
0100
0000
0000
0010
0000
,  // measure 22
0110
0000
1000
0020
0000
0000
0030
0000
,  // measure 23
0100
0010
0100
0000
0001
0000
0010
0100
,  // measure 24
0010
0000
0001
1000
0001
0000
1000
0000
,  // measure 25
1001
0000
0000
1001
0000
0000
1000
0000
,  // measure 26
0100
0001
0100
1000
,  // measure 27
0001
0010
0001
0010
0001
0010
0001
0000
,  // measure 28
1000
0100
1000
0100
1000
0100
1000
0000
,  // measure 29
1001
0000
0000
1100
0000
0000
0011
0000
,  // measure 30
0000
1001
0000
0000
0000
0000
0000
0000
,  // measure 31
0100
1000
0100
1000
,  // measure 32
0100
0010
0001
1001
,  // measure 33
0100
0001
0100
0001
,  // measure 34
0010
0100
1000
1001
,  // measure 35
0010
1000
0100
1000
,  // measure 36
0100
0010
0001
1001
,  // measure 37
1000
0100
1000
0100
1000
0000
1000
0000
,  // measure 38
0001
0010
0001
0010
0001
0000
0001
0000
,  // measure 39
1001
0010
0001
0010
,  // measure 40
0001
0000
0100
0000
0010
0100
0010
0000
,  // measure 41
1000
0100
1000
0001
,  // measure 42
0100
0010
0100
0010
0100
0010
0100
0000
,  // measure 43
0001
0010
0100
1000
,  // measure 44
0010
0000
0100
0000
0010
0100
0010
0000
,  // measure 45
0100
0001
0100
0000
0010
1000
0000
1000
,  // measure 46
0001
0000
0000
0010
0001
0010
0001
0000
,  // measure 47
1001
1000
0001
1001
,  // measure 48
0100
0100
1000
1001
,  // measure 49
0100
1000
0100
0000
1000
0010
1000
0000
,  // measure 50
0100
0010
0100
0010
0100
1000
0001
0000
,  // measure 51
1001
1000
0001
1001
,  // measure 52
0001
0001
0100
1001
,  // measure 53
0010
0001
0010
0000
0001
0100
0001
0000
,  // measure 54
0010
0100
0010
0100
0010
0001
1000
0000
,  // measure 55
1001
0000
0000
1100
0000
0000
1001
0000
,  // measure 56
0000
0011
0000
0000
0001
1000
0001
0000
,  // measure 57
1000
0010
1000
0010
0100
0000
0011
0000
,  // measure 58
0011
1100
1100
1001
,  // measure 59
1001
0000
0000
1010
0000
0000
1001
0000
,  // measure 60
0000
0000
0101
0000
0010
0100
0000
0000
,  // measure 61
1000
0100
0010
0001
,  // measure 62
0010
0000
0100
0000
1000
0010
0000
0000
,  // measure 63
1001
0000
0000
0101
0000
0000
1001
0000
,  // measure 64
0000
0000
1010
0000
0100
0010
0000
0000
,  // measure 65
0001
0010
0100
1000
,  // measure 66
0100
0000
0010
0000
0001
0100
0000
0000
,  // measure 67
0002
0000
0100
0000
0103
0000
0100
0010
,  // measure 68
2000
0010
3010
1001
,  // measure 69
0100
0010
0100
0000
0001
0010
0001
0000
,  // measure 70
1000
0010
1000
0010
1000
0000
1001
0000
,  // measure 71
0010
0100
0010
0000
1000
0100
1000
0000
,  // measure 72
0001
0010
0001
1001
,  // measure 73
1000
0001
0000
0001
0010
0000
0010
0100
,  // measure 74
0000
0100
1000
0000
0001
1000
0001
0000
,  // measure 75
1000
0000
0100
0000
1000
0000
0100
0010
,  // measure 76
0100
0000
1000
0001
1000
0000
0110
0000
,  // measure 77
0001
0000
0010
0000
0001
0000
0010
0100
,  // measure 78
0010
0000
0001
1000
0001
0000
0110
0000
,  // measure 79
1000
0010
0100
0000
0010
0100
0010
0000
,  // measure 80
0100
0001
0010
0000
0001
1000
0001
0000
,  // measure 81
2200
3300
0022
0033
,  // measure 82
0220
0000
0330
0000
1000
0001
0000
0000
,  // measure 83
1100
1100
1100
1001
,  // measure 84
0011
0011
0011
1001
,  // measure 85
0100
1000
0100
0000
1000
0001
1000
0000
,  // measure 86
0010
1000
0010
1000
0100
0010
0001
0000
,  // measure 87
1010
1010
1010
1001
,  // measure 88
0101
0101
0101
1001
,  // measure 89
0010
0001
0010
0000
0001
1000
0001
0000
,  // measure 90
0100
0001
0100
0001
0010
0100
0000
0000
,  // measure 91
0000
0000
2000
0000
,  // measure 92
3001
0000
0001
0100
0000
0100
0010
0000
,  // measure 93
0010
1000
0000
1000
0001
0000
0001
1000
,  // measure 94
0000
1000
0001
0010
0100
1000
0001
0000
,  // measure 95
1001
0000
0001
1000
0000
1000
0010
0000
,  // measure 96
0010
0100
0000
0100
0001
0000
0001
1000
,  // measure 97
0000
1000
0001
0010
0100
1000
0001
0000
,  // measure 98
1001
0000
1000
0001
0000
0001
0010
0000
,  // measure 99
0010
0100
0000
0100
1000
0000
1000
0001
,  // measure 100
0000
0001
1000
0100
0010
0001
1000
0000
,  // measure 101
1001
0000
0001
1000
0000
1000
0100
0000
,  // measure 102
0100
0010
0000
0010
0001
0000
0001
1000
,  // measure 103
0000
1000
0001
0010
0100
1000
0100
1000
,  // measure 104
0100
0010
0001
0010
0001
0010
0001
1000
,  // measure 105
0100
0010
0001
1000
0000
0000
0000
0000
;

//---------------dance-single - ----------------
#NOTES:
     dance-single:
     :
     Challenge:
     9:
     0.778,0.735,0.397,0.091,0.000:
0101
0000
0000
1010
0000
0000
1000
0000
,
0100
1000
0100
0000
0010
0001
0010
0000
,
0101
0000
0000
1010
0000
0000
1000
0000
,
0010
1000
0010
0000
1000
0001
0000
0000
,
1010
0000
0000
0101
0000
0000
0001
0000
,
0100
0001
0100
0000
0010
1000
0010
0000
,
1000
0001
1000
0001
1000
0001
1000
0100
,
1000
0100
0010
0001
0010
0001
1000
0000
,
0002
0000
0000
1000
0000
0000
1003
0100
,
0000
1000
0100
1000
0001
0100
0001
0000
,
1000
0100
1000
0000
0100
0010
0100
0000
,
0010
0001
0010
0000
0100
1000
0100
0000
,
1000
0100
0010
0002
0000
0000
1003
0000
,
2100
0000
0000
3001
0000
1001
0000
0000
,
0001
0010
0001
0000
0010
0100
0010
0000
,
0100
1000
0100
0000
0010
0001
0010
0000
,
0001
0010
0100
2000
0000
0000
3001
0000
,
0012
0000
0000
1003
0000
1001
0000
0000
,
0010
0001
0010
0100
0000
1000
0100
0010
,
0100
0000
1000
0001
0000
0001
1000
0000
,
1001
0000
0000
1100
0000
0000
0001
0000
,
0011
0000
0000
2002
0000
0000
3003
0000
,
0100
1000
0100
0010
0000
0001
0010
0100
,
0010
0000
0001
1000
0000
1000
0001
0000
,
1000
0010
1000
0001
0010
0100
1000
0001
,
0100
0001
1000
0100
0010
0001
1000
0100
,
1000
0001
0100
0001
0100
0001
0100
0001
,
1000
0010
1000
0010
1000
0010
1000
0100
,
0010
0000
0000
1001
0000
0000
0110
0000
,
0000
2002
0000
0000
0000
0000
3003
0000
,
0010
0001
0010
0000
0100
1000
0100
0000
,
1000
0001
0100
0001
1000
0000
1001
0000
,
0100
1000
0100
0000
0010
0001
0010
0000
,
0001
1000
0010
1000
0001
0000
1001
0000
,
0100
1000
0100
0000
0010
0001
0010
0000
,
0001
1000
0010
1000
0001
0000
1001
0000
,
0010
0001
0010
0000
0100
1000
0100
0000
,
1000
0001
0100
0001
1000
0100
0010
0001
,
1000
0010
1000
0000
0001
0100
0001
0000
,
0010
0100
1000
0010
0100
0010
1000
0000
,
0001
0100
0001
0000
1000
0010
1000
0000
,
0100
0010
0001
0100
0010
0100
0001
0000
,
0010
0100
0010
0000
0001
1000
0001
0010
,
0100
1000
0010
0100
0010
1000
0001
0000
,
0100
0010
0100
0001
0010
0100
0000
1000
,
0010
1000
0001
0010
0100
1000
0001
0000
,
0100
0001
0100
0001
1000
0000
1100
0000
,
0100
1000
0100
1000
0001
0000
0101
0000
,
0010
1000
0100
0000
0010
0001
0100
0000
,
0001
0010
0100
1000
0100
0010
0001
0000
,
0100
0001
0100
0001
1000
0000
1100
0000
,
0100
1000
0100
1000
0001
0000
0101
0000
,
0010
1000
0100
0000
0010
0001
0010
0100
,
1000
0001
0010
0100
1000
0001
0100
0001
,
1000
0000
0000
1100
0000
0000
1001
0000
,
0000
0011
0000
0000
0001
1000
0001
0000
,
1000
0100
0010
0001
1000
0000
1100
0000
,
1100
0011
0011
1001
,
1001
0000
0000
1200
0000
0000
1000
0000
,
0000
0000
1300
0000
1000
0001
0000
0000
,
1000
1000
0100
0100
,
0001
0000
0001
0000
0100
1000
0000
0000
,
1001
0000
0000
0021
0000
0000
0001
0000
,
0000
0000
0031
0000
0001
1000
0000
0000
,
0001
0001
0100
0100
,
1000
0000
1000
0000
0100
0001
0000
0000
,
1000
0100
1000
0000
0100
1000
0010
0100
,
0010
0100
0001
0100
,
0010
0100
0010
0000
1000
0001
1000
0000
,
0100
0010
0001
1000
0001
0000
1001
0000
,
0001
0010
0001
0000
0010
0001
0100
0010
,
0100
0000
0001
1000
0001
0000
1001
0000
,
0001
0100
0000
0100
1000
0000
1000
0100
,
0000
0100
0001
0000
1000
0001
1000
0000
,
0001
0100
0010
0000
0100
0010
1000
0000
,
0100
0010
0001
1000
0001
0000
1001
0000
,
1000
0010
0100
0000
0010
0100
0001
0000
,
0010
0100
1000
0001
1000
0000
1001
0000
,
0001
0100
0001
0100
1000
0100
1000
0100
,
0001
1000
0001
0010
1000
0010
1000
0010
,
0001
1000
0000
0000
0100
0010
0000
0000
,
0001
1000
0000
0000
0100
0010
0000
0000
,
0100
0001
0100
0001
1000
0000
1100
0000
,
0100
1000
0100
1000
0001
0000
0101
0000
,
0010
1000
0010
1000
0001
0010
0001
0010
,
0100
1000
0100
1000
0010
0100
0001
0000
,
0010
0001
0010
0001
1000
0000
1010
0000
,
0010
1000
0010
1000
0001
0000
0011
0000
,
0100
1000
0100
1000
0001
0100
0001
0100
,
0010
1000
0010
1000
0100
0010
0000
0000
,
0000
0000
0001
0001
,
1001
0000
0001
0100
1000
0100
0001
0000
,
0100
0001
0010
0100
1000
0000
0001
0100
,
1000
0100
0001
0010
0100
1000
0001
0000
,
1001
0000
1000
0100
0001
0100
1000
0000
,
0010
1000
0100
0010
0001
0000
1000
0100
,
0001
0100
1000
0100
0010
0001
1000
0000
,
1001
0000
0001
0010
1000
0010
0001
0000
,
1000
0100
0001
0100
1000
0000
0001
0010
,
1000
0010
0001
1000
0100
0010
0001
0000
,
1001
0000
1000
0100
0001
0100
1000
0000
,
0001
0010
1000
0010
0001
0000
1000
0100
,
0001
0100
1000
0001
0010
0100
1000
0100
,
0001
0100
1000
0010
0100
0010
1000
0100
,
0001
0100
1000
0010
0000
0000
0000
0000
;

//---------------dance-single - ----------------
#NOTES:
     dance-single:
     :
     Beginner:
     2:
     0.104,0.258,0.215,0.000,0.000:
1001
0000
0000
0000
,
0000
0000
0000
0000
,
1001
0000
0000
0000
,
0000
0000
0000
0000
,
1001
0000
0000
0000
,
0000
0000
0000
0000
,
0001
0000
0000
0000
,
0000
0000
0000
0000
,
1000
0000
0000
0000
,
0000
0000
0000
0000
,
0001
0000
0000
0000
,
0000
0000
0000
0000
,
0010
0000
0000
0000
,
0000
0000
0000
0000
,
0100
0000
0000
0000
,
0000
0000
0000
0000
,
1000
0000
0000
0000
,
0000
0000
0000
0000
,
0010
0000
0000
0000
,
0000
0000
0000
0000
,
0100
0000
0000
0000
,
0000
0000
0000
0000
,
0001
0000
0000
0000
,
0000
0000
0000
0000
,
0110
0000
0000
0000
,
0000
0000
0000
0000
,
1001
0000
0000
0000
,
0000
0000
0000
0000
,
0010
0000
0000
0000
,
0000
0000
0000
0000
,
1001
0000
0000
0000
,
0000
0000
0000
0000
,
0100
0000
0000
0000
,
0000
0000
0000
0000
,
0001
0000
0000
0000
,
0000
0000
0000
0000
,
0010
0000
0000
0000
,
0000
0000
0000
0000
,
1001
0000
0000
0000
,
0000
0000
0000
0000
,
0100
0000
0000
0000
,
0000
0000
0000
0000
,
1000
0000
0000
0000
,
0000
0000
0000
0000
,
0010
0000
0000
0000
,
0000
0000
0000
0000
,
1001
0000
0000
0000
,
1001
0000
0000
0000
,
0010
0000
0000
0000
,
0010
0000
0000
0000
,
1001
0000
0000
0000
,
1001
0000
0000
0000
,
0100
0000
0000
0000
,
0100
0000
0000
0000
,
0001
0000
0000
0000
,
0000
0000
0000
0000
,
1000
0000
0000
0000
,
0000
0000
0000
0000
,
0010
0000
0000
0000
,
0000
0000
0000
0000
,
0100
0000
0000
0000
,
0100
0000
0000
0000
,
1001
0000
0000
0000
,
0000
0000
0000
0000
,
0010
0000
0000
0000
,
0010
0000
0000
0000
,
1001
0000
0000
0000
,
0000
0000
0000
0000
,
0100
0000
0000
0000
,
0000
0000
0000
0000
,
1000
0000
0000
0000
,
0000
0000
0000
0000
,
0100
0000
0000
0000
,
0000
0000
0000
0000
,
1001
0000
0000
0000
,
0000
0000
0000
0000
,
0010
0000
0000
0000
,
0000
0000
0000
0000
,
0001
0000
0000
0000
,
0000
0000
0000
0000
,
1001
0000
0000
0000
,
0000
0000
0000
0000
,
0110
0000
0000
0000
,
0110
0000
0000
0000
,
0001
0000
0000
0000
,
1000
0000
0000
0000
,
0110
0000
0000
0000
,
0110
0000
0000
0000
,
1000
0000
0000
0000
,
0001
0000
0000
0000
,
0000
0000
0000
0000
,
1001
0000
0000
0000
,
0000
0000
0000
0000
,
0000
0000
0000
0000
,
0110
0000
0000
0000
,
0000
0000
0000
0000
,
0000
0000
0000
0000
,
1001
0000
0000
0000
,
0000
0000
0000
0000
,
0000
0000
0000
0000
,
0110
0000
0000
0000
,
0000
0000
0000
0000
,
0000
1001
0000
0000
,
1001
0000
0000
1001
;

//---------------dance-single - ----------------
#NOTES:
     dance-single:
     :
     Medium:
     6:
     0.473,0.475,0.431,0.033,0.000:
0001
0000
0000
0001
0000
0000
0001
0000
,
0010
0100
1000
0010
,
1000
0000
0000
1000
0000
0000
1000
0000
,
0100
0000
0010
0000
0001
1000
0000
0000
,
0110
0000
0000
0100
0000
0000
0100
0000
,
0001
0010
0100
1000
,
0010
0100
0010
1000
,
0100
0001
0100
1000
,
2002
0000
0000
0000
,
0000
0000
0000
3003
,
0100
0100
0010
0010
,
0100
0100
0010
0010
,
1001
0000
0000
0001
0000
0000
1000
0000
,
0001
0000
0000
1000
0000
0001
0000
0000
,
0100
0100
0010
0010
,
0100
0100
0010
0010
,
1001
0000
0000
1000
0000
0000
0001
0000
,
1000
0000
0000
0001
0000
1000
0000
0000
,
0100
0001
0100
0000
,
1000
0100
0010
0001
,
1001
0000
0000
1000
0000
0000
0000
0000
,
1001
0000
0000
0001
0000
0000
0000
0000
,
0100
1000
0100
0000
,
0001
0010
0100
1000
,
1001
0100
0010
0001
,
0010
0100
1000
0100
,
0110
0000
1001
0000
,
0110
0000
1001
0000
,
0220
0000
0000
0000
0000
0000
0000
0330
,
0000
1001
0000
0000
0000
0000
0000
0000
,
0010
0001
0010
0001
,
0010
0100
1000
1001
,
0100
1000
0100
1000
,
0100
0010
0001
1001
,
0100
0001
0100
0001
,
0010
0100
1000
1001
,
0010
1000
0010
1000
,
0010
1000
0100
0010
,
1001
0100
0001
0100
,
0001
0010
0100
1001
,
0010
1000
0010
1000
,
0100
0010
0001
1001
,
0010
0001
0010
0001
,
0010
0100
1000
0110
,
0001
0100
0001
0100
,
1000
0100
1000
0100
,
0001
0001
0001
1001
,
1000
1000
1000
1001
,
0001
0010
0100
1000
,
0001
0010
0100
1000
,
0001
0001
0001
1001
,
1000
1000
1000
1001
,
1000
0100
0010
0001
,
1000
0100
0010
0001
,
0100
0000
0000
0100
0000
0000
0100
0000
,
0000
0100
0000
0000
0000
0000
0000
0000
,
0001
0010
0100
1000
,
0100
0001
0100
1000
,
0010
0000
0000
0010
0000
0000
0110
0000
,
0000
0001
0001
0000
,
0010
0001
0010
0100
,
1000
0010
0110
0000
,
0100
0000
0000
0100
0000
0000
0110
0000
,
0000
1000
1000
0000
,
0100
1000
0100
0010
,
0001
0100
0110
0000
,
1000
0000
0010
1000
,
0100
0000
0010
0000
,
0001
0100
0001
0010
,
0100
0000
0000
1001
,
0010
1000
0010
0100
,
0001
0100
0010
1000
,
0010
0000
0000
0010
0000
0000
0010
0000
,
0000
0010
0000
0000
1001
0000
0000
0000
,
0010
0001
0010
0001
,
0010
0100
1000
0100
,
0010
0100
0010
0100
,
0010
0100
1000
0001
,
1000
0001
1000
0001
,
1000
0001
1000
0000
,
0110
0000
1001
0000
,
0110
0000
1001
0000
,
0010
0100
0010
0110
,
0001
1000
0001
1001
,
1000
0100
0010
0001
,
1000
0100
0010
0001
,
1000
0001
1000
1001
,
0010
0100
0010
0110
,
0001
0010
0100
1000
,
0001
0010
0100
0000
,
0000
0000
0000
0000
,
0011
0000
0000
0001
0000
0000
0011
0000
,
0000
0001
0000
0000
1100
0000
0000
1000
,
0000
1100
0000
0000
,
1010
0000
0000
1000
0000
0000
1010
0000
,
0000
1000
0000
0000
0101
0000
0000
0001
,
0000
0101
0000
0000
,
1001
0000
0000
0001
0000
0001
0010
0000
,
0000
0100
0000
0100
1000
0000
0000
0100
,
0000
0100
0010
0000
0000
0000
0000
0000
,
1001
0000
0000
1000
0000
1000
0100
0000
,
0000
0010
0000
0010
0001
0000
0000
0010
,
0000
0010
0100
0000
0000
1100
0000
0000
,
0101
0000
0000
0101
0000
0000
1100
0000
,
0000
1000
0000
0001
0000
0000
0000
0000
;
