#TITLE:Armajiro;
#SUBTITLE:;
#ARTIST:Bunmei;
#TITLETRANSLIT:;
#SUBTITLETRANSLIT:;
#ARTISTTRANSLIT:;
#CREDIT:DigiMindAxel;
#BANNER:Armajiro.png;
#BACKGROUND:Armajiro-bg.png;
#LYRICSPATH:;
#CDTITLE:KEYBOARDMANIA.png;
#MUSIC:Armajiro.mp3;
#OFFSET:-8.580;
#SAMPLESTART:8.518;
#SAMPLELENGTH:12.000;
#SELECTABLE:YES;
#BPMS:0.000=183.500,98.000=91.750,138.000=183.500;
#STOPS:;
#BGCHANGES:-24.000=Armajiro.AVI=1.000=1=1=0,
99999=-nosongbg-=1.000=0=0=0 // don't automatically add -songbackground-
;

//---------------dance-single - ----------------
#NOTES:
     dance-single:
     :
     Easy:
     3:
     0.205,0.243,0.167,0.111,0.000:
2000
0000
3001
0010
,
0100
1000
0002
0000
,
1003
0100
0010
0001
,
2000
0000
3001
0010
,
0100
1000
0220
0000
,
0000
0330
0000
0000
,
2000
0000
3001
0010
,
0100
1000
0002
0000
,
1003
0100
0010
0001
,
2000
0000
3001
0010
,
0100
1000
0220
0000
,
0000
0330
0000
0000
,
0001
0000
1000
0000
,
0100
0000
0010
0000
,
0001
0000
1000
0000
,
0001
0000
0010
0000
,
0100
0000
1000
0000
,
0010
0000
0100
0000
,
0010
0000
1000
0000
,
0100
0000
0010
0000
,
1001
0000
0000
1001
,
0000
0000
1001
0000
,
0000
1001
0000
0000
,
0010
0100
0010
0100
,
0010
0100
0010
0000
,
0000
0000
0110
0000
,
0000
0000
1001
0000
,
0000
0000
0001
0000
,
0000
0000
1000
0000
,
0000
0000
0001
0000
,
0000
0000
0110
0000
,
0000
0000
0100
0000
,
0000
0000
0010
0000
,
0000
0000
1000
0000
,
0000
0000
1001
0010
,
0100
1000
0001
1000
,
0001
0000
1000
0000
,
0100
0000
0010
0000
,
0001
0000
0100
0000
,
0010
0000
0100
0010
,
0100
0000
0001
0000
,
1000
0000
0001
1000
,
0001
0000
0010
0000
,
0001
0000
1000
0100
,
1001
0000
0000
0110
,
0000
0000
1001
0000
,
0000
0110
0000
0000
,
0010
0100
0001
0010
,
0100
1000
1001
0000
;

//---------------dance-single - ----------------
#NOTES:
     dance-single:
     :
     Medium:
     6:
     0.372,0.404,0.211,0.267,0.000:
0002
0000
0000
1003
0000
0000
0010
0000
,
0100
0000
0010
0000
2000
0000
0000
3001
,
0000
0100
0010
0100
,
0002
0000
0000
1003
0000
0000
0010
0000
,
0100
0010
0220
0000
,
0330
0110
0000
0000
,
2000
0000
0000
3100
0000
0000
0010
0000
,
0001
0000
1000
0000
0002
0000
0000
0013
,
0000
0100
1000
0001
,
0200
0000
0000
0310
0000
0000
1000
0000
,
0001
1000
0220
0000
,
0330
0110
0000
0000
,
1000
0000
0000
0100
0000
0000
0010
0000
,
0000
0001
0000
0000
0100
0000
0110
0000
,
0001
0000
0000
0010
0000
0000
0100
0000
,
0000
1000
0000
0000
0010
0000
0110
0000
,
1000
0000
0000
0010
0000
0000
0100
0000
,
0000
0001
0000
0000
0100
0000
0110
0000
,
0001
0000
0000
0100
0000
0000
0010
0000
,
0000
1000
0000
0000
0010
0000
0110
0000
,
1000
0000
1100
0000
0001
1000
0001
0000
,
0011
0000
1000
0001
1000
0000
1100
0000
,
0001
1000
0010
0000
0000
0000
0000
0000
,
0100
0010
0000
1000
0100
0000
0010
0001
,
0000
0100
0010
0000
0220
0000
0000
0000
,
0000
0000
0000
0330
2002
0000
0000
0000
,
0000
0000
0000
3003
1001
0000
0000
0000
,
1000
0000
1000
0010
,
0110
0000
0001
1000
,
0110
0000
1000
0001
,
0110
0000
2002
0000
,
3003
0000
0000
0000
0001
1000
0100
0010
,
0001
0100
0010
0100
0002
0000
0000
0000
,
1000
0000
1003
1000
,
1001
0010
0100
1000
0001
0100
0000
0010
,
0100
0000
0001
0010
0100
1000
0001
0000
,
1000
0100
1000
0010
0100
0000
0001
0010
,
0001
0100
0010
0000
0200
0000
0301
0000
,
0001
0100
0001
0100
0010
0000
1000
0010
,
1000
0010
0100
0000
0020
0000
1030
0000
,
0010
0100
0010
1000
0001
0000
0100
0010
,
0100
0001
1000
0000
0002
0000
1003
0000
,
0100
1000
0100
1000
0010
0000
0100
0001
,
0010
0001
0010
0000
0002
0000
1003
0000
,
0200
0000
1300
0000
1000
0001
0200
0000
,
0301
0000
0001
1000
0020
0000
0130
0000
,
0010
0100
0010
0000
0000
0000
0000
0000
,
0000
1000
0001
1000
0001
1000
0001
0100
,
0010
0100
0010
1000
0001
0000
0000
0000
;

//---------------dance-single - ----------------
#NOTES:
     dance-single:
     :
     Hard:
     9:
     0.619,0.515,0.300,0.233,0.195: // measure 1
2000
0000
3001
1000
0100
0010
0001
0100
,  // measure 2
0001
1000
0100
1000
0002
0000
1003
0100
,  // measure 3
0010
0001
1000
0010
1000
0001
0010
0001
,  // measure 4
2000
0000
3001
0010
0100
1000
0001
0010
,  // measure 5
0001
1000
0010
1000
0002
0000
0000
0000
,  // measure 6
0003
0000
1001
0000
0000
1000
1000
1000
,  // measure 7
0002
0000
0103
0001
0010
0100
1000
0100
,  // measure 8
0001
0100
1000
0001
2000
0000
3010
1000
,  // measure 9
0100
0010
0001
0100
1000
0100
0001
1000
,  // measure 10
0020
0000
0130
0001
0010
1000
0010
0001
,  // measure 11
0100
0010
0100
0001
2000
0000
0000
0000
,  // measure 12
3000
0000
1001
0000
1000
0001
0001
0001
,  // measure 13
1000
0100
0010
0001
0100
0010
1000
0100
,  // measure 14
0010
0000
0000
0001
0000
0000
0100
0000
0000
0010
0000
0000
1000
0000
0100
0000
0010
0000
0001
0000
1000
0000
0001
0000
,  // measure 15
1000
0001
0010
0100
1000
0010
0100
0001
,  // measure 16
0010
0000
0000
0100
0000
0000
1000
0000
0000
0010
0000
0000
0100
0000
0001
0000
0100
0000
0001
0000
1000
0000
0100
0000
,  // measure 17
0010
0001
0100
1000
0100
0001
1000
0010
,  // measure 18
0001
0000
0000
0010
0000
0000
1000
0000
0000
0001
0000
0000
0100
0000
0001
0000
1000
0000
0100
0000
0010
0000
0001
0000
,  // measure 19
1000
0001
0010
1000
0010
0001
1000
0100
,  // measure 20
0001
0000
0000
0100
0000
0000
1000
0000
0000
0010
0000
0000
0100
0000
0001
0000
1000
0000
0100
0000
0010
0000
0001
0000
,  // measure 21
1000
0000
1100
0000
0001
0100
0101
0000
,  // measure 22
1001
0000
1000
0100
1100
0000
1001
0000
,  // measure 23
0100
0010
0220
0000
0000
0000
0330
0000
,  // measure 24
0001
1000
1000
0001
0100
0100
0001
1000
,  // measure 25
1000
0000
0100
0000
0010
0000
0010
0000
2001
0000
0000
0000
0000
0000
0000
3000
,  // measure 26
0001
0010
0100
0000
0000
0000
1000
0000
1002
0000
0000
0000
1003
0000
1100
0000
,  // measure 27
1000
1100
0010
0001
2001
0000
3100
0000
,  // measure 28
1100
0000
0000
1000
0002
0000
0103
0000
,  // measure 29
0101
0000
2000
3010
,  // measure 30
1010
0000
0000
1000
0002
0000
0013
0000
,  // measure 31
0011
0000
0000
0000
1000
0000
0000
0000
1001
0000
2000
0000
0000
0000
3001
0010
,  // measure 32
0200
0000
0300
1000
0001
0100
1000
0100
,  // measure 33
0001
0010
1000
0010
0001
0010
0100
1000
,  // measure 34
0001
0000
1000
0010
0100
0000
0001
0000
0020
0000
0000
0000
0130
0000
0000
0000
,  // measure 35
0110
0010
0100
0001
1000
1000
0001
0100
,  // measure 36
1000
0100
0001
0001
1000
0010
0001
0010
,  // measure 37
1000
0100
0010
0001
0100
1000
0100
0010
,  // measure 38
1000
0000
0000
0100
0000
0000
0010
0000
0000
0001
0000
0000
0100
0000
0001
0000
0010
0000
0100
0000
1000
0000
0001
0000
,  // measure 39
0100
0001
0010
1000
0010
0001
1000
0100
,  // measure 40
0001
0000
0000
0100
0000
0000
1000
0000
0000
0001
0000
0000
0100
0000
0010
0000
1000
0000
0100
0000
0010
0000
0001
0000
,  // measure 41
1000
0010
0001
0010
0100
0001
0010
0100
,  // measure 42
1000
0000
0000
0100
0000
0000
0001
0000
0000
0100
0000
0000
1000
0000
0010
0000
0100
0000
0001
0000
0000
0000
0000
0000
,  // measure 43
0010
0100
1000
0001
0010
0100
0001
0100
,  // measure 44
1000
0000
0000
0100
0000
0000
0010
0000
0000
0001
0000
0000
1000
0000
0010
0000
0100
0000
0001
0000
0000
0000
0000
0000
,  // measure 45
1001
0000
0110
0000
1000
0100
1100
0000
,  // measure 46
1001
0000
0001
0100
0101
0000
1001
0000
,  // measure 47
0010
0000
0000
0100
0000
0000
0110
0000
0000
0000
0000
0000
0100
0000
0001
0000
0100
0000
0001
0000
0010
0000
0100
0000
,  // measure 48
1000
1000
0100
0100
0010
0010
0001
0001
,  // measure 49
1000
1000
0001
0001
0220
0000
0330
0000
;

//---------------dance-single - ----------------
#NOTES:
     dance-single:
     :
     Beginner:
     1:
     0.071,0.108,0.100,0.000,0.000:
1000
0000
0000
0000
,
0000
0000
0001
0000
,
0000
0000
0000
0000
,
1000
0000
0000
0000
,
0000
0000
1001
0000
,
0000
0000
0000
0000
,
0001
0000
0000
0000
,
0000
0000
1000
0000
,
0000
0000
0000
0000
,
0001
0000
0000
0000
,
0000
0000
1001
0000
,
0000
0000
0000
0000
,
0100
0000
0000
0000
,
0000
0000
0000
0000
,
0100
0000
0000
0000
,
0000
0000
0000
0000
,
0100
0000
0000
0000
,
0000
0000
0000
0000
,
0010
0000
0000
0000
,
0000
0000
0000
0000
,
0110
0000
0000
0010
,
0000
0000
0010
0000
,
0000
0010
0000
0000
,
1000
0000
0000
0000
,
0000
0000
1001
0000
,
0000
0000
0001
0000
,
0000
0000
1001
0000
,
0000
0000
0000
0000
,
0000
0000
0000
0000
,
0000
0000
0000
0000
,
0000
0000
1001
0000
,
0000
0000
0000
0000
,
0000
0000
0000
0000
,
0000
0000
0001
0000
,
0000
0000
1000
0000
,
0000
0000
0000
0000
,
0100
0000
0000
0000
,
0000
0000
1000
0000
,
0001
0000
0000
0000
,
0000
0000
0010
0000
,
0001
0000
0000
0000
,
0000
0000
0100
0000
,
0010
0000
0000
0000
,
0000
0000
1000
0000
,
0001
0000
0000
1001
,
0000
0000
1000
0000
,
0000
1001
0000
0000
,
0000
0000
0000
0000
,
0000
0000
0110
0000
;
