#TITLE:Aithon;
#SUBTITLE:;
#ARTIST:Kozo Nakamura;
#TITLETRANSLIT:;
#SUBTITLETRANSLIT:;
#ARTISTTRANSLIT:;
#CREDIT:DigiMindAxel;
#BANNER:Aithon.png;
#BACKGROUND:Aithon-bg.png;
#LYRICSPATH:;
#CDTITLE:ee'MALL.png;
#MUSIC:Aithon.mp3;
#OFFSET:-9.800;
#SAMPLESTART:77.580;
#SAMPLELENGTH:12.000;
#SELECTABLE:YES;
#BPMS:0.000=252.000;
#STOPS:;
#BGCHANGES:-44.000=Aithon.AVI=1.000=1=1=0,
99999=-nosongbg-=1.000=0=0=0 // don't automatically add -songbackground-
;

//---------------dance-single - ----------------
#NOTES:
     dance-single:
     :
     Beginner:
     2:
     0.081,0.231,0.065,0.000,0.000:
1000
0000
0000
0000
,
0000
0000
0000
0000
,
0001
0000
0000
0000
,
0000
0000
0000
0000
,
1000
0000
0000
0000
,
0000
0000
0000
0000
,
1001
0000
0000
0000
,
0000
0000
0000
0000
,
0001
0000
0000
0000
,
0000
0000
0000
0000
,
0000
0000
0000
0000
,
0000
0000
0000
0000
,
1000
0000
0000
0000
,
0000
0000
0000
0000
,
0000
0000
0000
0000
,
0000
0000
0000
0000
,
0001
0000
0000
0000
,
0000
0000
0000
0000
,
0000
0000
0000
0000
,
0000
0000
0000
0000
,
0100
0000
0000
0000
,
0000
0000
0000
0000
,
0010
0000
0000
0000
,
0010
0000
0000
0000
,
0110
0000
0000
0000
,
0000
0000
0000
0000
,
1001
0000
0000
0000
,
0000
0000
0000
0000
,
1000
0000
0000
0000
,
0000
0000
0000
0000
,
0001
0000
0000
0000
,
0000
0000
0000
0000
,
1000
0000
0000
0000
,
0000
0000
0000
0000
,
1000
0000
0000
0000
,
0000
0000
0000
0000
,
0001
0000
0000
0000
,
0000
0000
0000
0000
,
1000
0000
0000
0000
,
0000
0000
0000
0000
,
0001
0000
0000
0000
,
0000
0000
0000
0000
,
0001
0000
0000
0000
,
0000
0000
0000
0000
,
0100
0000
0000
0000
,
0000
0000
0000
0000
,
0010
0000
0000
0000
,
0000
0000
0000
0000
,
0100
0000
0000
0000
,
0100
0000
0000
0000
,
0010
0000
0000
0000
,
0010
0000
0000
0000
,
1000
0000
0000
0000
,
0000
0000
0000
0000
,
0001
0000
0000
0000
,
0000
0000
0000
0000
,
1000
0000
0000
0000
,
0000
0000
0000
0000
,
1000
0000
0000
0000
,
0000
0000
0000
0000
,
0001
0000
0000
0000
,
0000
0000
0000
0000
,
1000
0000
0000
0000
,
0000
0000
0000
0000
,
0001
0000
0000
0000
,
0000
0000
0000
0000
,
0001
0000
0000
0000
,
0010
0000
0000
0000
,
0100
0000
0000
0000
,
1000
0000
0000
0000
,
0000
0000
0000
0000
,
0000
0000
0000
0000
,
1001
0000
0000
0000
,
0000
0000
0000
0000
,
1000
0000
0000
0000
,
0000
0000
0000
0000
,
1001
0000
0000
0000
,
0000
0000
0000
0000
,
0001
0000
0000
0000
,
0000
0000
0000
0000
,
1000
0000
0000
0000
,
0000
0000
0000
0000
,
0001
0000
0000
0000
,
0000
0000
0000
0000
,
0100
0000
0000
0000
,
0000
0000
0000
0000
,
0100
0000
0000
0000
,
0000
0000
0000
0000
,
0010
0000
0000
0000
,
0000
0000
0000
0000
,
0010
0000
0000
0000
,
0000
0000
0000
0000
,
1000
0000
0000
0000
,
0000
0000
0000
0000
,
0001
0000
0000
0000
,
1000
0000
0000
0000
,
1001
0000
0000
0000
,
0001
0000
0000
0000
,
1001
0000
0000
0000
,
1000
0000
0000
0000
;

//---------------dance-single - ----------------
#NOTES:
     dance-single:
     :
     Easy:
     4:
     0.336,0.463,0.234,0.505,0.000:
0002
0000
0000
0000
,
1003
0000
0100
0000
,
0010
0000
0000
0001
,
2000
0000
0000
0000
,
3001
0000
0100
0000
,
0010
0000
1000
0000
,
2002
0000
3000
0000
,
2003
0000
0000
0000
,
3002
0000
0000
0000
,
0103
0000
0010
0000
,
0100
0000
0000
0000
,
0001
0000
1000
0000
,
1001
0000
0000
0000
,
0001
0000
0010
0000
,
0100
0000
1000
0000
,
0100
0000
0010
0000
,
1001
0000
0000
0000
,
0100
0000
0010
0000
,
0200
0000
0000
0000
,
0301
0000
1000
0000
,
0100
0000
0010
0000
,
0001
0000
1000
0000
,
2002
0000
0000
3003
,
0220
0000
0000
0330
,
2002
0000
0000
0000
,
3000
0000
0013
0100
,
2000
0000
0001
0000
,
0001
0000
3001
0000
,
1001
0000
0010
0000
,
0100
0000
1000
0000
,
0002
0000
1003
0000
,
2000
0000
3001
0000
,
0010
0000
0100
0000
,
2000
0000
3002
0000
,
2003
0000
0000
0000
,
3001
0000
0000
0000
,
1000
0000
0100
0000
,
0001
0000
0100
0000
,
1000
0000
0010
0000
,
0001
0000
0010
0000
,
1000
0000
0001
0000
,
0100
0000
1000
0000
,
0100
0000
0001
0000
,
1000
0000
0001
0000
,
1000
0000
0100
0000
,
1000
0000
0100
0000
,
0010
0000
0001
0000
,
0010
0000
0001
0000
,
2002
0000
0000
3003
,
0220
0000
0000
0330
,
2002
0000
0000
3003
,
1000
0001
1000
0000
,
1002
0000
0000
0000
,
1003
0000
0010
0000
,
0220
0000
0000
0330
,
0001
0000
1000
0000
,
2002
0000
0000
3003
,
0001
0000
1000
0000
,
0001
0000
0100
0000
,
1000
0000
0100
0000
,
0002
0000
0000
0000
,
1003
0000
0010
0000
,
0220
0000
0000
0330
,
0001
0000
1000
0000
,
2002
0000
0000
3003
,
1000
0000
0001
0000
,
0100
0000
1000
0000
,
0100
0000
0001
0000
,
2000
0000
0000
0000
,
3001
0000
1001
0000
,
2002
0000
0003
0000
,
0002
0000
0000
3003
,
1001
0000
0100
0000
,
0010
0000
0001
0000
,
1000
0000
1001
0000
,
0000
0001
1000
0001
,
1000
0000
0100
0000
,
0010
0000
0001
0000
,
0200
0000
0320
0000
,
0230
0000
0310
0000
,
1001
0000
0010
0000
,
0100
0000
1000
0000
,
0001
0000
1001
0000
,
0000
1000
0001
1000
,
0002
0000
0000
0000
,
0103
0000
0010
0100
,
0020
0000
0000
0030
,
2002
0000
0000
3003
,
2000
0000
0000
0000
,
3010
0000
0100
0010
,
0200
0000
0000
0300
,
2002
0000
0000
3003
,
0002
0000
0000
0000
,
0103
0000
0010
0100
,
0020
0000
0000
0030
,
2002
0000
0000
3003
,
0100
1000
0100
0000
,
0010
0001
0010
0000
,
0001
1000
0001
0000
,
1001
0000
0000
0000
;

//---------------dance-single - ----------------
#NOTES:
     dance-single:
     :
     Medium:
     6:
     0.440,0.509,0.318,0.252,0.000:
1002
0000
0003
1000
,
0001
0000
0010
0100
,
0020
0000
0000
0031
,
2000
0000
0000
3000
,
1001
0000
1000
0000
,
0100
0010
0100
0000
,
1000
0000
0000
0001
0000
0000
1000
0000
,
0000
0010
0100
0010
,
1001
0000
0001
0000
,
0010
0000
0000
0100
0000
0000
0010
0000
,
1000
0000
0000
1001
0000
0000
0000
0000
,
0000
0001
0000
0000
1000
0000
0010
0000
,
0110
0000
0001
0000
,
0100
0000
0000
0010
0000
0000
0100
0000
,
0001
0000
0000
1001
0000
0000
0000
0000
,
0001
0010
0100
1000
,
1002
0000
0000
0103
,
0010
0000
0000
1000
0000
0000
1000
0000
,
0110
0000
0000
0110
0000
0000
0000
0000
,
0000
1000
0000
0000
1000
0000
0001
0000
,
1000
0000
0010
0000
,
0100
0000
0000
0010
0000
0000
0100
0000
,
0001
0000
0000
0001
0000
0000
0001
0000
,
0100
0000
0000
0100
0000
0000
0100
0000
,
0000
0020
0000
0000
1000
0000
0000
1000
,
0000
1030
0001
0100
,
0010
0100
0001
0010
,
0100
1000
0001
0000
,
1001
0000
1000
0000
,
0100
0001
0100
0000
,
2000
0000
3001
0000
,
0002
0000
1003
0010
,
0200
0000
0000
0000
,
0301
0010
0100
1000
,
0002
0000
0000
1000
,
1003
0000
0000
0000
,
0001
0010
0001
0000
,
0100
1000
0100
0000
,
0001
1000
0001
0000
,
0100
1000
0100
0000
,
0001
0010
0100
0000
,
1000
0100
0010
0000
,
0001
0000
0000
1001
0000
0000
0000
0000
,
1000
0100
0010
0000
,
1002
0000
0023
0000
,
0230
0000
2300
0000
,
3001
0010
0100
1000
,
0100
0010
0100
0000
,
1001
0000
0000
1001
0000
0000
0000
0000
,
1100
0000
0000
1100
0000
0000
0000
0000
,
0011
0000
0000
0011
0000
0000
0000
0000
,
0001
0010
0100
1000
,
1002
0000
0013
0100
,
1000
0000
0000
0001
0000
0000
1000
0000
,
0010
0000
0000
0110
0000
0000
0000
0000
,
0000
0001
0000
0000
0001
0000
0010
0000
,
0100
1000
0010
0000
,
0100
0001
0010
0000
,
1001
0000
0000
1001
0000
0000
1000
0000
,
0001
0010
0100
1000
,
0220
0000
0000
0330
,
0010
0100
0001
0000
,
1001
0000
0000
1001
0000
0000
0000
0000
,
0100
0010
1000
0000
,
1001
0000
0010
0000
,
0100
1000
0100
0000
,
1010
0000
0000
1010
0000
0000
0000
0000
,
0101
0000
0000
0101
0000
0000
0000
0000
,
0002
0000
0000
0000
,
1003
0000
0000
0100
0000
0000
1000
0000
,
0001
0100
0010
0100
,
0001
0000
0000
0000
,
0000
1000
0100
0010
,
0001
0100
1000
0100
,
0002
0000
1003
0000
,
0000
0100
0010
1000
,
1000
0001
0010
0100
,
1000
0100
0001
0100
,
2000
0000
3002
0000
,
0013
0100
1000
0000
,
0001
0010
0100
1000
,
0100
0001
0100
1000
,
0020
0000
0130
0000
,
0000
1000
0100
0001
,
0200
0000
1000
0000
,
1300
0000
0000
0001
0000
0000
0100
0000
,
0020
0000
0100
0000
,
0130
0000
0000
0110
0000
0000
0000
0000
,
2001
0000
0001
0000
,
3001
0000
0000
0100
0000
0000
0010
0000
,
0200
0000
0001
0000
,
0301
0010
0100
1000
,
1002
0000
1000
0000
,
1003
0000
0000
0010
0000
0000
0100
0000
,
0020
0000
1000
0000
,
1030
0100
0010
0001
,
0010
0100
0010
0100
,
0010
0001
1000
0001
,
1000
0100
0010
0001
,
1001
0000
0000
0000
;

//---------------dance-single - ----------------
#NOTES:
     dance-single:
     :
     Hard:
     8:
     0.645,0.648,0.355,0.327,0.000:
2002
0000
3003
1000
,
0100
0001
0100
1000
,
0002
0000
0000
1000
,
2003
0000
0000
0000
3001
1000
0001
1000
,
0001
0100
0010
0000
,
0100
0001
0010
0100
,
1000
0000
0010
0100
0000
0000
0001
0000
,
0000
1000
0001
0000
0100
0010
0100
0000
,
0210
0000
0301
0010
,
0200
0000
0000
2300
0000
0000
3001
0000
,
1001
0000
0000
1001
0000
0000
0000
0000
,
0000
0100
0010
0000
0100
0010
0100
0000
,
0002
0000
1003
0100
,
0020
0000
0000
0032
0000
0000
1003
0000
,
1001
0010
0100
1000
,
0010
0100
0010
0100
0010
0100
0010
0000
,
2001
0000
3001
0010
,
0200
0000
0000
2300
0000
0000
3001
0000
,
1001
0000
0000
1001
0000
0000
0000
0000
,
0000
1000
0001
0000
0100
0010
0100
0000
,
0002
0000
1003
0100
,
0020
0000
0000
0032
0000
0000
1003
0000
,
1001
0000
0000
1001
0000
0000
0001
0000
,
0110
0000
0000
0110
0000
0000
1000
0000
,
0001
1000
0000
0001
1000
0000
0010
0100
,
0000
0010
0100
0000
0001
0000
0001
0000
,
1000
0001
1000
0001
1000
0001
1000
0000
,
0010
0100
0010
0100
0010
0000
0000
0000
,
2000
0000
3100
0010
,
0002
0000
0013
0100
,
1000
0000
0010
1000
0010
0000
1000
0000
,
0001
0000
0100
0001
0100
0000
0001
0000
,
2000
0000
3001
1000
,
0001
0000
0100
0001
0000
1000
0100
0000
,
2000
0000
0000
0000
3001
0000
0010
0001
,
0020
0000
0000
0000
0130
1000
0100
1000
,
0001
0100
0001
0000
0010
0000
0100
0000
,
1000
0010
1000
0000
0100
0000
0010
0000
,
0001
1000
0001
0000
0010
0000
0100
0000
,
1000
0001
1000
0000
0100
0000
0010
0000
,
0001
0100
0010
0000
0100
0010
0100
0000
,
0010
0100
0010
0000
0100
0010
1000
0000
,
1001
0000
0000
1001
0000
0000
0000
0000
,
0000
0001
1000
0000
0010
0100
0010
0000
,
1000
0100
0001
0100
,
1000
0001
1000
0000
0001
1000
0001
0000
,
0100
1000
0100
0001
,
0100
0010
0100
0000
0010
0100
0010
0000
,
1001
0000
0000
1001
0000
0000
1000
0000
,
0110
0000
0000
0110
0000
0000
0001
0000
,
1001
0000
0000
1001
0000
0000
0010
0000
,
0110
0000
0000
1001
0000
0000
0001
0000
,
1000
0100
0001
0100
,
1000
0000
0010
0100
0010
0000
1000
0000
,
1001
0000
0000
1001
0000
0000
0000
0000
,
0000
1000
0001
0000
0100
0010
0100
0000
,
0001
0100
1000
0100
,
0001
0000
0100
0010
0100
0000
0001
0000
,
1001
0000
0000
1001
0000
0000
1000
0000
,
0110
0000
0000
0110
0000
0000
0001
0000
,
1001
0010
0100
1000
,
0001
0000
0100
0010
0100
0000
0001
0000
,
1001
0000
0000
1001
0000
0000
0000
0000
,
0010
0100
0010
0000
1000
0000
1000
0001
,
1000
0100
0001
0100
,
1000
0000
0001
0010
0001
0000
1000
0000
,
0001
0100
0001
0100
0001
0000
0001
0000
,
1000
0010
1000
0010
1000
0000
1000
0000
,
0001
0000
0100
0010
0100
0010
0100
0010
,
0100
0000
0000
0110
0000
0000
1000
0000
,
0002
1000
1000
1003
,
0000
0000
0000
0000
,
0000
0000
0010
1000
0010
1000
0100
0000
,
1000
0001
1000
0000
0001
1000
0001
0000
,
1000
0000
0000
1000
0010
0000
0000
0000
,
1000
0001
1000
0000
0010
0100
0010
0000
,
1001
0000
0100
0001
0100
0001
0010
0000
,
0001
1000
0001
0000
1000
0000
0010
0000
,
0200
0000
0302
0000
,
1003
0100
1000
0100
0010
0001
0000
0000
,
1000
0000
0100
1000
0100
1000
0010
0000
,
0100
0010
0100
0000
0001
1000
0001
0000
,
1000
0000
0000
1000
0010
0000
0000
0000
,
1000
0001
1000
0000
0010
0100
0010
0000
,
2000
0000
3001
0100
,
2000
0000
0000
3200
0000
0000
0301
0000
,
2000
0000
0001
0000
,
3001
0000
0000
1001
0000
0000
1000
0000
,
0002
0000
1003
0100
,
0002
0000
0000
0203
0000
0000
1300
0000
,
0002
0000
1000
0000
,
1003
0100
1000
0000
0001
0010
0001
0000
,
2001
0000
3001
0100
,
2000
0000
0000
3200
0000
0000
0301
0000
,
1000
0010
1000
0010
1000
0000
0000
0000
,
1001
0000
0110
0000
,
0001
1000
0001
0000
1000
0010
0100
0000
,
0010
0100
0010
0000
1000
0010
0100
0000
,
0001
0010
0001
0000
0010
0100
0010
0000
,
1001
0000
0000
0000
;

//---------------dance-single - ----------------
#NOTES:
     dance-single:
     :
     Challenge:
     9:
     0.780,0.786,0.448,0.168,0.000: // measure 1
0001
0010
0100
1000
,  // measure 2
0010
0000
0100
0001
0010
0000
0100
1000
,  // measure 3
0020
0100
0130
0002
,  // measure 4
2003
0000
0001
0000
3001
0100
0001
0100
,  // measure 5
0001
0010
0100
1000
,  // measure 6
0010
0000
0100
0001
0010
0000
0100
1000
,  // measure 7
0100
0000
1000
0001
0000
0001
0100
0000
,  // measure 8
0001
0100
0001
1000
0100
0010
0100
0000
,  // measure 9
1001
0100
0010
0001
,  // measure 10
0100
0001
0010
0000
0100
1000
0100
0000
,  // measure 11
0101
0000
0000
0110
0000
0000
0100
0000
,  // measure 12
0000
0001
0100
0000
0001
1000
0001
0000
,  // measure 13
1001
0100
0010
0001
,  // measure 14
1000
0000
0010
1000
0100
0000
0100
0000
,  // measure 15
0101
0000
0000
1100
0000
0000
0100
0000
,  // measure 16
0100
1000
0001
0100
0001
0010
0100
1000
,  // measure 17
0001
0010
0100
1000
,  // measure 18
0010
1000
0100
0000
0010
0001
0010
0000
,  // measure 19
1001
0000
0000
1001
0000
0000
0000
0000
,  // measure 20
0010
1000
0010
0000
1000
0001
1000
0000
,  // measure 21
0100
0001
0100
1000
,  // measure 22
0010
1000
0100
0000
0010
0001
0010
0000
,  // measure 23
0011
0000
0000
0011
0000
0000
0011
0000
,  // measure 24
1010
0000
0000
1010
0000
0000
1010
0000
,  // measure 25
1000
0001
0000
0001
0010
0000
0010
0100
,  // measure 26
0000
0100
1000
0000
0100
1000
0010
0000
,  // measure 27
0100
0001
0100
0001
1000
0100
1000
0100
,  // measure 28
1000
0010
0100
0001
0010
0000
0001
0000
,  // measure 29
1001
0000
0100
1000
0100
0000
1000
0100
,  // measure 30
1000
0002
0100
0103
,  // measure 31
0010
0000
0010
1000
0002
0000
0100
0000
,  // measure 32
0103
0000
0100
0001
2000
0000
0010
0000
,  // measure 33
3020
0100
0100
0130
,  // measure 34
0001
0000
0100
0010
0000
0010
1000
0000
,  // measure 35
0002
0000
1000
0000
1000
0000
1003
0100
,  // measure 36
0010
0001
1000
0000
0010
0100
0010
0100
,  // measure 37
0010
1000
0100
0000
1000
0001
1000
0000
,  // measure 38
0001
0010
0100
1000
0001
0100
0001
0000
,  // measure 39
0100
0001
0010
0000
0001
1000
0001
0000
,  // measure 40
1000
0100
0010
0001
1000
0010
1000
0000
,  // measure 41
0001
1000
0100
0000
0010
0100
1000
0000
,  // measure 42
0010
1000
0100
0010
0001
0100
0010
0000
,  // measure 43
1010
0000
0000
0110
0000
0000
0010
0000
,  // measure 44
0000
1000
0010
0000
1000
0001
1000
0000
,  // measure 45
0001
0010
0001
0000
0010
0001
1000
0010
,  // measure 46
1000
0010
1000
0100
0010
0001
1000
0000
,  // measure 47
0001
0000
0010
0001
0010
0001
1000
0010
,  // measure 48
1000
0010
1000
0100
0010
0001
1000
0000
,  // measure 49
1100
0000
0000
1100
0000
0000
0100
0000
,  // measure 50
0101
0000
0000
0101
0000
0000
0100
0000
,  // measure 51
1100
0000
0000
1100
0000
0000
1000
0000
,  // measure 52
1000
0010
1000
0010
0100
0001
0010
0000
,  // measure 53
1001
0010
0100
1000
,  // measure 54
0010
1000
0100
0000
1000
0001
1000
0000
,  // measure 55
0110
0000
0000
0110
0000
0000
0000
0000
,  // measure 56
0010
0100
0010
0000
1000
0001
1000
0000
,  // measure 57
1001
0100
0010
0001
,  // measure 58
0100
0001
0010
0000
0001
1000
0001
0000
,  // measure 59
0110
0000
0000
0110
0000
0000
0100
0000
,  // measure 60
0100
0010
0100
0000
0001
1000
0001
0000
,  // measure 61
1001
0010
0100
1000
,  // measure 62
0001
0100
0010
0000
0100
0010
0100
0000
,  // measure 63
1001
0000
0000
1001
0000
0000
0000
0000
,  // measure 64
0001
1000
0001
0000
0010
0001
1000
0000
,  // measure 65
1001
0100
0010
0001
,  // measure 66
1000
0010
0100
0000
0010
0100
0010
0000
,  // measure 67
1010
0000
0000
1010
0000
0000
0010
0000
,  // measure 68
0011
0000
0000
0011
0000
0000
0010
0000
,  // measure 69
1001
0000
0001
1000
0001
1000
0001
0000
,  // measure 70
0101
0000
0000
1100
0000
0000
0100
0000
,  // measure 71
0110
0000
0100
0010
0100
0001
0010
0100
,  // measure 72
2000
0000
0000
0001
,  // measure 73
3001
0000
0010
0001
0010
0001
0010
0001
,  // measure 74
1000
0010
1000
0100
0010
0001
1000
0000
,  // measure 75
0020
0000
0000
1030
0001
0000
0100
0000
,  // measure 76
0010
1000
0001
0000
0010
0001
0010
0000
,  // measure 77
1001
0000
0100
1000
0100
1000
0100
1000
,  // measure 78
0001
0100
0001
0010
0100
1000
0001
0000
,  // measure 79
0200
0001
0302
1000
,  // measure 80
1003
0100
0010
0001
1000
0001
0000
0000
,  // measure 81
1001
0000
0100
1000
0100
1000
0100
1000
,  // measure 82
0001
0100
0001
0010
0100
1000
0010
0100
,  // measure 83
0020
0000
0000
1030
0001
0000
0100
0000
,  // measure 84
0010
1000
0100
0000
1000
0001
1000
0000
,  // measure 85
0020
1000
1000
1030
,  // measure 86
0001
0000
0100
0001
0000
0001
1000
0000
,  // measure 87
0020
0100
0100
0130
,  // measure 88
0101
0000
0000
0110
0000
0000
1001
0000
,  // measure 89
0201
0001
0001
0301
,  // measure 90
1000
0000
0010
1000
0000
1000
0001
0000
,  // measure 91
0200
0010
0010
0310
,  // measure 92
1000
0100
1000
0100
0010
0001
1000
0000
,  // measure 93
1020
1000
1000
1030
,  // measure 94
0001
0000
0100
0001
0000
0001
1000
0000
,  // measure 95
0010
0100
0010
0100
0010
0100
0010
0100
,  // measure 96
0001
0010
0001
1000
0010
1000
0001
0000
,  // measure 97
0100
0001
0100
0001
0100
1000
0100
0001
,  // measure 98
0010
0100
0010
0100
1000
0100
0001
0100
,  // measure 99
1000
0001
0100
0001
1000
0100
1000
0001
,  // measure 100
0100
0000
0000
0000
;
