#TITLE:ALL I NEED YOUR LOVE;
#SUBTITLE:;
#ARTIST:GUHROOVY fw. M-Project;
#TITLETRANSLIT:;
#SUBTITLETRANSLIT:;
#ARTISTTRANSLIT:;
#CREDIT:DigiMindAxel;
#BANNER:ALL I NEED YOUR LOVE.png;
#BACKGROUND:ALL I NEED YOUR LOVE-bg.png;
#LYRICSPATH:;
#CDTITLE:beatmania IIDX.png;
#MUSIC:ALL I NEED YOUR LOVE.mp3;
#OFFSET:-5.340;
#SAMPLESTART:84.779;
#SAMPLELENGTH:12.000;
#SELECTABLE:YES;
#BPMS:0.000=145.000;
#STOPS:;
#BGCHANGES:-16.000=ALL I NEED YOUR LOVE.avi=1.000=1=1=0,
99999=-nosongbg-=1.000=0=0=0 // don't automatically add -songbackground-
;

//---------------dance-single - ----------------
#NOTES:
     dance-single:
     :
     Easy:
     3:
     0.290,0.274,0.108,0.332,0.000:
1000
1000
2000
0000
,
3001
0001
0002
0000
,
0103
0100
0200
0000
,
0310
0010
0020
0000
,
0130
0001
1000
0000
,
0100
1000
0001
0000
,
0010
0100
0010
0000
,
2002
0000
0000
3003
,
2001
0000
3002
0000
,
0000
2003
0000
0000
,
3002
0000
0000
0023
,
0000
0230
0000
0000
,
2300
0000
3020
0000
,
0230
0000
0302
0000
,
0023
0000
0230
0000
,
1300
0000
1001
0000
,
1000
0010
1000
0010
,
1000
0010
0100
0001
,
0010
0001
0010
0001
,
0100
0010
1000
0100
,
1000
0100
0010
0001
,
0010
0001
0010
0100
,
1000
0010
0100
0010
,
2002
0000
0000
3003
,
1001
0010
0100
0001
,
0010
0100
0100
0100
,
1000
0010
0100
0100
,
0100
0010
0100
0001
,
0010
0001
1000
1000
,
1000
0100
1000
0010
,
0100
0010
0100
0100
,
0220
0000
0000
0330
,
1000
1000
0010
0100
,
0002
0000
0000
0003
,
0010
0010
0001
0001
,
0200
0000
0000
0300
,
0010
0010
1000
1000
,
0200
0000
0000
0000
,
0310
0010
0001
0001
,
0220
0000
0000
0330
,
0002
0000
0000
0000
,
0023
0000
0000
0000
,
0230
0000
0000
0000
,
2300
0000
0000
0000
,
3001
0001
0100
0100
,
0010
0010
0100
0100
,
0001
0001
1000
1000
,
2002
0000
0000
3003
,
1000
1000
0010
0010
,
0100
0100
0001
0001
,
0100
0100
0010
0010
,
1000
1000
0100
0100
,
0010
0010
0001
0001
,
0010
0010
0100
0100
,
1000
0001
0010
0100
,
0020
0000
0130
0000
,
1001
0010
0100
1000
,
0100
0010
0001
0010
,
0100
1000
0100
0010
,
0002
0000
0203
0000
,
0310
1000
0010
0100
,
0001
0100
0010
1000
,
0100
0010
0001
1000
,
2002
0000
0000
3003
,
0220
0000
0000
0000
,
0000
0330
0110
0000
,
1001
0000
0000
0000
;

//---------------dance-single - ----------------
#NOTES:
     dance-single:
     :
     Challenge:
     9:
     0.622,0.631,0.224,0.066,0.445: // measure 1
1000
0000
0001
0000
0000
0010
0000
0000
0100
0000
0000
0000
1000
0000
0001
0000
,  // measure 2
0000
0000
0010
0000
0000
0100
0000
0000
0010
0000
0000
0000
0001
0000
1000
0000
,  // measure 3
0000
0000
0010
0000
0000
0100
0000
0000
0010
0000
0000
0000
1000
0000
0001
0000
,  // measure 4
0000
0000
0010
0000
0000
0100
0000
0000
1001
0000
0000
1001
0000
0000
1001
0000
,  // measure 5
1000
0001
0100
0000
1000
0100
0001
0010
,  // measure 6
0100
1000
0010
0000
0100
0001
0010
1000
,  // measure 7
0010
0001
1000
0000
0100
0010
0001
0010
,  // measure 8
0100
0000
2000
0000
0000
3002
0000
0000
2003
0000
0000
3002
0000
0000
1003
0000
,  // measure 9
0001
0100
0000
0100
0000
0010
0000
0010
,  // measure 10
0100
0000
0010
0000
1000
0001
1000
0000
0100
1000
0100
0000
0010
0000
0001
0000
,  // measure 11
1000
0100
0000
0100
0000
0010
0000
0010
,  // measure 12
0100
0000
0000
0101
0000
0000
1010
0000
0000
1000
0000
0010
0100
0010
0100
0010
,  // measure 13
1000
0000
0000
0001
0010
0000
0000
0010
0100
0000
0000
0100
1000
0000
0000
1000
,  // measure 14
0100
0000
0000
0100
0010
0000
0000
0010
0001
0000
0000
0001
0100
0000
0010
0000
,  // measure 15
1010
0000
0000
1000
0010
0000
0000
0010
0100
0000
0000
0100
0001
0000
0000
0001
,  // measure 16
1000
0000
1000
0000
,  // measure 17
1000
0000
0010
0100
0000
0000
0010
0000
1000
0000
0010
0100
0000
0000
0010
0000
,  // measure 18
1000
0000
0001
0000
0100
0010
0100
0000
0001
0100
0001
0000
1000
0000
1000
0000
,  // measure 19
0001
0000
0100
0010
0000
0000
0100
0000
0001
0000
0100
0010
0000
0000
0100
0000
,  // measure 20
0001
0000
0100
0000
0010
1000
0010
0000
0100
0010
0100
0000
0001
0000
0001
0000
,  // measure 21
1000
0000
0100
0010
0000
0000
0100
0000
1000
0000
0100
0010
0000
0000
0100
0000
,  // measure 22
1000
0000
0010
0000
0100
0010
0100
0000
0001
0010
0001
0000
1000
0000
1000
0000
,  // measure 23
0001
0000
0010
0100
0000
0000
0010
0000
0001
0000
0010
0100
0000
0000
0010
0000
,  // measure 24
1010
0000
0000
0110
0000
0000
0110
0000
0000
0101
0000
0000
1001
0000
0000
0000
,  // measure 25
0001
0000
0100
0010
0000
0000
0010
1000
0000
0000
1000
0100
0000
0000
1000
0001
,  // measure 26
1000
0000
0100
0000
0010
0001
0010
0000
0001
0000
0100
1000
0100
0000
0001
0000
,  // measure 27
0010
0000
0100
0000
1000
0000
0010
0100
0000
0000
0100
0001
0000
0000
0001
0100
,  // measure 28
0000
0000
0001
1000
0001
0000
0010
0000
0100
0000
1000
0001
1000
0010
0000
0100
,  // measure 29
0000
0000
0010
1000
0000
0000
1000
0100
0000
0000
0100
0010
0000
0000
0010
0001
,  // measure 30
0000
0000
0010
0000
0100
1000
0100
0000
0010
0000
0001
1000
0001
0000
0100
0000
,  // measure 31
0010
0000
0100
0000
0001
0000
1000
0100
1000
0000
0010
0100
0010
0000
1000
0001
,  // measure 32
1000
0100
0001
0100
,  // measure 33
1000
1000
0100
0000
0001
0001
0100
0000
,  // measure 34
1000
0100
0010
0001
0010
0100
1000
0000
,  // measure 35
0001
0001
0100
0000
1000
1000
0100
0000
,  // measure 36
0001
0100
0010
1000
0010
0100
0001
0000
,  // measure 37
0100
0100
1000
0000
0100
0100
0001
0000
,  // measure 38
0010
0100
1000
0100
0010
0001
1000
0000
,  // measure 39
0100
0100
0001
0000
0100
0100
1000
0000
,  // measure 40
2002
0000
3003
0110
,  // measure 41
0101
0000
0000
0000
0100
0000
0000
0000
0100
0000
0000
0100
0000
0000
0010
0000
,  // measure 42
1000
0000
0000
0000
1000
0000
0000
0000
1000
0000
0000
0100
0000
0000
0010
0000
,  // measure 43
0001
0000
0000
0000
0001
0000
0000
0000
0001
0000
0000
1000
0000
0000
0010
0000
,  // measure 44
0110
0000
0000
0110
0000
0000
0110
0000
0001
1000
0000
0100
0000
1000
0001
0000
,  // measure 45
1000
0000
0100
0000
0010
0000
0100
0000
1000
0000
0000
0010
0000
0000
0100
0000
,  // measure 46
0001
0000
0010
0000
0100
0000
0010
0000
0001
0000
0000
1000
0000
0000
0010
0000
,  // measure 47
1000
0000
0100
0000
0001
0000
0100
0000
1000
0000
0000
0010
0000
0000
0100
0000
,  // measure 48
0101
0000
0000
0110
0000
0000
0110
0000
0100
0001
0000
0010
0000
0100
0010
0000
,  // measure 49
0001
0000
0010
0000
0100
0000
1000
0000
0010
0000
0100
0001
0000
0001
1000
0000
,  // measure 50
0001
0000
0100
0000
0010
0000
1000
0000
0100
0000
0010
0001
0000
0001
1000
0000
,  // measure 51
0100
0000
0001
0000
0100
0000
1000
0000
0001
0000
0010
0100
0000
0100
0010
0000
,  // measure 52
0001
0000
0100
0010
0100
0000
0010
0000
1000
0000
0001
1000
0000
1000
0001
0000
,  // measure 53
1000
0000
0100
0000
0001
0000
0100
0000
1000
0000
0001
0100
0000
0100
0010
0000
,  // measure 54
1000
0000
0010
0000
0001
0000
0010
0000
1000
0000
0001
0100
0000
0100
0010
0000
,  // measure 55
1000
0000
0100
0000
0010
0000
1000
0000
0010
0000
0001
1000
0000
1000
0100
0000
,  // measure 56
1000
0000
0001
0000
0100
0000
0010
0100
0010
0000
1000
0001
0000
0001
0100
0000
,  // measure 57
0001
0010
0100
0001
0100
1000
0001
0010
,  // measure 58
0100
0000
0010
0000
0001
0000
0100
0000
0010
0000
0000
0010
0000
0000
0010
0000
,  // measure 59
1000
0100
0010
1000
0010
0001
1000
0010
,  // measure 60
0110
0000
0000
0110
0000
0000
0110
0000
0101
0000
0000
1010
0000
0000
1001
0000
,  // measure 61
1000
0100
0010
1000
0010
0001
1000
0100
,  // measure 62
0010
0000
0100
0000
1000
0000
0010
0000
0100
0000
0000
0100
0000
0000
0100
0000
,  // measure 63
0001
0010
0100
0001
0100
1000
0001
0100
,  // measure 64
0220
0000
0000
0330
,  // measure 65
0100
0000
0001
0100
0001
0000
1000
0100
0000
0000
1000
0010
1000
0000
0001
0010
,  // measure 66
0000
0000
0001
0010
0001
0010
0001
0000
0010
0100
0010
0000
0100
0000
1000
0001
,  // measure 67
1000
0000
0000
0000
;

//---------------dance-single - ----------------
#NOTES:
     dance-single:
     :
     Hard:
     7:
     0.482,0.439,0.083,0.324,0.108:
0001
0100
1000
0100
,
0001
0010
1000
0010
,
0001
1000
0100
0010
,
0001
0000
0000
0000
1000
0000
0000
0000
0100
0000
0000
0100
0000
0000
0100
0000
,
1000
0100
0010
0000
0001
0100
0010
0000
,
0100
0010
1000
0000
0100
0010
0001
0000
,
0010
0001
1000
0000
0100
1000
0001
0000
,
1000
0000
0010
0000
0000
0010
0000
0000
0100
0000
0000
0100
0000
0000
0100
0000
,
0002
0023
0230
2300
,
3002
0000
1003
0000
1000
0000
0100
0010
,
0002
0203
0320
2030
,
3001
0000
0000
1000
0000
0000
0001
0000
0000
1000
0000
0000
0001
0000
0000
0000
,
1002
0013
0200
0310
,
0002
0103
2000
3100
,
2001
3100
0020
0130
,
1001
0000
1001
0000
,
1000
0100
1000
0010
1000
0000
1000
0010
,
1000
0100
1000
0000
0100
0000
0001
0000
,
0100
1000
0100
0010
0100
0000
0100
0010
,
0100
1000
0100
0000
0010
0000
0001
0000
,
0010
0001
0010
0100
0010
0000
0010
0100
,
0010
0001
0010
0000
0100
0000
1000
0000
,
0100
1000
0100
0010
0100
0000
0100
0010
,
0100
0000
0000
1000
0000
0000
0100
0000
0000
0010
0000
0000
0001
0000
1000
0000
,
0001
0010
0100
0010
0000
0001
0000
1000
,
0000
0000
0001
0010
1000
0010
0001
0000
,
1000
0100
0010
0100
0000
1000
0000
0001
,
0000
0000
1000
0010
0001
0010
1000
0000
,
0001
0010
0100
0010
0000
0001
0000
1000
,
0000
0100
0001
0100
1000
0010
0100
0000
,
0001
0100
0010
0100
0001
1000
0100
0010
,
0002
0003
2000
3000
,
0001
0100
1000
0000
1000
0100
0001
0000
,
0100
0200
0000
0301
0010
0100
1000
0000
,
0001
0100
1000
0000
1000
0100
0001
0000
,
0100
0200
0000
0301
0010
0100
1001
0000
,
1000
0100
0001
0000
0001
0100
1000
0000
,
0010
0010
1000
0100
0010
0001
1000
0000
,
0001
0100
1000
0000
1000
0100
0001
0000
,
0100
0100
0001
0010
0100
1000
0001
0000
,
2002
0000
0000
0003
,
0020
0000
0000
3000
,
0200
0000
0000
0330
,
0001
0000
0000
0001
0000
0000
0100
0000
0010
1000
0000
0002
0000
0000
1000
0000
,
1003
0001
0010
1000
,
0010
0001
0100
1000
,
0100
0001
1000
0001
,
1001
0000
0000
1000
0000
0000
0010
0000
0100
0001
0000
0200
0000
0000
0001
0000
,
0301
0000
1000
0000
0100
0000
0010
0000
0001
0000
0000
0100
0000
0000
0100
0000
,
0001
0000
0010
0000
0100
0000
1000
0000
0010
0000
0000
0100
0000
0000
0100
0000
,
0001
0000
0010
0000
1000
0000
0010
0000
0001
0000
0000
1000
0000
0000
1000
0000
,
0100
0000
0001
0000
0100
0000
1000
0000
0010
0000
0000
0010
0000
0000
1000
0000
,
0010
0000
0001
0000
0010
0000
1000
0000
0001
0000
0000
0010
0000
0000
0010
0000
,
0001
0000
0100
0000
1000
0000
0100
0000
0001
0000
0000
1000
0000
0000
1000
0000
,
0001
0000
0010
0000
0100
0000
1000
0000
0001
0000
0000
0001
0000
0000
1000
0000
,
0010
0000
0100
0010
0000
0000
1000
0000
0010
0000
0100
0010
0000
0000
1000
0000
,
0001
0100
1000
0100
0002
0000
2003
0000
,
3200
0000
0000
0000
1300
0000
0100
0000
0010
0000
0000
0001
0000
0000
0001
0000
,
1000
0100
0001
0100
2000
0000
3002
0000
,
0103
0000
0000
0100
0000
0000
0100
0000
0010
0000
0000
0010
0000
0000
0010
0000
,
1000
0010
0001
0010
2000
0000
3002
0000
,
0203
0000
0000
0000
0301
0000
0010
0000
0100
0000
0000
1000
0000
0000
1000
0000
,
0001
0010
1000
0010
0001
1000
0010
0100
,
0202
0000
0000
0303
,
0001
0200
0000
2300
0000
3200
0000
0302
,
0000
0013
0100
0000
0110
0000
0000
1000
,
1001
0000
0000
0000
;

//---------------dance-single - ----------------
#NOTES:
     dance-single:
     :
     Beginner:
     2:
     0.109,0.137,0.100,0.000,0.000:
1000
0000
0000
0000
,
0001
0000
0000
0000
,
1000
0000
0000
0000
,
0001
0000
1001
0000
,
0100
0000
0000
0000
,
0010
0000
0000
0000
,
0100
0000
0000
0000
,
0010
0000
0010
0000
,
1001
0000
0000
0000
,
0000
0000
0000
0000
,
1000
0000
0000
0000
,
0001
0000
0000
0000
,
1000
0000
0000
0000
,
0000
0000
0000
0000
,
0001
0000
0000
0000
,
1001
0000
0000
0000
,
0010
0000
0000
0000
,
0000
0010
0000
0000
,
0100
0000
0000
0000
,
0100
0000
0000
0000
,
0001
0000
0000
0000
,
0001
0000
0000
0000
,
1000
0000
0000
0000
,
1001
0000
0000
0000
,
0001
0000
0000
0000
,
0010
0000
0000
0000
,
0100
0000
0000
0000
,
1000
0000
0000
0000
,
0100
0000
0000
0000
,
0010
0000
0000
0000
,
0001
0000
0000
0000
,
1001
0000
0000
0000
,
1000
0000
0000
0000
,
0010
0000
0000
0000
,
0100
0000
0000
0000
,
0001
0000
0000
0000
,
0100
0000
0000
0000
,
0010
0000
0000
0000
,
1000
0000
0000
0000
,
1001
0000
0000
0000
,
1000
0000
0000
0000
,
1000
0000
0000
0000
,
0001
0000
0000
0000
,
1001
0000
0000
0000
,
1001
0000
0000
0000
,
1000
0000
0000
0000
,
0001
0000
0000
0000
,
1001
0000
0000
0000
,
0001
0000
0001
0000
,
1000
0000
1000
0000
,
0010
0000
0010
0000
,
0100
0000
0100
0000
,
0001
0000
0001
0000
,
0010
0000
0010
0000
,
0100
0000
0100
0000
,
1001
0000
0000
0000
,
1000
0000
0100
0000
,
0010
0000
0001
0000
,
0001
0000
0010
0000
,
0100
0000
1000
0000
,
0010
0000
0100
0000
,
0010
0000
0100
0000
,
0001
0000
1000
0000
,
1001
0000
0000
0000
,
1000
0000
0000
0000
,
0000
0000
0000
0000
,
1001
0000
0000
0000
;

//---------------dance-single - ----------------
#NOTES:
     dance-single:
     :
     Medium:
     5:
     0.366,0.411,0.208,0.158,0.000:
0100
0010
0100
0010
,
1000
0001
1000
0001
,
1000
0100
1000
0100
,
0010
0001
2002
3003
,
0010
0001
0010
0000
0100
0000
1000
0000
,
0010
1000
0010
0000
0100
0000
0001
0000
,
0100
0010
0100
0000
0001
1000
0001
0000
,
0010
1000
0010
0001
,
0200
0000
0000
0000
,
0000
0320
0000
0000
,
0230
0000
0000
0000
,
0320
0000
0000
0030
,
1001
0001
0001
0001
,
0010
0010
0010
0010
,
0100
0100
0100
0100
,
2000
0000
3001
0000
,
0001
0010
0001
0000
0010
0001
0010
0000
,
0001
0010
0100
1000
,
0100
1000
0100
0000
1000
0100
1000
0000
,
0010
0100
0001
0100
,
0010
1000
0010
0000
0100
0001
0100
0000
,
0010
0000
0100
0000
0010
0000
1000
0100
,
0010
0001
1000
0000
0010
0100
0010
0000
,
0220
0000
0000
0330
,
1001
0000
1000
0100
0000
1000
0000
0010
,
0000
0100
0001
0010
,
0001
0000
0100
0010
0000
0100
0000
0001
,
0000
0100
0010
1000
,
0100
0000
1000
0010
0000
0100
0000
0001
,
0000
0010
0100
1000
,
0001
0010
0001
0000
0100
0010
0100
0000
,
2002
0000
0000
3003
,
0001
1010
0001
1010
,
0100
0010
0100
0010
,
1000
0101
1000
0101
,
0010
0100
0010
0100
,
0001
1100
0001
1100
,
0100
0010
0100
0010
,
1000
0011
1000
0011
,
0200
0000
0000
0310
,
2001
0000
0000
0000
,
3200
0000
0000
0000
,
0320
0000
0000
0000
,
0032
0000
0000
0000
,
1003
0100
0010
0001
,
0010
0100
1000
0100
,
0010
0001
0010
0100
,
2002
0000
0000
3003
,
0100
0010
0100
0000
0001
0010
0001
0000
,
1000
0010
1000
0000
0010
0100
0010
0000
,
0100
0001
0100
0000
0001
0010
0001
0000
,
1000
0100
1000
0000
0001
0000
1000
0000
,
0010
0100
0010
0000
1000
0100
0010
0000
,
0001
1000
0001
0000
0010
0100
1000
0000
,
0100
0010
0100
0000
1000
0010
0100
0000
,
0110
0110
1001
1001
,
1000
0010
0100
0010
1000
0000
0010
0000
,
0100
0001
0010
0001
0100
0000
0010
0000
,
1000
0100
0010
0100
1000
0000
0010
0000
,
0110
0010
0110
1001
,
0001
0010
0100
0010
0001
0000
1000
0000
,
0010
0100
1000
0100
0010
0000
0100
0000
,
0010
0001
0100
0000
0010
1000
0100
0000
,
1001
0000
0200
0000
,
0301
0001
1000
1000
,
0001
0001
0110
0000
,
1001
0000
0000
0000
;
