#TITLE:7000 Questions;
#SUBTITLE:;
#ARTIST:アルファ;
#TITLETRANSLIT:;
#SUBTITLETRANSLIT:;
#ARTISTTRANSLIT:ALPHA;
#CREDIT:DigiMindAxel;
#BANNER:7000 Questions.png;
#BACKGROUND:7000 Questions-bg.png;
#LYRICSPATH:7000 Questions.lrc;
#CDTITLE:beatmania.png;
#MUSIC:7000 Questions.mp3;
#OFFSET:-9.040;
#SAMPLESTART:17.231;
#SAMPLELENGTH:12.000;
#SELECTABLE:YES;
#BPMS:0.000=112.000;
#STOPS:;
#BGCHANGES:;

//---------------dance-single - ----------------
#NOTES:
     dance-single:
     :
     Easy:
     2:
     0.180,0.204,0.068,0.068,0.000:
2000
0000
0000
0000
,
3002
0000
0000
0000
,
2003
0000
0000
0000
,
3010
0020
0000
0030
,
1001
0010
0010
0010
,
0001
0001
0001
0000
,
1001
0100
0100
0100
,
1000
1000
1000
0000
,
1001
0010
0010
0010
,
0001
0001
0001
0000
,
1001
0100
0100
0100
,
1000
1000
1000
0010
,
0100
0010
0000
0000
,
0100
0010
0100
0000
,
0001
1000
0001
0000
,
0100
0010
0100
0000
,
0010
0100
0010
0000
,
1000
0001
1000
0000
,
0001
1000
0001
0000
,
0100
0010
0100
0000
,
0100
0000
0000
0000
,
0000
0000
0000
0000
,
0100
0000
0000
0000
,
0000
0000
0000
0110
,
1000
0100
0010
0000
,
0001
0010
0100
0000
,
1000
0010
0100
0000
,
0001
0010
0100
1001
,
0001
0001
1000
1000
,
0010
0010
0100
0100
,
0001
0001
1000
1000
,
0001
0010
0100
1000
,
0010
0010
0100
0100
,
0001
0001
1000
0000
,
0010
0010
0100
0100
,
0001
0001
1000
1000
,
0002
0000
1003
0000
,
2000
0000
3001
0000
,
0100
0010
0100
0110
,
0001
1000
0000
0001
,
0002
0000
0000
0000
,
0000
0000
0000
0000
,
0003
0000
0000
0000
;

//---------------dance-single - ----------------
#NOTES:
     dance-single:
     :
     Hard:
     7:
     0.451,0.448,0.155,0.048,0.179:
1000
0100
0001
0100
,
1000
0001
0010
1000
,
0010
0001
0010
0001
0010
0001
0010
0001
,
1000
0000
1000
0000
1000
0000
0000
0010
0100
0000
0000
0010
0100
0000
0001
0000
,
1000
1000
0100
0010
0001
1000
1100
0000
,
0100
0010
0001
1000
1100
0000
1001
0001
,
0100
0010
0100
0001
0010
0010
0100
0100
,
0010
0010
0001
1000
0001
0000
1000
1000
,
0001
0100
1000
0000
0100
0001
1000
0000
,
0100
0000
0010
0000
0001
0000
0000
1001
0000
0000
0001
0000
1000
0000
1000
0000
,
0100
0001
0100
1000
0010
0000
0110
0000
,
0001
0000
0010
0000
1000
0000
0010
0000
0001
0000
1000
0000
0001
1000
0001
1000
,
0001
0010
0100
0010
0000
0001
1000
0001
,
0001
0010
0100
1000
0100
0010
0001
0001
,
0100
0001
1100
0000
0100
0001
1100
0000
,
0001
0100
1000
0100
0001
1000
1001
0001
,
0010
0100
1000
0100
0010
0100
1000
0000
,
0100
0010
0001
0010
0100
0010
0001
0001
,
1000
1000
0100
0010
0001
0001
1001
0000
,
0010
0100
0001
0001
0010
0100
1000
1000
,
0020
0000
0230
0000
,
0320
0000
0230
0000
,
0301
0001
1000
1000
,
0001
0000
0001
0000
1000
0001
1001
0000
,
0100
1000
0100
1000
0100
0000
1000
0000
0100
0000
0001
0000
0101
0000
0000
0000
,
0010
0001
0010
0001
0010
0000
0001
0000
0010
0000
1000
0000
1010
0000
1000
0000
,
0001
0010
0001
0010
0001
0000
1000
0000
0100
0000
0010
0000
0001
0000
0001
0000
,
1000
0100
1000
0100
1000
0000
0010
0000
0110
0000
0000
0000
1001
0000
0000
0000
,
0100
0001
0100
0001
0100
0000
0001
0000
1000
0000
0100
0000
0010
0000
0000
0000
,
0100
1000
0100
1000
0100
0000
1000
0000
0001
0000
0010
0000
0100
0000
0100
0000
,
1000
0001
1000
0001
1000
0000
0100
0000
0001
0000
0100
0000
1000
0000
0000
0000
,
0001
1000
0001
1000
0001
0000
0100
0000
0110
0000
0000
0000
1001
0000
0000
0000
,
1000
0010
1000
0010
1000
0000
0001
0000
0010
0000
0100
0000
1000
0000
1000
0000
,
0001
0100
0001
0100
0001
0000
1000
0000
0100
0000
0010
0000
0001
0000
0001
0000
,
1000
0100
1000
0100
1000
0000
0100
0000
0010
0000
0100
0000
1000
0000
1000
0000
,
0001
0010
0001
0010
0001
0000
0010
0000
0100
0000
0010
0000
0001
0000
0001
0000
,
0100
0010
0100
0010
0100
0000
0001
0000
0100
0000
1000
0000
0100
0000
0001
0000
,
0100
0010
0100
0010
0100
0000
0001
0000
1000
0000
0100
0000
0010
0000
0001
0000
,
1000
0010
1000
0010
1000
0000
0001
0000
0010
0000
0100
0000
0010
0000
0000
0000
,
0001
0100
0001
0100
0001
0000
1000
0000
0000
0000
0010
0000
0010
0000
0000
0000
,
0020
0000
0000
0000
,
0000
0000
0000
0000
,
0030
0000
0000
0000
;

//---------------dance-single - ----------------
#NOTES:
     dance-single:
     :
     Challenge:
     9:
     0.677,0.611,0.281,0.107,0.766: // measure 1
0100
1000
0020
0000
0130
0001
0020
0000
,  // measure 2
0130
1000
0002
0000
0013
0001
2000
0000
,  // measure 3
3010
0100
0010
0100
0010
0100
0010
0100
0010
0100
0010
0100
0010
0100
0010
0100
,  // measure 4
0001
0000
0001
0000
0001
0000
0000
0100
0010
0000
0000
1000
0001
1000
0001
1000
,  // measure 5
0001
0010
0100
0000
1000
0001
1000
0100
0010
0001
0100
0000
0110
0000
0000
0000
,  // measure 6
0010
0000
0010
1000
0001
0000
0001
0000
1001
0000
0000
0000
0110
0000
0110
0000
,  // measure 7
0001
1000
0001
0010
0100
1000
0010
0000
0100
0010
0100
0001
0010
0001
1000
0100
,  // measure 8
1000
0000
0010
0100
0001
0010
0001
0000
1001
0000
0000
0000
0110
0000
0110
0000
,  // measure 9
1000
0001
1000
0100
0010
0001
1000
0000
0100
1000
0001
0100
0001
0000
0000
0000
,  // measure 10
0100
0010
0100
0010
0100
0000
0010
1000
0000
1000
0001
0000
0110
0000
0110
0000
,  // measure 11
0100
0001
0100
0001
0010
0100
1000
0010
0100
0000
0000
0000
0010
0100
0010
0000
,  // measure 12
0010
1000
0010
1000
0100
0010
0001
0100
0010
0000
0010
0000
1000
0001
1000
0001
,  // measure 13
1000
0100
0010
0001
1000
0100
1000
0000
0001
0000
1000
0001
1000
0010
0100
0001
,  // measure 14
0010
0001
0010
0001
1000
0100
1000
0100
1000
0100
0010
0001
1000
0000
1001
0000
,  // measure 15
0010
0001
0100
0000
0110
0000
0100
1000
0010
0000
0110
0000
0110
0000
0000
0000
,  // measure 16
0100
0010
0100
0000
0001
0010
0001
0010
0100
1000
0010
0000
0110
0000
0110
0000
,  // measure 17
1000
0100
0010
0001
0000
0100
0010
0100
0001
0000
0010
0100
1000
0000
0000
0000
,  // measure 18
0001
0010
0100
1000
0000
0010
0100
0010
1000
0100
0010
0001
1000
0000
1001
0000
,  // measure 19
0100
1000
0100
0010
0100
0010
0001
0010
0100
1000
0001
0000
1001
0000
0000
0000
,  // measure 20
0010
0001
0010
0001
0010
0100
0010
0100
1000
0100
0010
0000
1001
0000
1001
0000
,  // measure 21
0010
0001
0200
0000
0310
1000
0002
0000
,  // measure 22
0013
0100
2000
0000
3100
1000
0010
0100
,  // measure 23
0010
1000
0001
0010
0100
1000
0010
0100
,  // measure 24
0010
1000
0010
0100
0001
0101
1001
0000
,  // measure 25
1000
0100
1000
0100
1000
0001
0010
0100
0010
0000
0001
0100
0001
0000
0000
0000
,  // measure 26
0100
0010
0100
0010
0100
0000
0010
1000
0000
1000
0001
0000
1001
0000
1001
0000
,  // measure 27
0001
0010
0001
0010
0001
1000
0100
0000
0010
0100
1000
0001
1000
0000
1000
0000
,  // measure 28
0001
0100
0001
0100
0001
0010
0100
1000
0010
0000
0000
0000
1001
0000
1001
0000
,  // measure 29
1000
0000
1000
0010
0100
0000
0010
0100
0001
0000
0010
0100
1000
0000
0000
0000
,  // measure 30
0001
0000
0010
0100
1000
0100
0010
0001
1000
0100
1000
0010
0100
0000
0110
0000
,  // measure 31
0001
0010
0100
0010
0001
0000
0001
0000
1000
0100
0010
0100
1000
0000
0000
0000
,  // measure 32
0100
0010
0001
0010
0100
1000
0010
0100
0010
0000
0000
0000
1001
0000
0000
0000
,  // measure 33
0010
0001
0100
0000
0010
1000
0100
0000
0010
0001
1000
0010
1000
0010
1000
0000
,  // measure 34
0001
0000
0001
0000
0100
0001
0100
0010
2000
0000
0001
0000
3001
0000
1001
0000
,  // measure 35
0100
1000
0010
0000
0100
0001
0010
0000
0100
1000
0001
0100
0001
0100
0001
0010
,  // measure 36
0100
1000
0001
0010
0001
1000
0010
1000
0002
0000
1000
0000
1003
0000
1000
0010
,  // measure 37
0200
0000
0001
0000
0301
0100
0001
0100
0010
1000
0100
0000
1000
0000
1000
0100
,  // measure 38
0010
0000
0001
1000
0000
0001
1000
0100
0010
0001
0100
0010
0100
0000
0110
0000
,  // measure 39
0001
0100
0001
0010
0100
1000
0100
0010
0100
0010
0001
1000
0001
0000
0000
0000
,  // measure 40
1000
0010
1000
0100
0010
0100
0010
0001
1000
0000
0010
0100
0001
0010
0001
0000
,  // measure 41
2000
0000
0000
0000
,  // measure 42
0000
0000
0000
0000
,  // measure 43
3000
0000
0000
0000
;

//---------------dance-single - ----------------
#NOTES:
     dance-single:
     :
     Beginner:
     1:
     0.054,0.078,0.019,0.000,0.000:
0000
0000
0000
0000
,
0000
0000
0000
0000
,
0001
0000
0000
0000
,
1000
0000
0000
0000
,
1001
0000
0000
0000
,
1000
0000
0000
0000
,
0001
0000
0000
0000
,
1000
0000
0000
0000
,
0001
0000
0000
0000
,
1000
0000
0000
0000
,
0001
0000
0000
0000
,
1000
0000
0000
0000
,
0010
0000
0000
0000
,
0100
0000
0000
0000
,
0010
0000
0000
0000
,
0100
0000
0000
0000
,
0010
0000
0000
0000
,
0100
0000
0000
0000
,
0001
0000
0000
0000
,
1000
0000
0000
0000
,
0001
0000
0000
0000
,
0000
0000
0000
0000
,
1000
0000
0000
0000
,
0000
0000
0000
0000
,
1001
0000
0000
0000
,
0010
0000
0000
0000
,
0100
0000
0000
0000
,
0010
0000
0000
0000
,
1000
0000
0000
0000
,
0001
0000
0000
0000
,
0100
0000
0000
0000
,
0001
0000
0000
0000
,
1000
0000
0000
0000
,
0010
0000
0000
0000
,
1000
0000
0000
0000
,
0100
0000
0000
0000
,
0010
0000
0000
0000
,
0001
0000
0000
0000
,
1000
0000
0000
0000
,
0001
0000
0000
0000
,
1000
0000
0000
0000
;

//---------------dance-single - ----------------
#NOTES:
     dance-single:
     :
     Medium:
     4:
     0.284,0.285,0.233,0.068,0.000:
2000
0000
0000
0000
,
3002
0000
0000
0000
,
1003
0100
0010
0001
,
0110
0110
0110
1001
,
1001
0010
0010
0010
,
0001
1000
0001
0000
0001
0000
1000
1000
,
1001
0100
0100
0100
,
1000
0001
1000
0000
1000
0000
0001
0001
,
1001
0010
0010
0010
,
0001
1000
0001
0000
0001
0000
1000
1000
,
1001
0100
0100
0100
,
1000
0001
1000
0000
1000
0001
0010
0010
,
0010
0000
0010
0000
0000
0001
0100
0000
,
0100
0000
0100
0000
0000
1000
0010
0000
,
0010
1001
0100
1001
,
0010
0000
0010
0000
1000
0100
0001
0000
,
0100
0000
1000
0000
0001
0100
1000
0000
,
0100
0000
0001
0000
1000
0010
0001
0000
,
0010
0000
1000
0000
0001
0010
1000
0000
,
0010
0001
1000
0000
0001
1000
0001
0001
,
0200
0000
0000
0000
,
0000
0000
0000
0000
,
0320
0000
0000
0000
,
0000
0000
0030
0110
,
1000
0010
1000
0000
0001
0000
1000
0000
,
0001
0100
0001
0000
1000
0000
0001
0001
,
0001
0010
0001
0000
1000
0000
0001
0000
,
1000
0100
1000
0000
0001
0000
1001
0000
,
0010
0001
0010
0000
0100
1000
0100
0000
,
0010
0001
0010
0000
0001
0100
0001
0000
,
1000
0010
1000
0000
0010
0100
0010
0000
,
1000
0001
1000
0001
1000
0000
1001
0000
,
0010
1010
0010
1010
,
0100
0101
0100
0101
,
0100
1100
0010
0011
,
0100
1100
0010
0011
,
1002
1000
1003
0000
,
2001
0000
0001
0000
3001
0100
0001
0001
,
0100
0000
0110
0000
1000
0010
1000
0000
,
0010
0100
0010
0000
0000
0100
0001
0000
,
2000
0000
0000
0000
,
0000
0000
0000
0000
,
3000
0000
0000
0000
;

//---------------dance-double - ----------------
#NOTES:
     dance-double:
     :
     Easy:
     3:
     0.213,0.221,0.165,0.029,0.000:
20000000
00000000
00000000
00000000
,
30020000
00000000
00000000
00000000
,
01030000
01000000
01000000
01000000
,
01100000
01100000
00000000
00000000
,
10010000
00100000
00010000
00100000
,
00010000
00100000
00010000
00000000
,
00011000
00000100
00001000
00000100
,
00001000
00000001
00000010
00000000
,
00001001
00000100
00000001
00000100
,
00000001
00000100
00000010
00000000
,
00011001
01000000
00010000
01000000
,
00010000
01000000
00010000
00000000
,
10010000
01000000
10000000
01000000
,
10000000
00100000
01000000
00011000
,
00000000
00011000
00000000
00011000
,
00000100
00000100
00000010
00000010
,
00000001
00000001
00001000
00001001
,
00000010
00000010
00000100
00000100
,
00011000
00100000
00010000
10000000
,
00100000
00100000
01000000
01000000
,
00001000
00000000
00000000
00000000
,
00000000
00000000
00000000
00000000
,
00010000
00000000
00000000
00000000
,
00000000
00000000
00000000
01100000
,
10000000
10000000
00010000
10000000
,
00100000
00100000
01000000
01000000
,
00011000
00000100
00001000
00001000
,
00000001
00000001
00000010
00000001
,
00000010
00000010
00000100
00000100
,
00001000
00001000
00010000
00010000
,
01000000
01000000
00100000
00100000
,
10000000
01000000
00100000
00010000
,
01000000
01000000
00100000
00100000
,
10000000
10000000
01000000
00100000
,
00011000
00000100
00001000
00001000
,
00000001
00000001
00000010
00000010
,
00001001
00000010
00000100
00000000
,
00001000
00000100
00001000
00011000
,
00100000
01000000
10000000
10000000
,
00010000
00010000
10000000
00100000
,
20000000
00000000
00000000
00000000
,
00000000
00000000
30000000
00000000
;

//---------------dance-double - ----------------
#NOTES:
     dance-double:
     :
     Medium:
     5:
     0.298,0.322,0.281,0.068,0.000:
20000000
00000000
00000000
00000000
,
30020000
00000000
00000000
00000000
,
10030000
01000000
00100000
00010000
,
01100000
01100000
01100000
10010000
,
10010000
00000000
00100000
00000000
00100000
00001000
00100000
00000000
,
00001000
00010000
00001000
00000000
00011000
00000000
00000010
00000010
,
00000110
00000000
00000010
00000000
00000010
00010000
00000010
00000000
,
00010000
00001000
00010000
00000000
00011000
00000000
01000000
01000000
,
01100000
00100000
00100000
00100000
,
00010000
10000000
00010000
00000000
00010000
00000000
10000000
10000000
,
10010000
11000000
00110000
00011000
,
00000100
00000010
00000001
00000000
00000001
00001000
00000100
00000100
,
00000100
00000000
00000100
00000000
00000000
00001000
00000010
00000000
,
00000010
00000000
00000010
00000000
00000100
00000001
00000100
00000100
,
00000100
00001001
00000010
00001001
,
00000100
00000000
00000100
00000000
00000001
00000100
00001000
00000000
,
00000010
00010000
00000010
00000000
00010000
00001000
00010000
00000000
,
00100000
00000000
00100000
00000000
00010000
01000000
10000000
00000000
,
00100000
00000000
00100000
00000000
10000000
00100000
00010000
00000000
,
01000000
00100000
01000000
00000000
00010000
01000000
10000000
01000000
,
00200000
00000000
00000000
00000000
,
00000000
00000000
00000000
00000000
,
00320000
00000000
00000000
00000000
,
00000000
00000000
00030000
00011000
,
00001000
00000010
00001000
00000000
00000001
00000000
00001000
00000000
,
00000001
00000100
00000001
00000000
00001000
00000000
00000001
00000001
,
00000001
00000010
00000001
00000000
00000010
00000100
00001000
00000000
,
00010000
00100000
00010000
00000000
00100000
00000000
10010000
00000000
,
01000000
10000000
01000000
00000000
00100000
00010000
00100000
00000000
,
00001000
00010000
00001000
00000000
00010000
00000010
00010000
00000000
,
00000001
00000100
00000001
00000000
00000100
00000010
00000100
00000000
,
00000001
00000010
00000001
00000010
00000001
00000000
00000110
00000000
,
00001000
00011000
00100000
11000000
,
00100000
00011000
00000100
00000011
,
00000100
00011000
00100000
11000000
,
00100000
00011000
00000100
00000011
,
00012000
00010000
00013000
00000000
,
00021000
00000000
00001000
00000000
00031000
00000000
01000000
10000000
,
10000000
00000000
10010000
00000000
00100000
00010000
00100000
00000000
,
00010000
10000000
00010000
00000000
00000000
00010000
00001000
00000000
,
00002000
00000000
00000000
00000000
,
00000000
00000000
00003000
00000000
;
