#TITLE:100sec. Kitchen Battle!!;
#SUBTITLE:;
#ARTIST:Orange Lounge;
#TITLETRANSLIT:;
#SUBTITLETRANSLIT:;
#ARTISTTRANSLIT:;
#CREDIT:DigiMindAxel;
#BANNER:100sec. Kitchen Battle!!.png;
#BACKGROUND:100sec. Kitchen Battle!!-bg.png;
#LYRICSPATH:;
#CDTITLE:pop'n music.png;
#MUSIC:100sec. Kitchen Battle!!.mp3;
#OFFSET:-4.160;
#SAMPLESTART:14.928;
#SAMPLELENGTH:12.000;
#SELECTABLE:YES;
#BPMS:0.000=178.020,160.000=89.000,176.000=178.000,244.000=88.000,248.000=178.000;
#STOPS:;
#BGCHANGES:;

//---------------dance-single - ----------------
#NOTES:
     dance-single:
     :
     Easy:
     4:
     0.272,0.309,0.120,0.040,0.000:
1001
0000
1000
0000
,
1000
0000
0010
0000
,
0100
0000
0001
0000
,
0010
0000
0100
0000
,
1000
0000
0001
0000
,
1000
0000
0100
0000
,
0010
0000
0100
0000
,
0220
0000
0000
0330
,
1001
0000
0001
1000
,
0001
1000
0001
0010
,
0100
0000
1000
0100
,
1000
0001
0010
0000
,
1001
0000
1000
0001
,
1000
0001
1000
0100
,
0010
0000
0001
0010
,
0001
1000
0100
0000
,
1000
0100
0010
0001
,
0000
1001
0000
0010
,
0001
0010
0100
1000
,
0000
1001
0000
0100
,
1000
0100
0010
0001
,
0000
1001
0000
0010
,
0001
0010
0100
1000
,
1001
0000
0000
0000
,
0001
1000
0001
1000
,
0001
0010
0100
1000
,
0001
1000
0001
1000
,
0100
0010
0001
1000
,
0001
1000
0001
1000
,
0001
0010
0100
1000
,
0001
1000
0001
1000
,
0100
0100
0010
0010
,
0110
0000
1000
0000
,
0001
0000
1000
0000
,
0010
0000
0100
0000
,
0001
0000
0000
0000
,
0010
0000
0100
0000
,
0010
0000
0001
0000
,
1000
0000
0001
0000
,
0100
0010
0100
0010
,
0100
0001
0100
0000
,
0010
1000
0010
0000
,
1000
0001
1000
0000
,
0001
0010
0001
0000
,
1001
0000
1000
0000
,
0100
0000
1000
0000
,
0010
0000
0100
0000
,
0001
1000
0001
1000
,
0001
0000
0010
0000
,
0001
0000
1000
0000
,
0100
0000
1000
0000
,
0001
0000
0000
0000
,
0100
0010
0100
0000
,
0001
1000
0010
0000
,
0100
0001
1000
0000
,
0001
1000
0001
1000
,
0001
0100
0010
0000
,
0100
0010
0100
0001
,
1000
0010
0100
0010
,
1000
0100
0010
0001
,
0010
0100
1000
1001
,
0220
0000
0000
0000
,
0330
0000
0000
0000
;

//---------------dance-single - ----------------
#NOTES:
     dance-single:
     :
     Hard:
     8:
     0.596,0.862,0.619,0.100,0.085:
1001
0000
0000
0001
1000
0010
0000
1000
,
0000
0010
0000
1000
0001
0000
0011
0000
,
1001
0000
0000
1000
0001
0100
0000
0001
,
0000
0100
0000
0001
1000
0000
1100
0000
,
1001
0000
0000
0001
1000
0100
0000
1000
,
0000
0100
0000
1000
0001
0000
0011
0000
,
1001
0000
0000
0001
1000
0100
0000
1000
,
0200
0000
0010
0310
,
1001
0000
0100
0010
0001
1000
0001
0010
,
0000
0100
0000
0010
0001
1000
0100
0000
,
1001
0000
0010
0100
1000
0001
1000
0100
,
0000
0010
0000
0001
0000
1000
0000
0000
,
1001
0000
0001
0100
1000
0100
0001
0010
,
0000
0100
0000
0010
0001
1000
0010
0000
,
1001
0000
1000
0010
0001
0010
1000
0100
,
0000
0010
0000
0001
1000
0001
0010
0100
,
1001
0000
1100
0000
1000
0001
0010
0100
,
0000
0000
1001
0000
0001
1000
0100
0010
,
0001
0000
0011
0000
0001
1000
0100
0010
,
0000
0000
1001
0000
1000
0001
0010
0100
,
1000
0000
1100
0000
1000
0001
0010
0100
,
0000
0000
1001
0000
0001
1000
0100
0010
,
0001
0000
0011
0000
0001
1000
0100
0010
,
0100
0000
0000
0000
,
1001
1100
1001
1001
,
0001
0100
0010
1000
0100
0010
0100
0000
,
1001
0011
1001
1001
,
1000
0010
0100
0001
0010
0100
0010
0000
,
1001
1100
1001
1001
,
1000
0010
0100
0001
0010
0100
0010
0000
,
1001
0011
1001
1001
,
0010
0100
1000
0100
0001
0100
1000
0001
,
1002
0000
1000
0000
,
1003
0010
0100
0001
,
1001
0110
1010
0000
,
1001
0110
0101
0000
,
2001
0000
0001
0000
,
3001
0100
0010
1000
,
1001
0110
0110
1001
,
0001
0010
0100
1000
0001
0010
0100
1000
,
0001
0010
0001
1000
0100
0000
0100
0000
1000
0100
0010
0001
1000
0000
0000
0000
,
0010
1000
0010
1000
0100
0010
0001
1000
0001
0000
0011
0000
1001
0000
0101
0000
,
1000
0100
1000
0001
0010
0000
0010
0000
0001
0010
0100
1000
0001
0000
0000
0000
,
0100
0001
0100
0001
0010
0100
1000
0001
0011
0000
0000
0000
1001
0000
0000
0000
,
0100
0010
0100
0001
1000
0000
1000
0000
,
1000
0100
0010
0001
1000
0001
0010
0000
,
0001
0100
0010
1000
0001
0010
1000
0010
,
0001
1001
1000
1001
,
0010
0100
0010
1000
0001
0000
0001
0000
,
0001
0100
0010
1000
0000
0001
1000
0000
,
1000
0010
0100
0001
1000
0100
0001
0100
,
2000
0000
0000
0000
0000
3001
0010
0100
,
1001
0000
1000
1000
0001
0010
0000
0100
,
0010
0002
0000
1003
0000
0001
0010
1000
,
0010
0000
0001
1000
0100
1000
0001
0000
,
1100
1001
1010
1001
,
1001
0000
0001
0001
1000
0100
0000
0010
,
0100
2000
0000
3001
0000
1000
0100
0001
,
0100
0000
1000
0001
0010
0001
1000
0000
,
0100
0010
0001
1000
0001
0010
0100
1000
,
0001
0000
1000
0001
0010
0100
0010
0000
,
0220
0000
0000
0000
,
0330
0000
0000
2002
0000
0000
0000
0000
0000
0000
0000
0000
0000
0000
0000
0000
,
0000
0000
0000
0000
,
3003
0000
0000
0000
;

//---------------dance-single - ----------------
#NOTES:
     dance-single:
     :
     Medium:
     6:
     0.446,0.798,0.369,0.080,0.050:
1001
0000
0000
1000
0010
1000
0000
0001
,
0000
0001
0000
0001
1000
0000
1000
0000
,
0001
0000
0000
0001
0100
0001
0000
1000
,
0000
1000
0000
1000
0001
0000
0001
0000
,
1000
0000
0000
1000
0100
1000
0000
0001
,
0000
0001
0000
0001
1000
0000
1000
0000
,
0001
0000
0000
0001
0010
0001
0000
1000
,
0020
0000
0000
0030
,
1001
0000
0000
0001
0010
0100
0000
1000
,
0000
0001
0000
1000
0010
0000
0010
0000
,
1001
0000
0000
1000
0100
0010
0000
0001
,
0000
1000
0000
0001
0000
0100
0000
0000
,
1001
0000
0000
0001
0010
0100
0000
1000
,
0000
0001
0000
1000
0010
0000
0010
0000
,
1001
0000
0000
1000
0100
0010
0000
0001
,
0000
1000
0000
0010
0100
0010
0100
0000
,
1001
0000
0001
0000
0000
1000
0010
0000
,
0010
0000
1001
0000
0000
0001
0100
0010
,
1000
0000
1001
0000
0000
0001
0100
0000
,
0100
0000
1001
0000
0000
1000
0010
0100
,
0001
0000
0000
1000
0100
1000
0000
1010
,
0000
0000
1001
0000
0000
0001
0100
0010
,
1000
0000
0000
0001
0010
0001
0000
0101
,
0000
0000
0000
0000
,
1001
0001
0001
0001
,
0010
0100
1000
0010
,
1000
1000
0001
0001
,
1000
0100
0010
0001
,
1000
1000
0001
0001
,
0010
0100
0010
0100
,
1000
0001
1000
1000
,
0010
0100
0001
1000
,
2002
0000
0000
0000
,
3003
0000
0000
0000
,
0220
0000
0000
0000
,
0330
0000
0000
0000
,
1001
0000
0010
0000
,
0010
0100
0001
0000
,
1001
0000
0100
0000
,
0100
0010
2000
0000
,
3001
0010
0001
0000
1000
0000
1000
0000
1000
0100
1000
0000
0011
0000
0000
0000
,
0001
0100
0001
0000
1000
0010
1000
0000
1001
0000
1001
0000
0110
0000
0110
0000
,
1000
0010
1000
0000
0001
0000
0001
0000
0001
0100
0001
0000
1010
0000
0000
0000
,
1000
0100
1000
0000
0001
0010
0001
1000
0100
0000
0000
0000
1001
0000
0000
0000
,
1001
0000
1000
0100
1000
0100
1000
0000
,
0001
0000
0100
0001
0000
0001
0100
0000
,
0001
0010
0001
0010
0001
0000
1000
0000
,
0010
0100
0010
0100
,
0001
0010
0001
0010
0001
0010
0001
0000
,
1000
0000
0010
1000
0000
1000
0010
0000
,
1000
0100
1000
0100
1000
0000
0001
0000
,
0110
0000
0000
0000
,
1001
0000
0000
0100
1000
0010
0000
0100
,
0010
0100
0000
0110
0000
1000
0001
1000
,
0001
0100
0010
1000
,
0110
0110
1001
1001
,
1001
0000
0000
0010
0001
0100
0000
0010
,
0100
0010
0000
0110
0000
0001
1000
0001
,
1000
0000
0010
1000
0100
0000
1000
0000
,
0001
0100
0001
1000
,
0001
0000
0100
0001
0010
0000
0110
0000
,
1001
0000
0000
0000
,
0000
0000
0000
2002
0000
0000
0000
0000
0000
0000
0000
0000
0000
0000
0000
0000
,
0000
0000
0000
0000
,
3003
0000
0000
0000
;

//---------------dance-single - ----------------
#NOTES:
     dance-single:
     :
     Beginner:
     2:
     0.097,0.183,0.050,0.000,0.000:
0001
0000
0000
0000
,
0000
0000
0000
0000
,
1000
0000
0000
0000
,
0000
0000
0000
0000
,
0010
0000
0000
0000
,
0000
0000
0000
0000
,
1000
0000
0000
0000
,
1001
0000
0000
0000
,
0001
0100
0000
0100
,
0000
0100
0000
0000
,
0010
0100
0000
0100
,
0000
0100
0000
0010
,
1000
0001
0000
0001
,
0000
0001
0000
0001
,
1000
0010
0000
0010
,
0000
0010
0000
0000
,
1000
0000
0000
0000
,
0000
0000
0000
0000
,
0001
0000
0000
0000
,
0000
0000
0000
0000
,
0010
0000
0000
0000
,
0000
0000
0000
0000
,
0001
0000
0000
0000
,
1001
0000
0000
0000
,
0100
0000
0100
0000
,
0100
0000
1000
0000
,
1000
0000
1000
0000
,
0010
0000
0010
0000
,
0100
0000
0100
0000
,
0100
0000
0001
0000
,
0001
0000
0001
0000
,
1001
0000
0000
0000
,
1000
0000
0000
0000
,
0000
0000
0000
0000
,
0010
0000
0000
0000
,
0000
0000
0000
0000
,
0100
0000
0000
0000
,
0000
0000
0000
0000
,
0001
0000
1000
0000
,
1001
0000
0000
0000
,
0010
0000
0000
0000
,
0100
0000
0000
0000
,
0010
0000
0000
0000
,
1000
0000
0000
0000
,
0001
0000
0000
0000
,
0000
0000
0000
0000
,
0010
0000
0000
0000
,
0000
0000
0000
0000
,
0001
0000
0000
0000
,
0000
0000
0000
0000
,
1000
0000
0000
0000
,
0000
0000
0000
0000
,
1000
0000
0000
0000
,
0000
0000
0000
0000
,
0010
0000
0000
0000
,
0000
0000
0000
0000
,
0100
0000
0000
0000
,
0000
0000
0000
0000
,
0010
0000
0000
0000
,
0000
0000
0000
0000
,
0100
0000
0000
0000
,
1001
0000
0000
0000
;

//---------------dance-double - ----------------
#NOTES:
     dance-double:
     :
     Easy:
     4:
     0.305,0.371,0.319,0.050,0.000: // measure 1
00011000
00000000
00100000
00000000
,  // measure 2
01000000
00000000
00100000
00000000
,  // measure 3
00011000
00000000
00000100
00000000
,  // measure 4
00000010
00000000
00000100
00000000
,  // measure 5
00011000
00000000
01000000
00000000
,  // measure 6
00100000
00000000
01000000
00000000
,  // measure 7
00011000
00000000
00000100
00000000
,  // measure 8
00000220
00000000
00000000
00000330
,  // measure 9
00001001
00000000
00000001
00001000
,  // measure 10
00000001
00001000
00000001
00000010
,  // measure 11
00011000
00000000
00010000
00100000
,  // measure 12
00010000
10000000
00100000
00000000
,  // measure 13
10010000
00000000
10000000
00010000
,  // measure 14
10000000
00010000
10000000
01000000
,  // measure 15
00011000
00000000
00001000
00000100
,  // measure 16
00001000
00000001
00000100
00000000
,  // measure 17
00001001
00000001
00000011
00000000
,  // measure 18
00000000
00011000
00100000
01000000
,  // measure 19
10010000
10000000
11000000
00000000
,  // measure 20
00000000
00011000
00000100
00000010
,  // measure 21
00001001
00000001
00000011
00000000
,  // measure 22
00000000
00011000
00100000
01000000
,  // measure 23
10000000
00010000
00100000
00001000
,  // measure 24
00001000
00000000
00000000
00000000
,  // measure 25
00011000
00000100
00001000
00000100
,  // measure 26
00001000
00000100
00000001
00000100
,  // measure 27
00011000
00100000
00010000
00100000
,  // measure 28
00010000
00100000
10000000
00100000
,  // measure 29
00011000
00000100
00001000
00000110
,  // measure 30
00001000
00000100
00000001
00000100
,  // measure 31
00011000
00100000
00010000
01100000
,  // measure 32
00010000
00100000
10000000
00100000
,  // measure 33
00011000
00000000
00001000
00000000
,  // measure 34
00010000
00000000
00001000
00000000
,  // measure 35
00000010
00000000
00000100
00000000
,  // measure 36
00000001
00000000
00000000
00000000
,  // measure 37
00000010
00000000
00000100
00000000
,  // measure 38
00001000
00000000
00010000
00000000
,  // measure 39
00001000
00000000
00010000
00000000
,  // measure 40
00110000
01000000
10000000
00010000
,  // measure 41
10010000
10000000
01000000
00100000
,  // measure 42
00001000
00010000
00001000
00001000
,  // measure 43
00001001
00000001
00000010
00000100
,  // measure 44
00010000
00001000
00110000
00000000
,  // measure 45
10010000
00000000
10000000
00000000
,  // measure 46
01000000
00000000
10000000
00000000
,  // measure 47
00100000
00000000
01000000
00000000
,  // measure 48
00010000
00001000
00000100
00000010
,  // measure 49
00000001
00000000
00000010
00000000
,  // measure 50
00000001
00000000
00001000
00000000
,  // measure 51
00000100
00000000
00001000
00000000
,  // measure 52
00000002
00000000
00000003
00000000
,  // measure 53
00000100
00000010
00000100
00000000
,  // measure 54
00000001
00000010
00001000
00000000
,  // measure 55
00010000
00001000
00010000
00000000
,  // measure 56
00100000
01000000
10000000
00010000
,  // measure 57
00100000
01000000
00100000
00000000
,  // measure 58
10000000
01000000
00010000
00000000
,  // measure 59
00001000
00010000
00001000
00010000
,  // measure 60
00001000
00000100
00000010
00000001
,  // measure 61
00000010
00000100
00001000
00011000
,  // measure 62
00022000
00000000
00000000
00000000
,  // measure 63
00033000
00000000
00000000
00000000
;
