#TITLE:tablets;
#SUBTITLE:;
#ARTIST:sampling masters MEGA;
#TITLETRANSLIT:;
#SUBTITLETRANSLIT:;
#ARTISTTRANSLIT:;
#CREDIT:DMAxel;
#BANNER:tablets.png;
#BACKGROUND:tablets-bg.png;
#LYRICSPATH:;
#CDTITLE:Beatmania IIDX.png;
#MUSIC:tablets.mp3;
#OFFSET:-0.060;
#SAMPLESTART:32.173;
#SAMPLELENGTH:12.000;
#SELECTABLE:YES;
#BPMS:0.000=180.000,105.000=90.000,109.000=180.000,175.000=90.000,177.000=180.000,181.000=90.000,183.000=180.000,246.000=90.000,249.000=180.000;
#STOPS:170.500=0.400
;
#BGCHANGES:;

//---------------dance-single - ----------------
#NOTES:
     dance-single:
     :
     Easy:
     4:
     0.335,0.411,0.226,0.172,0.000:
0000
0000
0000
0000
,
0000
0000
0000
0000
,
0000
0000
0000
0000
,
0000
0000
0000
1001
,
0000
1000
0000
1000
,
0000
0010
0000
0100
,
0000
0001
0000
0001
,
0000
0100
0000
0010
,
0000
1001
0000
1000
,
0000
1000
0000
0010
,
0000
0100
0000
0100
,
0000
0001
0000
0010
,
0000
0001
0000
0001
,
0000
1000
0000
0010
,
0000
0100
0000
0100
,
0000
0011
0000
1001
,
0000
0100
0010
0100
,
0000
0001
0000
1000
,
0000
0001
1000
0001
,
0000
0100
0000
0020
,
0000
1030
0100
1000
,
0100
1000
0010
0100
,
0100
0001
0010
0001
,
0010
0001
0100
0010
,
0010
1000
0100
1000
,
0010
0100
0001
0010
,
0010
1001
0000
0200
,
0000
0310
1000
0100
,
1000
0010
0100
0010
,
0000
1000
0010
0100
,
0010
0100
0001
0010
,
0000
0001
0100
0010
,
0100
0010
1000
0100
,
0000
1000
0010
0100
,
0010
0100
0001
0010
,
0000
0001
0010
1000
,
0100
1000
0010
0010
,
1001
1000
0010
0001
,
0010
0001
0100
0100
,
1001
0001
0010
1000
,
0010
1000
0010
0010
,
1001
0202
0000
0303
,
0110
0000
2020
0000
0000
3030
0000
0000
,
0001
1000
0002
0000
,
0000
0003
0100
0010
,
0100
0020
0000
0030
,
1000
0100
1000
0010
,
1000
0100
1000
0000
,
0001
0010
0001
0100
,
0001
0010
0001
0000
,
1000
0100
1000
0010
,
1000
0100
1000
0000
,
0001
0010
0001
0100
,
0001
0000
1001
0000
,
1000
0010
0001
0100
,
0010
0100
0100
1001
,
0001
0100
1000
0010
,
0100
0010
0010
1001
,
1000
0100
0001
0100
,
0010
0100
0100
1001
,
2200
0000
3300
0110
,
0022
0000
0033
0000
,
0000
0100
2200
0000
0000
0000
3300
0000
,
0110
0202
0000
0303
;

//---------------dance-single - ----------------
#NOTES:
     dance-single:
     :
     Hard:
     7:
     0.511,0.513,0.559,0.032,0.027:
0000
0000
0000
0000
,
0000
0000
0000
0000
,
0000
0000
0000
0000
,
0000
0000
0000
0000
0000
0000
0001
0001
,
0000
0000
1000
0001
0100
0001
1000
0000
,
1001
0000
0001
1000
0010
1000
0001
0000
,
1001
0000
1000
0010
0100
0010
1000
0000
,
1001
0000
0001
0100
0010
0100
0001
0000
,
0100
0000
0011
0000
0000
0110
0000
0000
,
1100
0000
0000
1001
0000
0001
0010
1000
,
0000
0000
1010
0000
0000
0110
0000
0000
,
0101
0000
0000
1001
0000
1000
0100
0001
,
0000
0000
1000
0000
0010
0100
0000
0100
,
0010
0000
1000
0001
0000
0010
0100
1000
,
0000
0000
1001
0000
0100
0010
0000
0010
,
0100
0000
0001
1000
0000
0010
0200
0000
,
0000
0310
1100
0011
,
1100
0000
0010
0000
1000
0000
0001
1000
,
0001
0010
0101
1010
,
0101
0000
1000
0000
0010
0000
1000
0001
,
1000
0000
0001
0100
0010
0100
0000
0011
,
0000
1100
0000
0010
0100
0001
0000
1001
,
0000
0000
1000
0010
0100
0010
0000
1100
,
0000
0011
0000
0100
0010
1000
0000
1001
,
0000
0000
0001
0100
0010
0100
0000
1010
,
0000
0101
0000
0010
1000
0100
0000
1000
,
0001
0000
0000
0000
0010
0000
0000
0010
0000
0000
0010
0000
0001
0100
0000
0010
,
2000
3001
0010
0001
,
0010
0000
0100
0000
1000
0000
0010
0010
,
0000
1000
0100
0010
,
0001
0000
0100
0000
0010
0000
1000
1000
,
0000
0010
0100
0001
,
0010
0000
0100
0000
1000
0000
0010
0010
,
0000
1000
0100
0010
,
0001
0000
0100
0000
0010
0000
1000
1000
,
0000
0000
0001
0010
0000
0001
0000
1000
,
0100
0010
0001
0000
0010
0001
0000
0001
,
0100
0000
0010
1000
0000
0010
0000
1000
,
0100
0010
0001
0000
0010
0001
0000
0001
,
1000
0000
0100
1000
0000
0100
0000
1000
,
0100
0010
0001
0000
0001
0100
0000
0100
,
0010
0000
1100
0000
0000
1001
0000
0000
,
0010
0000
0011
0000
0000
1001
0000
0000
,
0001
0000
0000
0000
0100
0000
1000
0000
0000
0000
0010
0000
0001
0000
0000
0001
,
0000
0001
1001
0000
1000
0000
0010
0001
,
0000
0000
0100
0000
1000
0000
0000
1000
0000
0000
1001
0000
0000
0000
0000
0000
,
0011
0000
0000
0110
0000
0000
1100
0000
,
0000
1001
0000
1000
0100
0001
0000
0000
,
1010
0000
0000
0110
0000
0000
0101
0000
,
0000
1001
0000
0001
0010
1000
0000
0000
,
0001
0000
0100
0010
0000
0010
0100
0000
,
0001
1000
0000
1000
0100
0010
0001
0000
,
1000
0000
0010
0100
0000
0100
0010
0000
,
1000
0001
0000
0001
2000
0000
0000
0000
,
3001
0001
0000
0100
0000
0010
0100
0001
,
0010
0000
0001
0010
0000
0100
1000
0000
,
0010
0010
0000
1001
0000
0010
0001
0100
,
0010
0000
1000
0100
0000
0010
0001
0000
,
0100
0100
0000
1001
0000
0100
0010
1000
,
0100
0000
1000
0010
0000
0100
0001
0000
,
1100
0000
0000
0110
0000
0000
0011
0000
,
1001
0000
0000
1001
0000
0000
0000
0000
,
0000
0001
0101
0000
0000
0110
0000
0000
,
1010
0000
1001
0000
0000
1001
0000
0000
;

//---------------dance-single - ----------------
#NOTES:
     dance-single:
     :
     Challenge:
     8:
     0.623,0.684,0.441,0.021,0.043:
0000
0000
0000
0000
,
0000
0000
0000
0000
,
0000
0000
0000
0000
,
0000
0000
0000
0000
0000
0000
0001
0001
,
0000
0000
1000
0100
0010
0100
1000
0001
,
1000
0000
0001
0010
0100
0010
0001
1000
,
0001
0000
1000
0010
0100
0010
1000
0001
,
1000
0000
0001
0100
0010
0100
0001
0000
,
1001
0000
1100
0000
0010
0001
0000
0001
,
0100
0000
0001
0010
0100
1000
0010
0100
,
0000
0000
0001
1000
0100
1000
0000
1000
,
0100
0000
1000
0100
0010
0001
0100
0010
,
0000
0000
1001
0000
0001
0100
0000
0100
,
0001
0000
1000
0100
0010
0001
0010
0100
,
0000
0000
1001
0000
0010
1000
0000
1000
,
0010
1001
0000
0110
,
0000
0000
1000
0010
0100
0001
1100
0000
,
0011
0000
0001
0010
0100
1000
0010
0100
,
0010
0000
1000
0100
0010
0001
1010
0000
,
0101
0000
0001
0010
0100
1000
0020
0000
,
0130
0000
0001
0001
0000
1000
0100
1000
,
0010
1000
0000
0001
0010
0100
0000
1000
,
1001
0000
0010
0010
0000
0001
0010
0001
,
0100
0001
0000
1000
0100
0010
0000
0001
,
1001
0000
0100
0100
0000
1000
0100
1000
,
0010
1000
0000
0001
0010
0100
0000
1000
,
1001
0000
0000
0000
1010
0000
0000
0011
0000
0000
1001
0000
0010
0100
0000
0100
,
0001
1000
0001
1000
0100
0010
0001
0010
,
1000
0010
0001
1000
0010
0100
0001
0001
,
0001
0000
1000
0001
0010
0100
1000
0100
,
0001
0100
1000
0001
0100
0010
1000
1000
,
1000
0000
0001
1000
0100
0010
0001
0100
,
1000
0100
0001
0010
0100
1000
0001
0001
,
0001
0000
1000
0001
0010
0100
1000
0010
,
0001
0010
1000
0001
0010
0100
1000
1000
,
1000
0000
0010
0010
0000
1000
0100
0010
,
0001
0000
0100
0010
0000
0000
1000
0000
0100
0000
1000
0000
0010
0000
0100
0000
,
1001
0000
0100
0100
0000
0001
0010
0100
,
1000
0000
0010
0100
0000
0000
0001
0000
0010
0000
0001
0000
0100
0000
0010
0000
,
1001
0000
0010
0010
0000
1000
0100
0010
,
0001
0000
0100
0010
0000
0000
1000
0000
0010
0000
1000
0000
0010
0000
0100
0000
,
1001
0000
1100
0000
0000
0101
0000
0000
,
1010
0000
0011
0000
0000
1001
0000
0000
,
1000
0000
0010
0000
0100
0000
0010
0000
1000
0000
0000
0000
0011
0000
0000
1010
,
0000
0110
1000
0010
0001
0100
0001
0010
,
0001
0000
0000
0000
1100
0000
0000
0101
0000
0000
1001
0000
0000
0000
0000
0000
,
0011
0000
0100
1000
0000
1000
0010
0000
,
0100
0001
0000
0001
0010
0100
1000
0001
,
1000
0000
0010
1000
0000
1000
0100
0000
,
0010
0001
0000
1000
0100
0010
0001
1000
,
0001
0000
0100
0001
0000
0001
0010
0000
,
0100
1000
0000
0001
0010
0100
1000
0100
,
1000
0000
0001
0100
0000
0100
0010
0000
,
1000
0001
0000
0100
0020
0000
0130
0000
,
1000
1000
0000
0001
0010
0100
1000
0001
,
0010
1000
0010
0001
1000
0100
1000
0000
,
0001
0001
0000
1000
0100
0010
0001
1000
,
0100
0001
0100
1000
0001
0010
0001
0000
,
1000
1000
0000
0001
0010
0100
1000
0001
,
0100
1000
0100
0001
0010
0001
0100
0000
,
1001
0000
0000
0101
0000
0000
1010
0000
,
1100
0000
0000
0011
0000
0000
0000
0000
,
0000
0001
1100
0000
0000
0101
0000
0000
,
1010
0000
0011
0000
0000
1001
0000
0000
;

//---------------dance-single - ----------------
#NOTES:
     dance-single:
     :
     Medium:
     6:
     0.447,0.479,0.398,0.086,0.016:
0000
0000
0000
0000
,
0000
0000
0000
0000
,
0000
0000
0000
0000
,
0000
0000
0000
0000
0000
0000
0001
0001
,
0000
1000
0100
0010
,
0001
0100
0010
0100
,
0010
0100
0001
0010
,
0100
1000
0010
0100
,
0020
0000
0130
0000
0000
0001
0000
0000
,
0010
0000
0000
1000
0000
0010
0100
0001
,
0000
0000
0110
0000
0000
1000
0000
0000
,
0100
0000
0000
0001
0000
0100
0010
1000
,
0000
0000
1001
0000
0000
0001
0000
0000
,
0100
0000
0000
1000
0000
0100
0010
0001
,
0000
0000
1001
0000
0000
1000
0000
0000
,
0010
0000
0000
0001
0000
0100
0002
0000
,
0000
0000
1003
0100
0000
1000
0000
0010
,
0100
0001
0000
0010
0000
0001
0100
0000
,
1001
0000
0010
0001
0000
1000
0000
0010
,
0100
0001
0000
0010
0000
0001
1000
0000
,
1001
0000
0100
1000
0000
0001
0000
0100
,
0000
1001
0000
0010
0100
0001
0000
1001
,
0000
0000
0010
0001
0000
1000
0000
0010
,
0000
1001
0000
0100
0010
1000
0000
1001
,
0000
0000
0100
1000
0000
0001
0000
0100
,
0000
1001
0000
0010
0100
0001
0000
0100
,
0010
0000
0000
0000
2002
0000
0000
0000
0000
0000
3003
0000
0010
0000
0000
0100
,
0100
0000
0001
0100
0010
0100
0001
0000
,
0100
0000
0010
0000
1000
0000
0001
0010
,
0001
0000
1000
0010
0100
0010
1000
0000
,
0010
0000
0100
0000
0001
0000
1000
0100
,
1000
0000
0001
0010
0100
0010
0001
0000
,
0100
0000
0010
0000
1000
0000
0001
0100
,
0001
0000
1000
0100
0010
0100
1000
0000
,
0010
0000
0100
0000
0001
0000
1000
0010
,
1000
0010
0200
0000
,
0010
0000
0010
0000
,
0310
2000
0000
0001
,
0000
0001
0000
3001
,
0200
0000
0010
0000
,
0010
0000
0010
0000
,
0310
0000
1001
0000
0000
1001
0000
0000
,
0011
0000
1100
0000
0000
1001
0000
0000
,
0010
0000
0000
0000
0001
0000
0100
0000
0000
0000
0010
0000
0100
0000
0000
0010
,
0000
1001
0000
0000
1000
0000
0001
0100
,
0000
0000
0100
0000
0010
0000
0000
0100
0000
0000
1001
0000
0000
0000
0000
0000
,
1001
0000
0000
0101
0000
0000
1010
0000
,
0000
1001
0000
0001
0010
1000
0000
0000
,
0010
0000
0100
0001
0000
0000
0010
0000
,
0000
0001
0000
0100
0010
1000
0000
0000
,
0010
0000
0100
0001
0000
0000
0011
0000
,
0000
0100
0000
0010
1000
0100
1000
0000
,
1001
0000
0100
0001
0000
0000
1100
0000
,
1001
0000
0000
0010
0200
0000
0000
0000
,
0310
0010
0000
1000
0000
0100
0000
1000
,
0000
0010
0100
0001
0000
0010
1001
0000
,
0100
0100
0000
0010
0000
1000
0000
0100
,
0000
1000
0010
0010
0000
0100
1001
0000
,
0010
0010
0000
0001
0000
0100
0000
0010
,
0000
1000
0010
0100
0000
0010
1001
0000
,
1100
0000
0000
0011
0000
0000
1010
0000
,
0011
0000
0000
1001
0000
0000
0000
0000
,
0000
0001
1001
0000
0000
0100
0000
0000
,
0001
0000
1010
0000
0000
1001
0000
0000
;

//---------------dance-single - ----------------
#NOTES:
     dance-single:
     :
     Beginner:
     2:
     0.181,0.238,0.150,0.000,0.000: // measure 1
0000
0000
0000
0000
,  // measure 2
0000
0000
0000
0000
,  // measure 3
0000
0000
0000
0000
,  // measure 4
0000
0000
0000
0000
,  // measure 5
0000
0000
1000
0000
,  // measure 6
1000
0000
0001
0000
,  // measure 7
0001
0000
1000
0000
,  // measure 8
1000
0000
0010
0000
,  // measure 9
1001
0000
0100
0000
,  // measure 10
0100
0000
1000
0000
,  // measure 11
1000
0000
0001
0000
,  // measure 12
0001
0000
1000
0000
,  // measure 13
1000
0000
0010
0000
,  // measure 14
0010
0000
0100
0000
,  // measure 15
0100
0000
0001
0000
,  // measure 16
0001
0000
0000
1001
,  // measure 17
0000
0000
1000
0000
,  // measure 18
1000
0000
0010
0000
,  // measure 19
0010
0000
0100
0000
,  // measure 20
0100
0000
0001
0000
,  // measure 21
1001
0000
1000
0000
,  // measure 22
1000
0000
0010
0000
,  // measure 23
0010
0000
0100
0000
,  // measure 24
0100
0000
0100
0000
,  // measure 25
1001
0000
0010
0000
,  // measure 26
0010
0000
0010
0000
,  // measure 27
1001
0000
0000
0000
,  // measure 28
0000
0000
1000
0000
,  // measure 29
0001
0000
1000
0000
,  // measure 30
0000
0010
0000
0100
,  // measure 31
0000
0010
0000
0000
,  // measure 32
0000
1000
0000
0001
,  // measure 33
0000
1000
0000
0000
,  // measure 34
0000
0010
0000
0100
,  // measure 35
0000
0010
0000
0000
,  // measure 36
0000
0000
1000
0000
,  // measure 37
1000
0000
0010
0000
,  // measure 38
1001
0000
0001
0000
,  // measure 39
0001
0000
0100
0000
,  // measure 40
1001
0000
1000
0000
,  // measure 41
1000
0000
0100
0000
,  // measure 42
1001
0000
0000
0000
,  // measure 43
0000
1001
0000
0000
,  // measure 44
0010
0000
0010
0000
,  // measure 45
0000
0000
0100
0000
,  // measure 46
0100
0000
0000
0000
,  // measure 47
0001
0000
1000
0000
,  // measure 48
0001
0000
1000
0000
,  // measure 49
0010
0000
0100
0000
,  // measure 50
0010
0000
0100
0000
,  // measure 51
0001
0000
0100
0000
,  // measure 52
0001
0000
0100
0000
,  // measure 53
0010
0000
1000
0000
,  // measure 54
0010
0000
1001
0000
,  // measure 55
1000
0000
0010
0000
,  // measure 56
1000
0000
0010
0000
,  // measure 57
1000
0000
0001
0000
,  // measure 58
0100
0000
0001
0000
,  // measure 59
1000
0000
0100
0000
,  // measure 60
1000
0000
0100
0000
,  // measure 61
0110
0000
0000
0000
,  // measure 62
1001
0000
0000
0000
,  // measure 63
0000
0110
0000
0000
,  // measure 64
0000
1001
0000
0000
;
