#TITLE:super highway;
#SUBTITLE:;
#ARTIST:nouvo nude;
#TITLETRANSLIT:;
#SUBTITLETRANSLIT:;
#ARTISTTRANSLIT:;
#CREDIT:DMAxel;
#BANNER:super highway.png;
#BACKGROUND:super highway-bg.png;
#LYRICSPATH:;
#CDTITLE:beatmania.png;
#MUSIC:super highway.mp3;
#OFFSET:0.060;
#SAMPLESTART:58.700;
#SAMPLELENGTH:12.000;
#SELECTABLE:YES;
#BPMS:0.000=160.000;
#STOPS:;
#BGCHANGES:;

//---------------dance-single - ----------------
#NOTES:
     dance-single:
     :
     Easy:
     2:
     0.198,0.220,0.079,0.079,0.000:
0000
0000
0000
0000
,
0000
0000
0000
0000
,
0000
0000
0000
0000
,
0000
0000
0000
0000
,
0000
0000
0000
0000
,
0000
1000
0001
0000
,
0000
0200
0000
0000
,
0300
0001
1000
0000
,
0000
0020
0000
0000
,
0030
1000
0001
0000
,
0000
0200
0000
0000
,
0300
0001
1000
0000
,
0000
0020
0000
0000
,
0030
1000
0001
1000
,
0000
0000
0000
0000
,
0000
0001
1000
0001
,
0000
0000
0000
0000
,
0000
0100
0010
0100
,
0000
0000
0000
0000
,
0000
0010
0100
0010
,
0000
1000
1000
0001
,
0001
0000
0000
1001
,
0000
0110
0000
0000
,
0000
0020
0000
0000
,
0030
1001
0000
0000
,
0000
2000
0000
0000
,
3000
0110
0000
0000
,
0000
0002
0000
0000
,
0003
1001
0000
0000
,
0000
1000
1000
0001
,
0001
1000
0001
1000
,
0000
0010
0100
0010
,
0000
1000
0001
1000
,
0000
0001
0100
0001
,
0000
0100
0010
0100
,
0000
0010
1000
0010
,
0000
1000
0100
1000
,
0000
0001
0010
0001
,
0000
0000
0000
0000
0000
1001
0000
0000
,
0000
1000
0001
0000
,
0000
0100
0010
0100
,
0000
0001
1000
0000
,
0000
0010
0100
0010
,
0000
1000
0001
0000
,
0000
0010
0001
0010
,
0000
0001
1000
0000
,
0000
0100
1000
0100
,
0000
1000
0001
0000
,
0000
0100
0001
0100
,
0000
0001
1000
0000
,
0000
0010
1000
0010
,
0000
1000
0001
0000
,
0000
0010
0001
0010
,
0000
0001
1000
0000
,
0100
1000
0100
1000
,
0001
1001
0000
0000
;

//---------------dance-single - ----------------
#NOTES:
     dance-single:
     :
     Hard:
     7:
     0.423,0.439,0.136,0.000,0.000:
0000
0000
0000
0000
,
0000
0000
0000
0000
,
0000
0000
0000
0000
,
0000
0000
0000
0000
,
0000
0000
0000
0000
,
0000
0000
1000
0100
0010
0001
0000
0000
,
0000
0000
0010
0001
0010
0000
0001
1000
,
0000
0000
0001
0010
0100
1000
0000
0000
,
0000
0000
0010
1000
0010
0000
1000
0000
,
1001
0000
1000
0100
0010
0001
0000
0000
,
0000
0000
0100
0001
0100
0000
0001
1000
,
0000
0000
0001
0010
0100
1000
0000
0000
,
0000
0000
0100
1000
0100
0000
1000
0001
,
0100
0001
1000
0000
0000
1100
0000
0000
,
0000
1000
0001
0000
0001
0100
0001
0000
,
1001
0000
0001
0000
0000
0011
0000
0000
,
0000
0001
1000
0000
1000
0010
1000
0000
,
1001
0000
1000
0000
0000
1010
0000
0000
,
0000
1000
0001
0000
0001
0100
0010
0100
,
0001
0000
1001
0000
0000
0101
0000
0000
,
0000
0001
1000
0000
1000
0010
0100
0010
,
1000
0000
0000
1001
,
0000
0000
1000
0100
0010
0100
0000
1000
,
0001
1000
0100
0010
,
0001
0000
0001
0010
0100
0010
0000
0001
,
1000
0001
0010
0100
,
1000
0000
1000
0010
0100
0010
0000
1000
,
0001
1000
0100
0010
,
0001
0000
0001
0100
0010
0100
0000
0001
,
1000
0001
0010
0100
,
1000
0000
1000
0001
0010
0001
0000
0010
,
0100
0000
1000
0100
0010
0000
0001
0010
,
1000
0000
0001
1000
0100
1000
0000
0100
,
0010
0000
0001
0010
0100
0000
1000
0100
,
0001
0000
1000
0001
0010
0001
0000
0010
,
0100
0000
1000
0100
0010
0001
0010
1000
,
0010
0000
0001
1000
0100
1000
0000
0100
,
0010
0000
0001
1000
0001
1000
0001
0010
,
0000
0000
0000
0000
0000
1001
0000
0000
,
0000
0000
1000
0010
0100
0001
0000
0000
,
0000
0000
0100
0010
0100
0010
1000
0001
,
0000
0000
0001
0100
0010
1000
0000
0000
,
0010
0100
0010
0100
0001
0000
1000
0000
,
1001
0000
1000
0100
0010
0001
0000
0000
,
0000
0000
0100
0010
0100
0010
1000
0001
,
0000
0000
0001
0010
0100
1000
0000
0000
,
0010
0100
0010
0100
0001
1000
0000
0001
,
1000
0001
1000
0100
0010
0001
0000
0000
,
0000
0000
0100
0010
0100
0010
1000
0001
,
0000
0000
0001
0010
0100
1000
0000
0000
,
0000
0000
0100
1000
0100
0000
1000
0000
,
1001
0000
1000
0100
0010
0001
0000
0000
,
0000
0000
0010
0001
0010
0001
0100
0100
,
0000
0000
0001
0010
0100
1000
0000
0010
,
1000
0010
0100
0001
0000
0001
0010
0000
,
0000
1000
0010
0000
0000
0000
0000
0000
;

//---------------dance-single - ----------------
#NOTES:
     dance-single:
     :
     Challenge:
     8:
     0.543,0.533,0.216,0.034,0.119:
0000
0000
0000
0000
,
0000
0000
0000
0000
,
0000
0000
0000
0000
,
0000
0000
0000
0000
,
0000
0000
0000
0000
,
0000
0000
1000
0100
0010
0001
0000
0100
,
0001
0000
0010
0100
0010
0100
1000
1000
,
0000
0000
0001
0010
0100
1000
0000
0010
,
1000
0000
0100
0010
0100
0010
0001
0000
,
1001
0000
1000
0100
0010
0001
0000
0010
,
0001
0000
0010
0100
0010
0100
1000
1000
,
0000
0000
0001
0010
0100
1000
0000
0100
,
1000
0000
0010
1000
0000
0100
0010
0001
,
0010
0000
0101
0000
0001
1000
0000
1000
,
0010
0000
0100
0000
0010
0000
0000
0010
0000
0000
0010
0000
0000
0000
1010
0000
,
0000
1001
0000
0000
1010
0000
0000
0000
1000
0000
0001
0000
0000
0000
0001
0000
,
0100
0010
0100
0001
0100
0001
0010
0100
,
0100
0000
1010
0000
1000
0001
0000
0001
,
0100
0000
0010
0000
0100
0000
0000
0100
0000
0000
0100
0000
0000
0000
0101
0000
,
0000
1001
0000
0000
0101
0000
0000
0000
0001
0000
1000
0000
0000
0000
1000
0000
,
0010
0100
0010
0000
0110
0000
1000
0100
,
0001
0010
0200
0000
0000
0300
1001
0000
,
0000
0000
0000
0000
0010
0000
0100
0001
0000
0000
0001
0000
0000
0000
1000
0010
,
1000
0000
0000
0000
0010
0000
0100
0000
0010
1000
0000
1000
0000
0000
0001
0100
,
0001
0000
0000
0000
0100
0000
0001
0010
0000
0000
0010
0000
0000
0000
0001
1000
,
0001
0000
0000
0000
0100
0000
0010
0000
1000
0000
0100
0000
0001
0000
0100
0010
,
0100
0010
0000
0000
1000
0000
0010
0100
0000
0000
0100
0000
0000
0000
0001
1000
,
0001
0000
0000
0000
0010
0000
0100
0000
1000
0010
0000
0010
0000
0000
1000
0001
,
1000
0000
0000
0000
0100
0000
1000
0010
0000
0000
0010
0000
0000
0000
0100
0010
,
0100
0000
0001
1000
0001
0010
1000
0100
,
0001
0000
1000
0010
0100
0010
0000
0010
,
1000
0000
0001
0010
0100
1000
0100
0001
,
0100
0000
0001
0100
0010
0100
0000
0100
,
0001
0000
1000
0100
0010
0001
0010
1000
,
0010
0000
0001
0010
0100
0010
0000
0001
,
1000
0000
0001
0010
0100
1000
0010
0001
,
0010
0000
1000
0100
0010
0100
0000
1000
,
0001
0000
0000
0000
1000
0000
0100
0000
0010
0000
0001
0000
0100
0000
0001
1000
,
0000
0000
1000
0010
0000
2002
0000
0000
,
3003
0000
1000
0100
0010
0001
0000
0001
,
0100
0010
0100
0010
1000
0000
0010
1010
,
0000
0000
0001
0010
0100
1000
0000
1000
,
0010
0100
0010
0100
0001
0000
0100
0001
,
1000
0000
1000
0010
0100
0001
0000
0001
,
0100
0010
0100
0010
1000
0000
0010
1010
,
0000
0000
0001
0100
0010
1000
0000
1000
,
0010
0100
0010
0100
0000
0110
0100
0001
,
0000
0010
1000
0100
0010
0001
0000
0001
,
0010
0100
0010
0100
1000
0000
0100
1100
,
0000
0000
0001
0010
0100
1000
0000
1000
,
0100
0010
0100
0010
0001
0000
0100
0010
,
1000
0000
1000
0100
0010
0001
0000
0001
,
0100
0010
0100
0010
1000
0000
0001
0011
,
0000
0000
0001
0010
0100
1000
0000
1000
,
0010
0100
0010
0100
0000
0110
0100
0001
,
0000
1000
1001
0000
0000
0000
0000
0000
;

//---------------dance-single - ----------------
#NOTES:
     dance-single:
     :
     Medium:
     5:
     0.380,0.408,0.227,0.000,0.000:
0000
0000
0000
0000
,
0000
0000
0000
0000
,
0000
0000
0000
0000
,
0000
0000
0000
0000
,
0000
0000
0000
0000
,
0000
1000
0100
0010
,
0001
1000
1000
0001
,
0001
0001
0010
0100
,
1000
0001
0001
1000
,
1000
0010
0100
0010
,
1000
0100
0010
0001
,
1001
1000
0100
0010
,
0001
0100
0001
0100
,
0010
1000
1001
0001
,
1001
0000
0010
0000
0100
0000
1000
0001
,
0000
1001
0001
1001
,
1000
0000
0100
0000
0010
0000
0001
1000
,
0000
0001
1000
0001
,
0010
0000
1001
0000
1000
0000
1000
0001
,
0000
1000
0001
1000
,
0100
0000
1001
0000
1001
0000
0000
0100
,
0001
0000
0000
1001
,
0000
0000
1001
0000
0100
0001
0000
0010
,
0100
1000
0100
0010
,
0001
0000
1001
0000
0010
1000
0000
0100
,
0010
0001
0010
0100
,
1000
0000
1001
0000
0010
0001
0000
0010
,
0100
1000
0100
0010
,
0001
0000
1001
0000
0100
1000
0000
0100
,
0010
1001
1001
0001
,
0001
0000
1000
0001
1000
0000
0000
0010
,
0010
1000
0100
0010
,
0001
0000
0001
1000
0001
0000
0000
0100
,
0100
0001
0010
0100
,
1000
0000
1000
0001
1000
0000
0100
0100
,
0000
1000
0100
0010
,
0001
0000
0001
1000
0001
0000
0000
0010
,
0010
1001
1001
1000
,
1000
0000
0000
0000
0000
0110
0000
0000
,
0000
0000
0001
0000
0010
0100
0000
1000
,
0001
0000
0100
0000
0010
0000
0100
0010
,
0000
0000
1000
0000
0100
0010
0000
0001
,
1000
0010
0100
0010
,
0110
0000
0001
0000
0100
0010
0000
1000
,
0001
0000
0100
0000
0010
0000
0100
0010
,
0000
0000
1000
0000
0010
0100
0000
0001
,
1000
0000
0010
0000
0100
0010
0100
0000
,
0000
0000
0001
0000
0100
0010
0000
1000
,
0001
0000
0100
0000
0010
0000
0100
0001
,
0000
0000
1000
0000
0010
0100
0000
0001
,
1000
0000
0010
0000
0100
0010
0100
0000
,
1001
0000
0001
0000
0100
0010
0000
1000
,
0001
0000
0100
0000
0010
0100
0010
0000
,
0000
0000
1000
0000
0010
0100
0000
0001
,
1000
0000
0010
0100
0000
0100
0010
0000
,
1000
0001
1000
0000
0000
0000
0000
0000
;

//---------------dance-single - ----------------
#NOTES:
     dance-single:
     :
     Beginner:
     1:
     0.047,0.094,0.011,0.000,0.000:
0000
0000
0000
0000
,
0000
0000
0000
0000
,
0000
0000
0000
0000
,
0000
0000
0000
0000
,
0000
0000
0000
0000
,
0000
1000
0000
0000
,
0000
0000
0000
0000
,
0000
0001
0000
0000
,
0000
0000
0000
0000
,
0000
1000
0000
0000
,
0000
0000
0000
0000
,
0000
0001
0000
0000
,
0000
0000
0000
0000
,
0000
0100
0000
0000
,
0000
0000
0000
0000
,
0000
0100
0000
0000
,
0000
0000
0000
0000
,
0000
0010
0000
0000
,
0000
0000
0000
0000
,
0000
0010
0000
0000
,
0000
0000
0000
0000
,
0000
0000
0000
0000
,
0000
1000
0000
0000
,
0000
0000
0000
0000
,
0000
0001
0000
0000
,
0000
0000
0000
0000
,
0000
1000
0000
0000
,
0000
0000
0000
0000
,
0000
0001
0000
0000
,
0000
0000
0000
0000
,
0000
1000
0000
0000
,
0000
0000
0000
0000
,
0000
0100
0000
0000
,
0000
0000
0000
0000
,
0000
1000
0000
0000
,
0000
0000
0000
0000
,
0000
0001
0000
0000
,
0000
0010
0000
0000
,
0000
1001
0000
0000
,
0000
1000
0000
0000
,
0000
0000
0000
0000
,
0000
1000
0000
0000
,
0000
0000
0000
0000
,
0000
0010
0000
0000
,
0000
0000
0000
0000
,
0000
0010
0000
0000
,
0000
0000
0000
0000
,
0000
0100
0000
0000
,
0000
0000
0000
0000
,
0000
0100
0000
0000
,
0000
0000
0000
0000
,
0000
0001
0000
0000
,
0000
0000
0000
0000
,
0000
0001
0000
0000
,
0000
1000
0000
0000
,
0000
0001
0000
0000
;

//---------------dance-double - ----------------
#NOTES:
     dance-double:
     :
     Easy:
     3:
     0.269,0.282,0.079,0.102,0.000: // measure 1
00000000
00000000
00000000
00000000
,  // measure 2
00000000
00000000
00000000
00000000
,  // measure 3
00000000
00000000
00000000
00000000
,  // measure 4
00000000
00000000
00000000
00000000
,  // measure 5
00000000
00000000
00000000
00000000
,  // measure 6
00000000
10000000
00010000
00000000
,  // measure 7
00000000
01000000
00100000
01000000
,  // measure 8
00100000
00010000
00001000
00000000
,  // measure 9
00000000
00000100
00000010
00000100
,  // measure 10
00000010
00000001
00001000
00000000
,  // measure 11
00000000
00000010
00000100
00000010
,  // measure 12
00000100
00001000
00010000
00000000
,  // measure 13
00000000
00100000
01000000
00100000
,  // measure 14
01000000
10000000
00010000
10000000
,  // measure 15
00000000
00022000
00000000
00000000
,  // measure 16
00033000
00001000
00000001
00001000
,  // measure 17
00000000
00022000
00000000
00000000
,  // measure 18
00033000
00010000
10000000
00010000
,  // measure 19
00000000
00022000
00000000
00000000
,  // measure 20
00033000
00000001
00001000
00000001
,  // measure 21
00000000
00001000
00001001
00000010
,  // measure 22
00000100
00001000
00000000
00110000
,  // measure 23
00000000
10000000
00010000
10000000
,  // measure 24
00000000
00200000
00000000
00000000
,  // measure 25
00300000
00010000
10000000
00010000
,  // measure 26
00000000
02000000
00000000
00000000
,  // measure 27
03000000
00001000
00010000
00001000
,  // measure 28
00000000
00020000
00000000
00000000
,  // measure 29
00030000
00000010
00001000
00000010
,  // measure 30
00000000
00001000
00001000
00000001
,  // measure 31
00000001
00000010
00000100
00001000
,  // measure 32
00010000
00100000
01000000
00100000
,  // measure 33
01000000
10000000
00010000
10000000
,  // measure 34
01000000
00100000
00010000
00001000
,  // measure 35
00010000
00001000
00000100
00000010
,  // measure 36
00000001
00001000
00000010
00001000
,  // measure 37
00000001
00000010
00000100
00001000
,  // measure 38
00010000
00100000
01000000
00100000
,  // measure 39
01000000
00000000
10000000
00000000
00000000
10010000
00000000
00000000
,  // measure 40
00000000
10000000
00010000
10000000
,  // measure 41
00000000
01000000
00100000
00010000
,  // measure 42
00000000
00001000
00000001
00001000
,  // measure 43
00000000
00000001
00000010
00000100
,  // measure 44
00000000
00001000
00100000
00001000
,  // measure 45
00000000
00010000
00100000
01000000
,  // measure 46
00000000
10000000
00010000
10000000
,  // measure 47
00000000
01000000
00100000
00010000
,  // measure 48
00000000
00001000
00000010
00001000
,  // measure 49
00000000
00000001
00000010
00000100
,  // measure 50
00000000
00001000
00010000
00001000
,  // measure 51
00000000
00010000
00100000
01000000
,  // measure 52
00000000
10000000
00010000
10000000
,  // measure 53
00000000
01000000
00100000
00010000
,  // measure 54
00001000
00000010
00001000
00000010
,  // measure 55
00001000
00000001
00000010
00000100
,  // measure 56
00001000
00011000
00000000
00000000
;
