#TITLE:smooooch・∀・;
#SUBTITLE:;
#ARTIST:kors k;
#TITLETRANSLIT:smooooch;
#SUBTITLETRANSLIT:;
#ARTISTTRANSLIT:;
#CREDIT:DMAxel (singles), silenttype01 (doubles);
#BANNER:smooooch.png;
#BACKGROUND:smooooch-bg.png;
#LYRICSPATH:;
#CDTITLE:beatmaniaIIDX.png;
#MUSIC:smooooch.mp3;
#OFFSET:0.120;
#SAMPLESTART:22.938;
#SAMPLELENGTH:22.000;
#SELECTABLE:YES;
#BPMS:0.000=177.000,194.000=88.500,210.000=177.000;
#STOPS:64.000=0.340
,65.000=0.340
,238.000=0.169
,238.500=0.169
,239.000=0.169
,239.500=0.169
;
#BGCHANGES:-2.300=smooooch.avi=1.000=0=0=1,
99999=-nosongbg-=1.000=0=0=0 // don't automatically add -songbackground-
;

//---------------dance-single - ----------------
#NOTES:
     dance-single:
     :
     Easy:
     4:
     0.268,0.361,0.285,0.060,0.000:
0000
0000
0000
0000
,
0000
0000
0000
0000
,
0000
0000
0000
0000
,
0000
0000
0000
0000
,
0000
0000
0000
0000
,
0000
0000
0000
0000
,
0000
0000
0000
0000
,
0000
0000
0000
0000
,
0000
0000
0000
0000
,
1001
0000
0000
0000
,
0000
0000
0000
0000
,
1001
0000
0000
0000
,
0000
0000
0000
0000
,
1001
0000
0000
0000
,
0000
0000
0000
0000
,
0001
0000
0100
0000
,
0010
0010
1000
0100
,
1000
0000
0010
0100
,
0001
0010
0001
0001
,
0100
0001
1000
0100
,
0001
0100
1001
0010
,
0100
0000
0001
0010
,
0001
0000
0101
0000
,
1100
0000
1001
0001
,
0001
0000
1000
0100
,
0001
0010
2000
0000
,
0000
0000
3001
0010
,
1000
0100
0002
0000
,
0000
0000
1003
0100
,
0001
0010
2000
0000
,
0000
0000
3001
0010
,
1000
0100
0002
0000
,
0000
0000
1003
1000
,
1000
1010
0001
0001
,
0001
0101
1000
1000
,
1000
1010
0001
0001
,
0001
1001
0100
0100
,
0100
1100
0010
0010
,
0010
0011
0100
0100
,
1100
0100
1001
0000
,
0000
0000
1001
0100
,
0001
0010
1001
0000
,
0000
0000
1001
0010
,
1000
0100
1001
0000
,
0000
0000
1001
0100
,
0001
0010
1001
0000
,
0000
0000
1001
0000
,
0100
0000
1001
0000
,
0000
0000
0010
0010
,
0010
0000
0100
0100
,
0100
0000
0010
0010
,
0010
0000
1000
0110
,
0001
0001
1001
0000
,
0000
0000
0100
0000
,
0000
0000
0010
0000
,
0000
0000
0001
0000
,
0000
0000
0010
0000
,
0000
0000
0100
0000
,
0000
0000
1001
0000
,
0010
0000
1001
0001
,
0001
0010
0001
0000
,
0100
0010
1000
0100
,
1001
0010
0100
0000
,
0001
0010
0001
1000
,
1001
1000
1000
0000
,
1001
0001
0001
0000
,
0010
0001
0010
0100
,
1001
0100
1001
0000
,
0001
0010
1000
0100
,
0002
0000
1000
0000
,
1003
0100
0001
0010
,
2000
0000
0001
0000
,
3001
0010
1000
0100
,
0002
0000
1000
0000
,
1003
0100
0001
0010
,
1000
0100
0010
0001
,
1001
0000
0000
0000
;

//---------------dance-single - ----------------
#NOTES:
     dance-single:
     :
     Challenge:
     8:
     0.581,0.853,0.475,0.147,0.078:
0000
0000
0000
0000
,
0000
0000
0000
0000
,
0000
0000
0000
0000
,
0000
0000
0000
0000
,
0000
0000
0000
0000
,
0000
0000
0000
0000
,
0000
0000
0000
0000
,
0000
0000
0000
0000
,
0000
0000
0000
0000
,
1001
1100
0000
0000
,
1000
0010
0100
0001
,
0010
0010
0010
0000
0000
0000
0000
0000
,
0001
0100
0010
1000
,
1001
0000
0000
0000
,
1000
0010
0100
0001
,
0100
0010
0100
0000
0001
0100
0010
1000
,
0002
0000
2003
0000
3002
0000
0013
0100
,
1000
0000
0001
1000
0000
1000
0010
1000
,
0100
0010
0001
0010
1000
0000
0010
0000
,
1000
0002
0000
0013
0000
0001
0010
0100
,
1000
0100
0001
0010
0002
0000
0013
0100
,
1000
0000
1000
0001
0000
0001
0010
0100
,
2000
0000
0000
3001
1000
0100
1000
0001
,
0010
1000
0100
0010
1001
0000
0011
0000
,
1010
0000
1001
0000
0010
1000
0010
1000
,
0000
1000
0010
0100
0001
0010
0000
0001
,
0010
0000
0001
0010
1000
0000
1001
0000
,
0001
1000
0100
0010
0001
0100
0001
0010
,
0100
0000
1001
0000
0100
0001
0100
0001
,
0000
0001
0100
0010
1000
0100
0000
1000
,
0000
0100
1000
0010
1010
0000
0100
0101
,
0000
0101
0000
1001
0000
1001
0000
0001
,
0010
0100
1000
0010
1000
1000
0000
1000
,
0001
0000
0010
0000
0100
0000
1000
0000
0010
0000
0000
0010
0000
0000
0010
0000
,
0100
0000
1001
0000
0001
0001
1000
0100
,
0010
0001
0010
1000
0010
0000
0101
0000
,
0110
1001
0011
0011
,
0001
0000
1000
0000
0001
0000
0000
0000
0100
0000
0000
0100
0000
0000
0100
0000
,
0010
0000
1001
0000
1000
1000
0010
1000
,
0100
1000
0001
0100
1000
0000
1000
0000
,
1000
0001
1001
0000
0100
0001
0100
0010
,
0100
0000
0001
0000
0010
0000
0100
0000
1000
0000
0000
0001
0000
0000
1000
0000
,
0010
0100
0100
0000
0010
1000
0010
0100
,
0010
1000
0100
0010
0001
0101
0000
1000
,
1010
0000
1001
0000
0010
1000
0010
0100
,
0010
0000
1000
0000
0100
0000
0010
0000
0001
0000
1000
0010
0000
1000
0010
0000
,
0100
0010
0010
0000
0101
0000
0100
0000
,
1001
0000
0001
0001
,
0001
0000
1000
0000
1001
0000
0000
0000
1000
0010
1000
0000
0010
0000
0100
0001
,
0000
0001
0100
0000
0110
0000
0001
0010
1000
0000
0010
0000
0100
0110
0000
0000
,
0001
0100
0001
0000
0100
0000
0010
1000
0010
0100
0010
0100
0010
0000
0100
0001
,
0000
0001
0100
0000
0110
0000
0001
0100
1000
0000
0010
0000
0100
0110
0000
0000
,
1010
0000
0110
0000
1001
0000
0001
0010
,
0200
0000
0000
1000
0000
1300
0001
0000
,
0100
0000
0010
1000
0001
0000
1001
0000
,
0001
0200
0000
0001
0000
0301
1000
0000
,
0100
0000
0010
0000
1001
0000
1000
0100
,
0020
0000
0031
1000
0000
1000
0010
0100
,
0002
0000
0000
0103
0001
0010
0100
1000
,
0100
0001
0010
1000
0101
1100
1001
1000
,
0002
0000
0013
0100
2000
0000
0000
0010
,
0000
3001
0010
1000
0010
0100
0010
1000
,
0200
0000
0001
0000
0301
2000
0000
0010
,
0000
3010
1000
0010
0100
0010
1000
0000
,
0101
0000
0001
0010
0200
0000
1000
0300
,
1010
0000
1000
0100
0020
0000
0001
0030
,
1001
0001
0100
0010
1000
0010
0001
0100
,
1100
0101
1001
1001
,
0100
0001
0100
0001
0000
0001
0100
0010
,
1000
0010
0001
0100
1000
0100
0010
0001
,
0200
0000
0001
0000
0301
1000
0000
1000
,
0010
0100
0001
0100
1000
0010
0001
0010
,
0100
0000
1000
1100
0000
1100
0000
0101
,
0000
0110
0000
0101
0000
0100
0010
1000
,
1000
0000
0001
0011
0000
1010
0000
0010
,
0100
0010
1000
0100
0001
0010
0100
0000
,
1001
0000
0000
0000
;

//---------------dance-single - ----------------
#NOTES:
     dance-single:
     :
     Hard:
     7:
     0.506,0.591,0.484,0.181,0.035:
0000
0000
0000
0000
,
0000
0000
0000
0000
,
0000
0000
0000
0000
,
0000
0000
0000
0000
,
0000
0000
0000
0000
,
0000
0000
0000
0000
,
0000
0000
0000
0000
,
0000
0000
0000
0000
,
0000
0000
0000
0000
,
0001
0022
0000
0000
,
0000
0033
0000
0000
,
1000
2020
0000
0000
,
0000
3030
0000
0000
,
0001
0202
0000
0000
,
0000
0303
0000
0010
,
1000
0100
0001
0010
,
1100
0000
0101
0000
1001
0000
1000
0100
,
0002
0000
0000
0103
0000
0100
0001
0010
,
0100
1000
0100
0001
0100
0000
0010
0000
,
1000
0010
0000
0010
0000
0010
1000
0100
,
0010
0001
0010
1000
0010
0000
0001
0010
,
2000
0000
0000
3010
0000
0010
1000
0100
,
0010
0001
0101
0100
,
1100
0100
1001
1100
,
0101
0000
0000
0000
0010
1000
0010
1000
,
0000
0100
0000
0100
1000
0001
0000
0001
,
0100
0000
0100
0001
1000
0000
1001
0000
,
0000
1000
0010
0100
0001
0010
0001
0010
,
0001
0000
1000
0000
1001
0000
0100
0001
,
0000
0010
0000
0010
0001
1000
0000
1000
,
0000
1000
0010
0100
0100
0000
0001
0001
,
0000
0101
0000
0101
0000
1001
0000
0001
,
0010
0100
1000
0010
1000
0100
0000
0100
,
0010
1001
0100
0101
,
0100
1000
0001
0000
0011
0000
1001
0000
,
1010
0000
0010
0001
1000
0000
1100
0000
,
0010
1001
1100
1100
,
1000
0001
0010
0000
0011
0000
0011
0000
,
0001
1000
0010
0000
1010
0000
1010
0000
,
1000
0001
0100
0000
0202
0000
0000
0000
,
0303
0000
0010
0000
1001
0000
0001
0100
,
0001
0000
0010
0000
0100
0000
1000
0000
0010
0000
0000
0010
0000
0000
0010
0000
,
0000
0000
0100
0000
1001
0000
1000
0010
,
1000
0100
0010
0001
0100
0000
0100
0100
,
0000
0000
1001
0000
0001
0100
0000
0010
,
1000
0000
0100
0000
0010
0000
0001
0000
0100
0000
0000
0100
0000
0000
0100
0000
,
0000
1001
0010
0100
,
1100
0000
0202
0000
,
0303
0000
0000
0000
1001
0000
0000
0000
0001
0000
0010
0000
0010
0000
0001
0100
,
0000
0100
0010
0000
1000
0000
0100
0000
0100
0000
1000
0000
0010
0010
0000
0000
,
0110
0000
0000
0000
1001
0000
0000
0000
1000
0000
0100
0000
0100
0000
1000
0010
,
0000
0010
0100
0000
0001
0000
0010
0000
0010
0000
0001
0000
0100
0100
0000
0000
,
0020
0000
2030
0000
3001
0000
0100
0010
,
2000
0000
0000
3100
0000
1000
0001
0010
,
0100
1000
0100
0001
0100
0000
0010
0000
,
1000
0001
0000
0001
0000
0010
0100
0000
,
1000
0000
0010
0000
1001
0000
0010
0100
,
0002
0000
0000
0013
0000
0001
0100
0010
,
1000
0010
1010
0100
,
0101
0000
0100
0000
0110
1010
1001
0000
,
1001
0000
0001
0100
0020
0000
0000
1030
,
0000
0001
0100
0010
1000
0010
0001
0010
,
1000
0000
1010
0000
0100
0002
0000
0010
,
0000
0013
0001
0010
1000
0010
0100
0001
,
1001
0000
1000
0010
0200
0000
0000
0301
,
0000
1000
0010
0100
0002
0000
0000
0000
,
1003
0100
0010
0001
0010
1000
0010
0001
,
1100
0000
0101
0000
1001
0000
0001
0010
,
0100
1000
0010
1000
0000
0010
0000
0100
,
0001
0010
0001
0010
0200
0000
1000
0000
,
1300
0100
0010
0001
0100
0001
0000
0100
,
0000
0010
1000
0100
1000
0100
0010
0000
,
1001
0000
1000
0010
0000
0010
0000
1010
,
0000
0011
0000
0010
1000
0000
1000
0001
,
1000
0000
0010
1000
0000
1100
0000
1000
,
0001
0000
0010
0100
1000
0000
1000
0000
,
1001
0000
0000
0000
;

//---------------dance-single - ----------------
#NOTES:
     dance-single:
     :
     Medium:
     6:
     0.432,0.525,0.475,0.164,0.000:
0000
0000
0000
0000
,
0000
0000
0000
0000
,
0000
0000
0000
0000
,
0000
0000
0000
0000
,
0000
0000
0000
0000
,
0000
0000
0000
0000
,
0000
0000
0000
0000
,
0000
0000
0000
0000
,
0000
0000
0000
0000
,
1000
2200
0000
0000
,
0000
3300
0000
0000
,
0001
0022
0000
0000
,
0000
0033
0000
0000
,
1000
2020
0000
0000
,
0000
3030
0000
0000
,
0001
0010
0100
1000
,
1100
1001
0100
0001
,
0020
0000
0000
0031
0000
0010
0100
0000
,
1000
1010
1001
0010
,
0001
0200
0000
0001
0000
0301
1000
0000
,
0100
0010
0001
1000
,
0200
0000
0000
1300
0000
0100
0010
0000
,
0001
0100
1001
0010
,
1001
0100
1001
0011
,
1010
0000
0000
0000
1000
0000
0010
1000
,
0000
1000
0000
1000
0001
0100
0000
0001
,
0100
0000
0100
0010
0100
0000
1001
0000
,
0000
0001
0100
1000
,
0010
0000
0001
0000
1001
0000
0100
0001
,
0000
0001
0000
0001
1000
0010
0000
1000
,
0000
0010
0100
0010
0010
0000
1000
1000
,
0000
1100
0000
0101
0000
1001
0000
0001
,
0010
0100
1000
0000
1001
0000
1000
0000
,
1000
0010
1000
0000
1001
0000
0001
0000
,
0001
0100
0001
0000
1001
0000
1000
0000
,
1000
0010
1000
0000
1001
0000
0010
0000
,
0100
1001
0001
0001
,
0001
0100
0001
0000
1001
0000
1000
0000
,
1000
0010
1000
0000
0010
0000
0100
0000
,
0101
0010
1001
0000
,
0000
0000
0001
0010
1000
0000
1010
0000
,
0100
0001
0011
0000
,
0000
0000
1000
0100
0001
0000
0101
0000
,
0010
1000
1100
0000
,
0000
0000
1000
0100
0001
0100
0000
0010
,
0000
1000
0001
0000
1001
0000
0000
0000
,
0000
0000
0100
0000
,
0110
0000
2002
0000
,
0000
0000
3003
0000
0100
1000
0010
0000
,
0010
0100
0010
0000
0010
0100
0001
0000
,
0010
0001
0100
0000
0100
0010
0100
0000
,
0100
0010
1000
0000
0100
1000
0010
0010
,
0200
0000
0302
0000
1003
0000
0010
0100
,
0002
0000
0000
0013
0000
1000
0010
0000
,
0100
0001
1000
0001
,
1000
0020
0000
1000
0000
1030
0010
0000
,
0100
0000
0001
0000
1001
0000
0100
0010
,
2000
0000
0000
3100
0000
0001
0100
0000
,
0010
1000
1001
0010
,
0101
0000
0010
0000
1010
0011
1001
0000
,
1001
0000
0100
1000
0020
0000
0000
0130
,
0000
0001
0100
0000
0010
0000
1000
0100
,
0010
0000
0001
0000
1000
0002
0000
0100
,
0000
0103
0010
0000
1000
0000
0001
0000
,
1001
0000
0010
0001
0200
0000
0000
0310
,
0000
1000
0010
0000
0110
0000
0001
0000
,
0011
0000
1010
0000
1000
0001
0100
0000
,
1100
0000
0101
0000
1001
0000
1000
0010
,
0100
0010
0000
1000
0000
0001
0000
0010
,
0000
0001
0000
1000
0010
0000
0110
0000
,
1001
0000
0001
0100
0000
0010
0000
0100
,
0001
0000
1000
0100
1000
0000
1010
0000
,
1001
0000
0100
0001
0000
0001
0000
0101
,
0000
0101
0000
1001
0000
1000
0010
0000
,
0110
0000
0010
1000
0000
1000
0001
0000
,
0010
0100
1000
0010
,
1001
0000
0000
0000
;

//---------------dance-single - ----------------
#NOTES:
     dance-single:
     :
     Beginner:
     2:
     0.110,0.164,0.121,0.000,0.000:
0000
0000
0000
0000
,
0000
0000
0000
0000
,
0000
0000
0000
0000
,
0000
0000
0000
0000
,
0000
0000
0000
0000
,
0000
0000
0000
0000
,
0000
0000
0000
0000
,
0000
0000
0000
0000
,
0000
0000
0000
0000
,
1000
0000
0000
0000
,
0000
0000
0000
0000
,
0001
0000
0000
0000
,
0000
0000
0000
0000
,
1000
0000
0000
0000
,
0000
0000
0000
0000
,
0001
0000
0000
0000
,
1001
0000
0010
0000
,
0000
0000
0100
0000
,
0000
0000
0010
0000
,
0000
0000
1000
0000
,
0000
0000
0100
0000
,
0000
0000
1000
0000
,
0000
0000
0001
0000
,
0010
0000
1001
0000
,
0000
0000
0100
0000
,
0000
0000
1000
0000
,
0000
0000
0100
0000
,
0000
0000
1000
0000
,
0000
0000
0001
0000
,
0000
0000
0010
0000
,
0000
0000
1001
0000
,
0000
0000
0100
0000
,
0000
0000
0010
0000
,
0000
0000
0010
0000
,
0000
0000
0010
0000
,
0000
0000
0100
0000
,
0000
0000
0001
0000
,
0000
0000
0001
0000
,
0000
0000
1000
0000
,
0000
0000
1001
0000
,
0000
0000
0100
0000
,
1000
0000
1001
0000
,
0000
0000
0010
0000
,
0001
0000
1001
0000
,
0000
0000
0010
0000
,
1000
0000
1001
0000
,
0000
0000
1001
0000
,
0000
0000
0100
0000
,
0000
0000
0001
0000
,
0000
0000
0010
0000
,
0000
0000
0100
0000
,
0000
0000
1000
0000
,
0000
0000
1001
0000
,
0000
0000
0000
0000
,
0000
0000
0010
0000
,
0000
0000
0000
0000
,
0000
0000
1001
0000
,
0000
0000
0100
0000
,
0000
0000
1000
0000
,
0010
0000
1001
0000
,
0100
0000
0000
0000
,
0001
0000
0000
0000
,
0010
0000
0000
0000
,
0001
0000
0000
0000
,
0100
0000
0000
0000
,
0001
0000
0000
0000
,
1000
0000
0001
0000
,
1001
0000
0000
0000
,
0001
0000
0001
0000
,
0001
0000
0100
0000
,
0100
0000
0100
0000
,
0001
0000
0001
0000
,
0001
0000
1000
0000
,
1000
0000
0000
0000
,
1001
0000
0000
0000
,
0001
0000
0000
0000
,
1001
0000
0000
0000
;

//---------------dance-double - ----------------
#NOTES:
     dance-double:
     :
     Easy:
     5:
     0.275,0.394,0.164,0.000,0.000: // measure 1
00000000
00000000
00000000
00000000
,  // measure 2
00000000
00000000
00000000
00000000
,  // measure 3
00000000
00000000
00000000
00000000
,  // measure 4
00000000
00000000
00000000
00000000
,  // measure 5
00000000
00000000
00000000
00000000
,  // measure 6
00000000
00000000
00000000
00000000
,  // measure 7
00000000
00000000
00000000
00000000
,  // measure 8
00000000
00000000
00000000
00000000
,  // measure 9
00000000
00000000
00000000
00000000
,  // measure 10
00000000
00000000
00000000
00000000
,  // measure 11
00000000
00000000
00000000
00000000
,  // measure 12
00000000
00000000
00000000
00000000
,  // measure 13
00000000
00000000
00000000
00000000
,  // measure 14
00000000
00000000
00000000
00000000
,  // measure 15
00000000
00000000
00000000
00000000
,  // measure 16
00000000
00000000
00000000
00000000
,  // measure 17
00000000
00000000
00001000
00000000
,  // measure 18
00000100
00000000
00001000
00000100
,  // measure 19
00000010
00000001
00001000
00000000
,  // measure 20
00000010
00000000
00001000
00000010
,  // measure 21
00000100
00000001
00000100
00000000
,  // measure 22
00001000
00000000
00000100
00001000
,  // measure 23
00010000
00100000
10000000
00000000
,  // measure 24
00010000
00000000
11000000
01100000
,  // measure 25
00110000
00000000
10000000
01000000
,  // measure 26
10000000
01000000
10000000
00100000
,  // measure 27
00010000
00001000
00000010
00000001
,  // measure 28
00000010
00000001
00000100
00001000
,  // measure 29
00010000
01000000
10010000
00010000
,  // measure 30
10000000
00010000
00000010
00000001
,  // measure 31
00001000
00000010
00000100
00001000
,  // measure 32
00100000
01000000
00010000
00000010
,  // measure 33
00001000
00000100
00000010
00000010
,  // measure 34
00000001
00000001
00000101
00000110
,  // measure 35
00001010
00000000
00001000
00001000
,  // measure 36
00000100
00000100
00010100
00011000
,  // measure 37
00101000
00000000
00010000
00010000
,  // measure 38
00100000
00100000
11000000
10100000
,  // measure 39
01100000
00000000
01000000
01000000
,  // measure 40
00001000
00001000
00010010
00101000
,  // measure 41
00010010
00000000
00000100
00000000
,  // measure 42
00000001
00000000
00001000
00000010
,  // measure 43
00010000
00010000
00001000
00000000
00100000
00000000
00000000
00000000
,  // measure 44
01000000
00000000
10000000
01000000
,  // measure 45
00010000
00000100
00001000
00000000
,  // measure 46
00000010
00000000
00001010
00001010
,  // measure 47
00000100
00010000
00010000
00000000
00001000
00000000
00000000
00000000
,  // measure 48
00000000
00000000
00100000
00000000
,  // measure 49
00010000
00000000
00000000
00000000
10000000
01000000
00100000
00000000
,  // measure 50
00000000
00000000
00000000
00000000
01000000
00010000
00001000
00000000
,  // measure 51
00000000
00000000
00000000
00000000
00000010
00000001
00000100
00000000
,  // measure 52
00000000
00000000
00000000
00000000
00000001
00000100
00001000
00000000
,  // measure 53
00000000
00000000
10000000
00100000
,  // measure 54
10000000
00100000
10000000
00100000
,  // measure 55
10000000
00000000
00010000
00100000
,  // measure 56
00010000
00100000
00010000
00100000
,  // measure 57
00010000
00000000
10000000
01000000
,  // measure 58
00010000
00001000
00000010
00000001
,  // measure 59
00001000
00000000
00000001
00001000
,  // measure 60
00010000
10000000
00100000
01000000
,  // measure 61
00010000
00100000
01000000
10000000
,  // measure 62
01000000
00100000
00010000
00000000
,  // measure 63
10000000
01000000
00100000
00001000
,  // measure 64
00010000
00000100
00010000
00000000
,  // measure 65
00000100
00001000
00000001
00000010
,  // measure 66
00000100
00001000
00000010
00000000
,  // measure 67
00000100
00000001
00000010
00001000
,  // measure 68
00010000
00001000
00100000
00000000
,  // measure 69
01000000
10000000
00100000
01000000
,  // measure 70
00010000
00100000
01000000
00010000
,  // measure 71
00001000
00010000
00001000
00000100
,  // measure 72
00001000
00010000
00001000
00000000
,  // measure 73
00000010
00000001
00000100
00000010
,  // measure 74
00001000
00000100
00000010
00001000
,  // measure 75
00010000
00001000
00010000
00100000
,  // measure 76
00010000
00001000
00010000
00000000
,  // measure 77
00011000
00000000
00000000
00000000
;

//---------------dance-double - ----------------
#NOTES:
     dance-double:
     :
     Medium:
     6:
     0.334,0.491,0.104,0.121,0.000: // measure 1
00000000
00000000
00000000
00000000
,  // measure 2
00000000
00000000
00000000
00000000
,  // measure 3
00000000
00000000
00000000
00000000
,  // measure 4
00000000
00000000
00000000
00000000
,  // measure 5
00000000
00000000
00000000
00000000
,  // measure 6
00000000
00000000
00000000
00000000
,  // measure 7
00000000
00000000
00000000
00000000
,  // measure 8
00000000
00000000
00000000
00000000
,  // measure 9
00000000
00000000
00000000
00000000
,  // measure 10
11000000
00000000
00000000
00000000
,  // measure 11
00000000
00000000
00000000
00000000
,  // measure 12
00000011
00000011
00000000
00000000
,  // measure 13
00000000
00000000
00000000
00000000
,  // measure 14
01000000
00000000
00000000
00000000
,  // measure 15
00000000
00000000
00000000
00000000
,  // measure 16
00000000
00000000
00000000
00000000
,  // measure 17
00000100
00001000
00000010
00000100
,  // measure 18
00000001
00000100
00010000
00010000
,  // measure 19
00010000
00000000
00001000
00000100
,  // measure 20
00010000
01000000
00100000
00100000
,  // measure 21
00100000
00000000
00001000
01000000
,  // measure 22
00100000
10000000
01000000
00010000
,  // measure 23
00001000
00000000
00000010
00000001
,  // measure 24
00001000
00000010
00000110
00000110
,  // measure 25
00000110
00000000
00000001
00000010
,  // measure 26
00001000
00010000
00000100
00001000
,  // measure 27
00010000
00000000
01000000
00000000
00010000
00000000
00100000
00010000
,  // measure 28
00000000
00010000
00000000
02020000
00000000
00000000
03030000
00000000
,  // measure 29
00000000
00000000
10010000
01000000
,  // measure 30
00010000
00001000
00100000
00010000
,  // measure 31
00001000
00000000
00000010
00000000
00001000
00000000
00000100
00001000
,  // measure 32
00000000
00000001
00000000
00000202
00000000
00000000
00000303
00000000
,  // measure 33
00000000
00000000
00010000
00001000
,  // measure 34
00000100
00001000
00100000
01000000
,  // measure 35
00010000
00010000
00010000
00000000
00001000
00000000
00010000
00000000
,  // measure 36
01000000
00010000
00000010
00000100
,  // measure 37
00001000
00001000
00001000
00000000
00000001
00000000
00000100
00000000
,  // measure 38
00010000
00001000
00010000
10000000
,  // measure 39
00100000
00100000
00100000
00000000
00010000
00000000
01000000
00000000
,  // measure 40
00001000
00000000
00010000
00000000
00000010
00001000
00000010
00000100
,  // measure 41
00000010
00001000
00000001
00000000
00001000
00000000
00010000
00000000
,  // measure 42
00000000
00000000
01100000
00000000
,  // measure 43
10000000
00010000
00001000
00000001
,  // measure 44
00001000
00100000
01000000
00000000
,  // measure 45
10100000
01010000
00001000
00000000
,  // measure 46
00000100
00000000
00000010
00000001
,  // measure 47
00000100
00000100
00000100
00000000
00001000
00000000
00010000
00000000
,  // measure 48
01000000
00000000
10000000
00000000
01000000
10000000
01000000
00000000
,  // measure 49
00100000
00001000
00010000
00000000
00000100
00000000
00001000
00000000
,  // measure 50
00000001
00000100
00001000
00000000
00010000
01000000
00100000
00000000
,  // measure 51
10000000
01000000
00010000
00000000
00001000
00000010
00000100
00001000
,  // measure 52
00000001
00000100
00001000
00000000
00010000
01000000
10000000
00100000
,  // measure 53
00020000
00230000
00310000
01000000
,  // measure 54
00010000
01000000
00010000
01000000
,  // measure 55
00010000
00000000
01000000
00010000
10000000
00000000
01000000
00000000
,  // measure 56
10000000
01000000
10000000
01000000
,  // measure 57
10000000
01000000
00100000
00001000
,  // measure 58
00010000
00001000
00000100
00000010
,  // measure 59
00000100
00000001
00000010
00000100
,  // measure 60
00010000
00000000
00001000
00000000
01000000
01000000
00010000
00010000
,  // measure 61
10000000
00000000
01000000
00000000
00020000
00000000
00000000
00001000
,  // measure 62
00030000
00001000
00000000
00001000
00010000
00000000
00100000
00000000
,  // measure 63
01000000
00000000
00001000
00000000
00020000
00000000
00000000
00000100
,  // measure 64
00030000
00000100
00000000
00000100
00001000
00000000
00000001
00000000
,  // measure 65
00000010
00000000
00001000
00000000
00020000
00000000
00000000
00001000
,  // measure 66
00030000
00001000
00000000
00001000
00010000
00000000
00000100
00000000
,  // measure 67
00000010
00001000
00010000
01000000
,  // measure 68
20000000
00000000
30000000
00010000
20000000
00000000
30000000
00000000
,  // measure 69
00100000
10000000
00000000
00010000
00000000
01000000
00000000
00100000
,  // measure 70
00000000
10000000
00000000
01000000
00000000
00100000
00000000
00001000
,  // measure 71
00010000
00000000
00001000
00010000
00000000
00010000
00000000
00000200
,  // measure 72
00000000
00000300
00000000
00000000
,  // measure 73
00001000
00000001
00000000
00001000
00000000
00000010
00000000
00000100
,  // measure 74
00000000
00001000
00000000
00010000
00000000
00000100
00000000
00010000
,  // measure 75
00001000
00000000
00100000
00010000
00000000
00010000
00000000
02000000
,  // measure 76
00000000
00000000
03000000
00001000
00020000
00000000
00030000
00000000
;

//---------------dance-double - ----------------
#NOTES:
     dance-double:
     :
     Hard:
     8:
     0.535,0.755,0.345,0.225,0.069: // measure 1
00000000
00000000
00000000
00000000
,  // measure 2
00000000
00000000
00000000
00000000
,  // measure 3
00000000
00000000
00000000
00000000
,  // measure 4
00000000
00000000
00000000
00000000
,  // measure 5
00000000
00000000
00000000
00000000
,  // measure 6
00000000
00000000
00000000
00000000
,  // measure 7
00000000
00000000
00000000
00000000
,  // measure 8
00000000
00000000
00000000
00000000
,  // measure 9
00000000
00000000
00000000
00000000
,  // measure 10
00000101
00000101
00000000
00000000
,  // measure 11
00000000
00000000
00000000
00000000
,  // measure 12
10100000
01000000
00010000
00000000
00000000
00000000
00000000
00000000
,  // measure 13
00000000
00000000
00000000
00000000
,  // measure 14
00000010
00000000
00000000
00000000
,  // measure 15
00000000
00000000
00000000
00000000
,  // measure 16
00001000
00010000
00001000
00010000
00001000
00010000
00001000
00010000
,  // measure 17
00000200
00000000
00002300
00000000
00003010
00000000
00000100
00000001
,  // measure 18
00000020
00000000
00000000
00001030
00000000
00001000
00000000
00010000
,  // measure 19
00002000
00000000
01003000
00010000
00200000
00000000
02300000
00000000
,  // measure 20
13000000
00100000
00000000
00010000
00000000
00001000
00010000
00100000
,  // measure 21
10000000
01000000
00010000
00001000
00000020
00000000
00000130
00001000
,  // measure 22
00000020
00000000
00000130
00000010
00000000
00000010
00000000
00010000
,  // measure 23
00002000
00000000
00000000
00000000
00003100
00001000
00010000
01000000
,  // measure 24
10000000
00100000
00010000
00001000
00020000
00000000
00000000
00030010
,  // measure 25
00002000
00000000
00000000
00000000
00003001
00001000
00000001
00000000
00001000
00000000
00000100
00000000
00000010
00000000
00000100
00000000
,  // measure 26
00001000
00000001
00000100
00000010
00001000
00000100
00000100
00010000
,  // measure 27
00001000
00001000
00100000
00010000
00010000
00100000
01000000
10000000
,  // measure 28
01000000
00010000
01000000
10000000
00100000
01000000
00010000
10000000
,  // measure 29
01000000
00000000
00100000
00010000
00101000
00000000
00010000
00001000
,  // measure 30
00000100
00000001
00000100
00001000
00010000
00000100
00000010
00000001
,  // measure 31
00000100
00001000
00010000
01000000
10000000
00000000
01000000
01000000
,  // measure 32
00000000
00100000
00000000
00001000
00000000
00010000
00000000
00000100
,  // measure 33
00000100
00000100
00000100
00000000
00000011
00000000
00000101
00000000
,  // measure 34
00001100
00000110
00011000
01100000
,  // measure 35
01000000
10000000
00010000
00000000
10100000
00000000
11000000
00000000
,  // measure 36
01010000
01100000
00011000
00000110
,  // measure 37
00001010
00000010
00000100
00000000
00000101
00000000
00001100
00000000
,  // measure 38
00010100
00001100
00000110
00010010
,  // measure 39
00001000
00100000
00010000
00000000
01010000
00000000
11000000
00000000
,  // measure 40
01001000
00000000
00110000
00000000
01000000
01000000
01000000
01000000
,  // measure 41
01000000
00100000
00010000
10000000
00200000
00000000
20000000
00000000
,  // measure 42
00000000
00000000
00000000
00000000
30300000
00000000
00000000
00000000
01000000
00000000
00000000
01000000
00000000
00000000
00100000
00000000
,  // measure 43
00100000
00001000
00000010
00000100
00001000
00000001
00000100
00001000
,  // measure 44
00010000
00000100
00000010
00000001
00000010
00000010
00000010
00000000
,  // measure 45
00000001
00000001
00000001
00000010
00000000
00001000
00000000
00010000
,  // measure 46
00000000
00000000
10000000
00000000
00000000
00000000
01000000
00000000
00010000
00000000
10000000
01000000
00000000
10000000
01000000
00000000
,  // measure 47
00100000
00010000
10000000
00000000
01000000
00010000
00001000
00010000
,  // measure 48
00000100
00001000
00000001
00000100
00000010
00000010
00000010
00000010
,  // measure 49
00000010
00000000
00001000
00000000
00010000
00000000
00000000
00000000
00100000
00000000
00100000
00000000
00000000
01000000
00000000
00000000
,  // measure 50
10000000
00000000
00000000
00010000
00000000
00010000
00000000
00000000
01000000
01000000
00000000
00000000
00000000
00001000
00000000
00001000
,  // measure 51
00000000
00000000
00000000
00010000
00000000
00000000
00000000
00000000
00000010
00000000
00000010
00000000
00000000
00000000
00000000
00000000
,  // measure 52
00000100
00000000
00000000
00000000
00000000
00000001
00000000
00000000
00001000
00001000
00000000
00000000
00000000
00000100
00000000
00000100
,  // measure 53
00000002
00000023
00001030
00000100
,  // measure 54
00001000
00000100
00001000
00000100
,  // measure 55
00001000
00000000
00000100
00001000
00000001
00000000
00000100
00000000
,  // measure 56
00001000
00010000
00001000
01000000
,  // measure 57
00100000
00000000
10000000
00000000
01000000
00010000
01000000
10000000
,  // measure 58
01000000
00100000
01000000
00010000
00011000
00001000
00000100
00000010
,  // measure 59
00000100
00000001
00000100
00001000
00000110
00000100
00000001
00000010
,  // measure 60
00000011
00000100
00001000
00000010
00000101
00000110
00010010
00011000
,  // measure 61
00200000
00000000
01300000
10000000
00020000
00000000
00030000
00100000
,  // measure 62
00000000
01000000
00000000
00010000
00002000
00000000
00003100
00000001
,  // measure 63
00000020
00000000
00000130
00000000
00000010
00000002
00000000
00001003
,  // measure 64
00000000
00000001
00000010
00001000
00010000
01000000
10000000
00100000
,  // measure 65
01100000
00000000
00100000
10000000
01000000
00000000
00100000
00010000
,  // measure 66
00110000
00000000
00100000
00001000
00020000
00000000
00000000
00000000
,  // measure 67
00030100
00001000
00000001
00000010
00001000
00010000
00100000
10000000
,  // measure 68
00020000
00000000
00000000
00000000
00030000
00000000
10000000
00000000
00020000
00000000
00000000
00000000
10030000
00010000
10000000
00000000
,  // measure 69
00010000
01000000
00100000
10000000
01000000
00100000
00001000
00010000
,  // measure 70
00000010
00001000
00000100
00010000
00001000
00000100
00000001
00001000
,  // measure 71
00000010
00001000
00000100
00000001
00000100
00000010
00000001
00000100
,  // measure 72
00001000
00100000
00010000
01000000
00001000
00010000
01000000
00100000
,  // measure 73
01100000
00000000
01000000
10000000
00000000
00010000
01000000
01001000
,  // measure 74
00000000
00011000
00000000
00001000
00001100
00000000
00000200
00000000
,  // measure 75
00000301
00000000
00000010
00000100
00000000
00000100
00000000
00020000
,  // measure 76
00000000
00000000
00000000
00031000
02000000
00000000
00000000
00000000
,  // measure 77
03000000
00000000
00000000
00000000
;
