#TITLE:smooooch・∀・;
#SUBTITLE:(booootleg);
#ARTIST:kors k;
#TITLETRANSLIT:;
#SUBTITLETRANSLIT:;
#ARTISTTRANSLIT:;
#CREDIT:DMAxel;
#BANNER:smooooch (booootleg).png;
#BACKGROUND:smooooch (booootleg)-bg.png;
#LYRICSPATH:;
#CDTITLE:BEMANI game remix.png;
#MUSIC:smooooch (booootleg).mp3;
#OFFSET:-2.080;
#SAMPLESTART:24.018;
#SAMPLELENGTH:12.000;
#SELECTABLE:YES;
#BPMS:0.000=186.000;
#STOPS:;
#BGCHANGES:;

//---------------dance-single - ----------------
#NOTES:
     dance-single:
     :
     Easy:
     4:
     0.303,0.482,0.188,0.057,0.000:
0000
0000
0000
0000
,
0000
0000
0000
0000
,
0000
0000
0000
0000
,
0000
0000
0000
0000
,
0000
0000
0000
0000
,
0000
0000
0000
0000
,
0000
0000
0000
0000
,
0000
0000
0000
0000
,
1001
0000
0000
0000
,
0000
0000
0000
0000
,
0110
0000
0000
0000
,
0000
0000
0000
0000
,
1001
0000
0000
0000
,
0110
0000
0000
0000
,
1001
0000
0100
0000
,
0010
0000
0100
0000
,
0001
0000
0000
0000
,
0100
0000
0100
0000
,
0001
0010
0001
0000
,
0100
0010
1000
0100
,
1000
1000
0010
1000
,
0001
0010
1000
0010
,
1001
0100
0010
0000
,
1000
0100
1000
0000
,
0001
1001
1000
1001
,
0001
0010
0100
0000
,
1000
0100
0010
0000
,
0001
0100
0010
0100
,
0001
0001
0100
0010
,
1000
0100
0000
1000
,
0010
0100
0001
0000
,
0010
0001
0010
0000
,
0001
0010
0100
1000
,
0100
0100
0100
0000
,
1000
0100
0010
0001
,
0010
0100
1000
0010
,
0010
0000
0000
0000
,
1000
0001
0010
0000
,
0001
0010
0100
1000
,
0100
0010
0001
0000
,
0100
0010
0100
0001
,
1000
0100
0010
0001
,
2000
0000
0000
0000
,
3001
0001
0001
0001
,
0100
0100
0100
0100
,
0010
0010
0010
0010
,
1000
1000
1000
1000
,
0001
0001
0001
0001
,
0100
0100
0100
0100
,
0010
0010
0010
0010
,
1000
0000
0000
0000
,
0001
0010
0001
0010
,
0001
1000
0001
1000
,
0100
1000
0100
1000
,
0010
0100
0010
0100
,
1001
0010
0100
0010
,
1001
0100
0010
0100
,
1001
0001
0011
1000
,
1100
0010
0001
0010
,
1001
0000
0000
0000
,
0100
0000
0000
0000
,
1000
0000
0000
0000
,
0100
0000
0000
0000
,
0010
0000
0000
0000
,
0001
0000
0000
0000
,
0010
0000
0000
0000
,
0200
0000
0000
0000
,
1300
0000
0000
0000
,
0100
0000
0000
0000
,
0020
0000
0000
0000
,
0031
0000
0000
0000
,
0200
0000
0000
0000
,
0320
0000
0000
0000
,
2030
0000
3002
0000
,
1003
1000
1000
0000
,
0010
0100
0010
0000
,
0100
0001
0010
0100
,
1000
1000
0100
0010
,
0100
1001
0010
1001
,
0100
1000
0100
0000
,
1000
0010
0100
0000
,
0001
0100
0010
0100
,
0001
0001
0100
0000
,
0010
1000
0100
0000
,
1000
0010
0100
0001
,
0011
0000
0011
0000
1001
0000
0000
0100
,
0000
1100
1100
1001
,
0010
0001
0010
0000
,
0001
1000
0100
0000
,
1000
0010
0100
0001
,
0100
0100
0110
0000
;

//---------------dance-single - ----------------
#NOTES:
     dance-single:
     :
     Challenge:
     8:
     0.607,0.635,0.393,0.115,0.037: // measure 1
0000
0000
0000
0000
,  // measure 2
0000
0000
0000
0000
,  // measure 3
0000
0000
0000
0000
,  // measure 4
0000
0000
0000
0000
,  // measure 5
0000
0000
0000
0000
,  // measure 6
0000
0000
0000
0000
,  // measure 7
0000
0000
0000
0000
,  // measure 8
0000
0000
0000
0000
,  // measure 9
2200
0000
0000
0000
,  // measure 10
0000
0000
0000
0000
3300
0000
0000
0001
,  // measure 11
2002
0000
0000
3003
,  // measure 12
0200
0000
0000
0000
0000
0000
0000
1300
,  // measure 13
2002
0000
0000
0000
0000
3003
0000
0100
,  // measure 14
0020
0000
0000
0000
0000
0000
0000
0031
,  // measure 15
1001
0000
0000
1000
1010
0000
0000
0001
,  // measure 16
0101
1001
0100
0100
,  // measure 17
0010
0100
0001
0010
1000
0010
0001
0100
,  // measure 18
0020
0000
0230
0000
,  // measure 19
0301
0000
0100
0010
1000
0000
0100
1000
,  // measure 20
0000
1000
0100
0010
0001
0010
1000
0010
,  // measure 21
0100
0000
1001
0000
0100
0010
0000
0010
,  // measure 22
0000
1000
0100
0010
0001
0010
1000
0100
,  // measure 23
1000
0000
0010
0100
0001
0000
0010
0001
,  // measure 24
0000
0001
0010
0100
1000
0000
0001
0100
,  // measure 25
1000
0100
0010
0001
0010
1000
0010
0100
,  // measure 26
1001
0000
1100
0000
0101
0000
1000
0010
,  // measure 27
0100
0000
0001
0010
1000
0000
1000
0010
,  // measure 28
0000
0010
0100
0010
1000
0100
0010
0001
,  // measure 29
1100
0000
1001
0000
0001
0010
0000
0010
,  // measure 30
0001
0010
0100
1000
0100
0000
1000
0100
,  // measure 31
0001
1000
0100
1000
0010
0000
0100
0001
,  // measure 32
0000
0010
1000
0001
0010
0001
0100
0000
,  // measure 33
0010
0010
1010
0000
0100
0100
0101
0000
,  // measure 34
1001
0000
0011
0000
1100
0000
0001
0100
,  // measure 35
0001
0010
1000
0010
0001
0010
1000
0010
,  // measure 36
0000
0100
0001
0010
0100
0000
1000
0100
,  // measure 37
0010
0000
1001
0000
0100
0000
0001
0101
,  // measure 38
0000
1010
0000
0110
0000
0001
0100
0010
,  // measure 39
1000
0100
0001
0100
1000
0100
0001
0100
,  // measure 40
0000
0010
0000
1000
0000
0010
0100
0010
,  // measure 41
1000
0100
1000
0001
0010
0001
1000
0010
,  // measure 42
0000
0100
0001
0100
0010
1000
0010
0000
,  // measure 43
1000
0100
0010
0001
0010
0100
1000
0100
,  // measure 44
0010
0001
0010
1000
,  // measure 45
0010
0001
0010
0100
,  // measure 46
1000
0100
0001
0100
,  // measure 47
1000
0100
0010
0001
,  // measure 48
0010
1000
0010
0001
,  // measure 49
0010
1000
0100
0001
,  // measure 50
0100
1000
0100
0010
,  // measure 51
0001
0001
0000
0000
0000
0100
0100
0001
,  // measure 52
1001
0000
0010
1000
0010
0000
0100
0001
,  // measure 53
0100
0000
0001
0010
0100
1000
0100
0010
,  // measure 54
0001
0000
0010
0001
0010
0000
0100
1000
,  // measure 55
0100
0000
1000
0100
0010
0001
0010
0100
,  // measure 56
1000
0000
0010
1000
0100
0000
0010
0001
,  // measure 57
0100
0000
0001
0010
0100
1000
0100
0010
,  // measure 58
1001
0000
0001
0000
0011
0000
1000
1100
,  // measure 59
0000
0110
0000
0011
0000
1001
0000
1001
,  // measure 60
0000
0000
0100
0000
1000
0000
0100
0000
0010
0000
0000
0010
0000
0000
0001
0000
,  // measure 61
0000
0000
0010
0000
0001
0000
0010
0000
0100
0000
0000
0100
0000
0000
1000
0000
,  // measure 62
0000
0000
0010
0000
1000
0000
0010
0000
0100
0000
0000
0100
0000
0000
0001
0000
,  // measure 63
0000
0000
0100
0000
0001
0000
0100
0000
0010
0000
0000
0010
0000
0000
1000
0000
,  // measure 64
0000
0000
0100
0000
1000
0000
0100
0000
0010
0000
0000
0001
0000
0000
0010
0000
,  // measure 65
0000
0000
0100
0000
1000
0000
0100
0000
0010
0000
0000
0001
0000
0000
0100
0000
,  // measure 66
0000
0000
0010
0000
1000
0000
0010
0000
0100
0000
0000
0001
0000
0000
0100
0000
,  // measure 67
0020
0000
0230
0000
,  // measure 68
0301
0000
0010
0100
1000
0000
0000
1001
,  // measure 69
0000
1000
0100
0010
0001
0010
1000
0010
,  // measure 70
0001
0000
1001
0000
0001
0010
0000
0100
,  // measure 71
1000
0100
0001
0100
1000
0100
0010
0000
,  // measure 72
1001
0000
1000
0100
0010
0000
0000
1001
,  // measure 73
0000
0001
0010
0100
1000
0000
0000
0100
,  // measure 74
1000
0010
1000
0010
0001
0010
1000
0100
,  // measure 75
0010
0000
0000
0000
0101
0000
0000
0000
1001
0000
0000
0100
1000
0000
0010
0000
,  // measure 76
1000
0000
0100
0010
0001
0000
0100
0010
,  // measure 77
0000
0010
1000
0100
0010
0001
0010
0100
,  // measure 78
1000
0000
0011
0000
1000
1001
0000
0011
,  // measure 79
0000
0100
1000
0100
0010
0001
0010
0100
,  // measure 80
1001
0000
0010
0100
1000
0000
0010
0100
,  // measure 81
0000
0100
0001
0010
0100
0000
1000
0100
,  // measure 82
0001
0010
0100
1000
0100
0010
0001
0000
,  // measure 83
1001
0000
0000
0000
0100
0000
0010
0000
1000
0000
0000
0001
0010
0000
0001
0000
,  // measure 84
0100
0000
0001
0010
0100
0000
1000
0010
,  // measure 85
0000
0010
1000
0100
0010
0001
0010
0100
,  // measure 86
1010
0000
0101
0000
1001
0001
0000
1100
,  // measure 87
0000
0010
0001
0010
1000
0010
0001
0010
,  // measure 88
0100
0000
1000
0100
0001
0000
0100
0010
,  // measure 89
0000
0010
1000
0100
0010
0000
0001
0100
,  // measure 90
0010
1000
1000
0010
0100
0001
0001
0100
,  // measure 91
0110
1001
0220
0000
,  // measure 92
0000
0330
0000
0000
;

//---------------dance-single - ----------------
#NOTES:
     dance-single:
     :
     Hard:
     7:
     0.500,0.556,0.426,0.213,0.000:
0000
0000
0000
0000
,
0000
0000
0000
0000
,
0000
0000
0000
0000
,
0000
0000
0000
0000
,
0000
0000
0000
0000
,
0000
0000
0000
0000
,
0000
0000
0000
0000
,
0000
0000
0000
0000
,
2002
0000
0000
0000
,
0000
0000
0000
3003
,
2200
0000
0000
3300
,
0022
0000
0000
0033
,
2002
0000
0000
3003
,
2020
0000
0000
3030
,
0202
0000
0000
0303
,
2002
0000
0000
3003
,
0100
0010
1000
0100
0001
0100
1000
0010
,
0200
0000
0320
0000
,
0130
0000
0001
0010
1000
0000
0000
0010
,
0000
0100
0010
1000
0100
0001
0100
0010
,
1000
0000
0011
0000
1000
0100
0000
1000
,
0000
0001
0010
0100
1000
0100
0001
0100
,
0010
0000
1000
0010
0001
0000
0100
0001
,
0000
0001
0100
0010
1000
0000
0100
0000
,
1001
0010
1001
0100
,
1001
0011
1010
0000
,
0010
0000
1000
0010
0001
0000
0100
0010
,
0000
0010
0100
0001
0010
0100
1000
0100
,
0001
0000
1001
0000
0100
1000
0000
0100
,
0000
1000
0100
0001
0100
1000
0100
0010
,
0001
0000
0100
0010
1000
0000
0100
0010
,
0000
0010
0100
0001
0010
0000
0100
0000
,
1000
1000
0010
0000
0100
0001
0001
0000
,
1001
0011
1100
0010
,
0010
0100
0010
0100
0010
0100
0001
0010
,
0000
0010
0001
0010
0100
0000
1000
0100
,
0001
0000
1001
0000
0000
0000
0100
1100
,
0000
1001
0000
0011
0000
1001
0000
0000
,
0100
0010
0100
0010
0100
0010
1000
0100
,
0000
1000
0000
0100
0000
0010
0001
0010
,
0001
1001
1000
1010
,
0001
0101
1010
1001
,
0200
0000
0000
0000
,
0310
0100
0010
0100
,
0001
0100
1000
0100
,
0001
0100
0010
0100
,
0001
0010
1000
0010
,
0001
0100
0010
0100
,
0010
1000
0100
0010
,
0001
0010
0100
1000
,
1001
0000
0000
0000
,
0001
0010
0001
0010
,
0001
0010
0100
1000
,
0100
0010
0001
1000
,
0100
1000
0100
1000
,
0100
0010
0001
0010
,
0100
1000
0010
0100
,
0001
0100
0001
0100
,
0010
1000
0010
1000
,
0020
0000
0000
0000
,
0230
0000
0000
0000
,
0320
0000
0000
0000
,
0230
0000
0000
0000
,
0302
0000
0000
0000
,
2003
0000
0000
0000
,
3002
0000
0000
0000
,
2003
0000
3020
0000
,
0130
0000
0010
1000
0010
0000
0000
1001
,
0000
0100
0001
0100
0001
0010
0100
0000
,
1001
0000
1100
0000
0001
0010
0000
1001
,
0000
0100
1000
0100
0010
0001
0010
0000
,
1001
0000
0010
0001
0010
0000
0000
1001
,
0000
0010
1000
0100
1000
0000
0100
0000
,
0011
1010
1001
0100
,
1010
0101
1001
0000
,
1001
0000
0010
1000
0100
0000
0010
0001
,
0000
0010
0001
0010
1000
0010
0001
0010
,
0100
0000
1001
0000
1000
0010
0000
1001
,
0000
0010
0001
0010
1000
0010
0001
0010
,
0100
0000
1000
0100
0001
0000
0100
0010
,
0000
0010
1000
0100
0010
0000
0001
0000
,
0100
0001
0100
0010
0100
0001
0010
0000
,
1010
0101
1001
0100
,
1000
0000
0010
0100
0001
0000
0100
0010
,
0000
1000
0100
0001
0100
1000
0100
0010
,
0001
0000
0011
0000
1000
1100
0000
1001
,
0000
0010
1000
0100
0001
0100
1000
0100
,
0010
0000
0001
0010
1000
0000
0010
0100
,
0000
0100
0010
1000
0100
0000
0010
0000
,
0001
0001
0100
0000
0010
1000
1000
0000
,
1100
0011
1001
0000
;

//---------------dance-single - ----------------
#NOTES:
     dance-single:
     :
     Medium:
     6:
     0.411,0.519,0.369,0.188,0.000:
0000
0000
0000
0000
,
0000
0000
0000
0000
,
0000
0000
0000
0000
,
0000
0000
0000
0000
,
0000
0000
0000
0000
,
0000
0000
0000
0000
,
0000
0000
0000
0000
,
0000
0000
0000
0000
,
2002
0000
0000
0000
,
0000
0000
0000
3003
,
0022
0000
0000
0033
,
2200
0000
0000
3300
,
2002
0000
0000
3003
,
0022
0000
0000
0033
,
2200
0000
0000
3300
,
2002
0000
0000
3003
,
0100
0100
0100
0100
,
1001
0000
1001
0000
,
0010
0000
1000
0000
0010
0000
0000
0100
,
0000
0010
0100
0000
0001
0000
1100
0000
,
1001
0000
0100
0000
1000
0010
0000
1000
,
0000
0010
0100
0000
0001
0000
0100
0000
,
1000
0000
0010
0000
1000
0000
0010
0100
,
0000
0100
0001
0000
0100
0000
0010
0000
,
1001
0100
1001
0010
,
1001
1100
0101
0000
,
1000
0000
0010
0100
0010
0000
0100
0001
,
0000
0010
0000
0001
0100
0000
0010
0100
,
0010
0000
1001
0000
0100
1000
0000
0010
,
0000
1000
0100
0000
0010
0000
0001
0000
,
1001
0000
0010
0100
0010
0000
1000
0010
,
0000
0100
0010
0100
0010
0000
1000
0010
,
0100
0010
0100
0000
0001
0100
0001
0000
,
1001
1100
0011
0000
,
0100
0010
0100
0100
,
0001
0010
0001
0001
,
0100
1001
0000
0100
,
1100
0101
1001
1001
,
0010
0010
0100
0100
,
0001
0010
0001
0100
,
0010
0010
1000
0100
,
1001
0000
0100
0000
1001
0000
0100
0010
,
0100
0000
0000
0000
,
0001
1000
0001
1000
,
0001
1000
0001
1000
,
0010
0100
0010
0100
,
0010
0100
0010
0100
,
0001
0100
0001
0100
,
0010
1000
0010
1000
,
0010
1000
0100
0010
,
0001
0000
0000
0000
,
0100
0010
0100
0010
,
1000
0100
0010
0001
,
0010
0100
1000
0010
,
0100
0010
0100
0010
,
1000
0100
0010
0001
,
0010
0100
1000
0010
,
0100
0010
0100
0001
,
1000
0001
1000
0001
,
0200
0000
0000
0000
,
0320
0000
0000
0000
,
0230
0000
0000
0000
,
0302
0000
0000
0000
,
2003
0000
0000
0000
,
3002
0000
0000
0000
,
0203
0000
0000
0000
,
0320
0000
0230
0000
,
0310
0000
0000
0000
,
1000
0000
0000
0000
,
1001
0000
0000
0000
,
0001
0000
0000
0000
,
1001
0000
0000
0000
,
1100
0000
0000
0000
,
0011
0000
0110
0000
,
1001
0000
0000
0000
,
0100
0000
1000
0010
0100
0000
0010
0100
,
0000
0001
0010
0001
0010
0000
0001
0000
,
0100
0000
1001
0000
0010
1000
0000
0100
,
0000
1000
0100
0010
0001
0000
0010
0000
,
1001
0000
0100
0001
0100
0000
0010
1000
,
0000
0010
0100
0010
0100
0000
0001
0000
,
1000
0100
1000
0000
0001
0010
0001
0000
,
1001
0000
0100
1000
0010
0000
0100
0000
,
0110
0000
0001
0010
1000
0000
0010
0100
,
0000
0001
0010
0100
1000
0000
0100
0000
,
1001
0000
1100
0000
1100
0000
0000
1001
,
0000
0001
0010
0001
0000
0100
0010
0100
,
0010
0000
1000
0010
0001
0000
0100
0010
,
0000
1000
0100
0010
0001
0000
0100
0000
,
0001
0001
0001
0000
1000
1000
1000
0000
,
0011
1100
1001
0000
;

//---------------dance-single - ----------------
#NOTES:
     dance-single:
     :
     Beginner:
     2:
     0.144,0.222,0.139,0.000,0.000:
0000
0000
0000
0000
,
0000
0000
0000
0000
,
0000
0000
0000
0000
,
0000
0000
0000
0000
,
0000
0000
0000
0000
,
0000
0000
0000
0000
,
0000
0000
0000
0000
,
0000
0000
0000
0000
,
1000
0000
0000
0000
,
0000
0000
0000
0000
,
0001
0000
0000
0000
,
0000
0000
0000
0000
,
1000
0000
0000
0000
,
0001
0000
0000
0000
,
0100
0000
0010
0000
,
0100
0000
0000
0000
,
1000
0000
0000
0000
,
1001
0000
1001
0000
,
0100
0000
0000
0000
,
0010
0000
0000
0000
,
0100
0000
0000
0000
,
0001
0000
0000
0000
,
0010
0000
0000
0000
,
0001
0000
0000
0000
,
1000
0000
0100
0000
,
1001
0000
0000
0000
,
0010
0000
0000
0000
,
0001
0000
0000
0000
,
0010
0000
0000
0000
,
0001
0000
0000
0000
,
1000
0000
0000
0000
,
0100
0000
0000
0000
,
1001
0000
0000
0000
,
0010
0000
0000
0000
,
0100
0000
0000
0000
,
0100
0000
0000
0000
,
0100
0000
0000
0000
,
1001
0000
0000
0000
,
1000
0000
0000
0000
,
1000
0000
0000
0000
,
0001
0000
0000
0000
,
1001
0000
0000
0000
,
0010
0000
0001
0000
,
1001
0000
0000
0000
,
0100
0000
1000
0000
,
1001
0000
0000
0000
,
0100
0000
0001
0000
,
1001
0000
0000
0000
,
1001
0000
0000
0000
,
0010
0000
0000
0000
,
1001
0000
0000
0000
,
0100
0000
0100
0000
,
0100
0000
0100
0000
,
0010
0000
0010
0000
,
0010
0000
0010
0000
,
0001
0000
0001
0000
,
0001
0000
1000
0000
,
1000
0000
1000
0000
,
1001
0000
0000
0000
,
0010
0000
0000
0000
,
0100
0000
0000
0000
,
0010
0000
0000
0000
,
0100
0000
0000
0000
,
0010
0000
0000
0000
,
0100
0000
0000
0000
,
0010
0000
0000
0000
,
1000
0000
0001
0000
,
1001
0000
0000
0000
,
0100
0000
0000
0000
,
1001
0000
0000
0000
,
0010
0000
0000
0000
,
1001
0000
0000
0000
,
0100
0000
0000
0000
,
1001
0000
0010
0000
,
1001
0000
0000
0000
,
1000
0000
0010
0000
,
1000
0000
0010
0000
,
0100
0000
0010
0000
,
0100
0000
0000
0000
,
0001
0000
0100
0000
,
0001
0000
0100
0000
,
0010
0000
0000
0000
,
0100
0000
0000
0000
,
0010
0000
0100
0000
,
0010
0000
1000
0000
,
0001
0000
0000
0000
,
0000
0000
0000
0000
,
1000
0000
0001
0000
,
1000
0000
0001
0000
,
0100
0000
0010
0000
,
0100
0000
0100
0000
;
