#TITLE:shining stars;
#SUBTITLE:(Ryu☆ & MC Natsack MIX);
#ARTIST:KOJA YUKINO;
#TITLETRANSLIT:;
#SUBTITLETRANSLIT:(Ryu* & MC Natsack MIX);
#ARTISTTRANSLIT:;
#CREDIT:DMAxel;
#BANNER:shining stars (Ryu & MC Natsack MIX).png;
#BACKGROUND:shining stars (Ryu & MC Natsack MIX)-bg.png;
#LYRICSPATH:shining stars (Ryu & MC Natsack MIX).lrc;
#CDTITLE:Konami original REMIX.png;
#MUSIC:shining stars (Ryu & MC Natsack MIX).mp3;
#OFFSET:-10.880;
#SAMPLESTART:70.853;
#SAMPLELENGTH:12.000;
#SELECTABLE:YES;
#BPMS:0.000=180.000;
#STOPS:;
#BGCHANGES:0.000=Star1.avi=1.000=1=0=1,
16.000=Cyber1.avi=1.000=0=0=1,
31.000=Disco3.avi=1.000=0=0=1,
40.000=stars_01.avi=1.000=0=0=1,
42.000=stars_02.avi=1.000=0=0=1,
44.000=Star1.avi=1.600=0=0=1,
46.250=white.PNG=1.000=0=0=1,
46.750=shining stars (Ryu & MC Natsack MIX)-bg.png=1.000=1=0=1,
48.500=stars_02.avi=1.000=1=0=1,
65.000=stars_04.avi=1.000=0=0=1,
81.000=particle.avi=1.000=0=0=1,
97.000=Star8.avi=1.000=0=0=1,
111.500=white.PNG=1.000=0=0=1,
112.000=popup2=0.700=1=0=1,
144.000=stars_01.avi=0.700=1=0=1,
172.000=white.PNG=1.000=0=0=1,
172.500=shining stars (Ryu & MC Natsack MIX)-bg.png=1.000=1=0=1,
179.500=white.PNG=1.000=0=0=1,
180.000=Disco3.avi=1.000=1=0=1,
196.000=Star6.avi=1.000=0=0=1,
212.000=particle.avi=1.000=0=0=1,
228.000=stars_02.avi=1.000=0=0=1,
244.000=Cyber1.avi=1.000=1=0=1,
260.000=stars_04.avi=1.000=0=0=1,
276.500=stars_01.avi=1.000=0=0=1,
292.500=Star1.avi=1.000=0=0=1,
308.000=Disco3.avi=1.000=1=0=1,
324.000=Cyber1.avi=1.000=0=0=1,
340.000=stars_01.avi=1.000=0=0=1,
356.000=stars_02.avi=1.000=0=0=1,
371.500=white.PNG=1.000=0=0=1,
372.000=shining stars (Ryu & MC Natsack MIX)-bg.png=1.000=1=0=1,
99999=-nosongbg-=1.000=0=0=0 // don't automatically add -songbackground-
;

//---------------dance-single - ----------------
#NOTES:
     dance-single:
     :
     Easy:
     4:
     0.292,0.374,0.079,0.029,0.000: // measure 1
1000
0001
0010
0100
,  // measure 2
1000
0000
1000
0000
,  // measure 3
1000
0001
0010
0100
,  // measure 4
1000
0000
1001
0000
,  // measure 5
0001
1000
0100
0010
,  // measure 6
0001
0000
0001
0000
,  // measure 7
0001
1000
0100
0010
,  // measure 8
0001
0000
1000
0000
,  // measure 9
0001
0010
0100
1000
,  // measure 10
0001
0000
0001
0000
,  // measure 11
1000
0100
0010
0001
,  // measure 12
1000
0000
1000
0000
,  // measure 13
1001
0000
0001
0000
,  // measure 14
1000
0000
0001
0010
,  // measure 15
0001
0000
1000
0000
,  // measure 16
0001
0000
1000
0100
,  // measure 17
1000
0000
0001
0000
,  // measure 18
1000
0000
0001
0100
,  // measure 19
0001
0000
1000
0000
,  // measure 20
0001
0000
1000
0010
,  // measure 21
1000
0000
0010
0000
,  // measure 22
0100
0010
0100
0010
,  // measure 23
0100
0000
0001
0000
,  // measure 24
1000
0001
1000
0001
,  // measure 25
1000
0000
0001
0000
,  // measure 26
0010
0100
0010
0100
,  // measure 27
0010
0000
0001
0000
,  // measure 28
1000
0001
1000
0001
,  // measure 29
2000
0000
0000
0000
,  // measure 30
0000
0000
0000
0000
,  // measure 31
0001
0000
0000
0000
,  // measure 32
0001
0000
0000
0000
,  // measure 33
3002
0000
0000
0000
,  // measure 34
0000
0000
0000
0000
,  // measure 35
1000
0000
0000
0000
,  // measure 36
1000
0000
0000
0000
,  // measure 37
1003
0000
0001
0000
,  // measure 38
1000
0000
0001
0000
,  // measure 39
0100
0000
0100
0000
,  // measure 40
0100
0000
0100
0000
,  // measure 41
0010
0000
0100
0000
,  // measure 42
0010
0000
0100
0000
,  // measure 43
0010
0000
0010
0000
,  // measure 44
0010
0000
0000
0000
,  // measure 45
0000
0000
0000
0000
,  // measure 46
1001
0000
0001
0000
,  // measure 47
1000
0001
0010
0100
,  // measure 48
1000
0000
1000
0000
,  // measure 49
0001
0010
0100
1000
,  // measure 50
0001
0000
0001
0000
,  // measure 51
1000
0100
0010
0001
,  // measure 52
1000
0000
0001
0000
,  // measure 53
1000
0100
0010
0001
,  // measure 54
1000
0001
1000
0000
,  // measure 55
0001
0100
0001
0000
,  // measure 56
1000
0100
1000
0000
,  // measure 57
0010
0100
0010
0100
,  // measure 58
0010
1000
0010
0000
,  // measure 59
0100
0001
0100
0000
,  // measure 60
0001
1000
0001
1000
,  // measure 61
0001
0000
0001
0000
,  // measure 62
1001
0000
1000
0000
,  // measure 63
0001
0010
0100
1000
,  // measure 64
0001
0000
0001
0000
,  // measure 65
1000
0100
0010
0001
,  // measure 66
1000
0000
1000
0000
,  // measure 67
0001
0010
0100
1000
,  // measure 68
0001
0000
0100
0001
,  // measure 69
1000
1001
0001
1001
,  // measure 70
1000
0010
1000
0010
,  // measure 71
1000
0001
0010
0100
,  // measure 72
1000
0001
1000
0001
,  // measure 73
0010
0100
1000
0001
,  // measure 74
0100
0010
0100
0010
,  // measure 75
0100
0001
0010
0100
,  // measure 76
1001
1000
1001
0001
,  // measure 77
1000
0110
0001
1000
,  // measure 78
0001
0100
0010
1000
,  // measure 79
0001
0010
0001
0010
,  // measure 80
0001
0100
0010
1000
,  // measure 81
0100
0010
0100
0010
,  // measure 82
0100
1000
0100
0010
,  // measure 83
0001
1000
0001
1000
,  // measure 84
0010
0100
0001
0010
,  // measure 85
0100
1001
0001
0110
,  // measure 86
1000
0010
0100
0001
,  // measure 87
1000
0100
1000
0100
,  // measure 88
1000
0010
0100
0001
,  // measure 89
0010
0100
0010
0100
,  // measure 90
0010
0001
0100
0010
,  // measure 91
1000
0001
1000
0001
,  // measure 92
1000
0100
0010
0001
,  // measure 93
2000
0000
0000
0000
,  // measure 94
0002
0000
0000
0000
,  // measure 95
0000
0000
3003
0000
;

//---------------dance-single - ----------------
#NOTES:
     dance-single:
     :
     Hard:
     8:
     0.573,0.578,0.266,0.209,0.043:
1000
0001
0100
0000
0001
0100
0001
0000
,
0100
0001
0100
0000
0001
0100
1000
0000
,
0001
1000
0100
0000
1000
0100
1000
0000
,
0100
1000
0100
0000
1001
0000
1100
0000
,
0002
1000
0100
1003
,
0001
0010
0100
1000
0001
0000
0001
0000
,
2000
0001
0100
3001
,
1000
0100
0010
0001
1000
0000
1100
0000
,
1001
1100
1001
0101
,
1001
0101
1001
0101
,
1000
0100
0010
0000
0001
0010
0100
0000
,
1000
0000
0001
0000
1000
0000
0001
0000
1000
0000
0000
0001
0100
0000
0010
0000
,
0100
0001
0010
0000
0100
1000
0010
0100
,
0020
0000
1000
0000
1000
0000
1030
0001
,
0100
0010
0100
0000
0001
0010
0100
1000
,
0020
1000
2030
0001
,
3001
0010
0100
0000
1000
0010
0100
0001
,
0200
0000
0001
0000
0001
0000
0301
1000
,
0100
0010
0100
0000
1000
0010
0100
0001
,
1000
0000
0000
0000
1100
0000
0000
0000
0001
0000
0000
0100
0001
0000
1000
0000
,
0100
0010
0100
0000
1000
0001
0100
0010
,
0200
0000
0001
0000
0001
0000
0301
1000
,
0010
0100
0010
0000
0100
0001
1000
0000
,
1001
0000
0000
0000
1000
0000
0000
0000
1000
0000
0000
0100
1000
0000
0001
0000
,
0100
0001
1000
0000
0100
0010
0001
1000
,
0020
0000
1000
0000
1000
0000
1030
0001
,
0010
0100
0010
0000
0001
1000
0010
0000
,
0100
0000
0000
0000
0101
0000
0000
0000
1000
0000
0000
0100
1000
0000
0001
0000
,
0200
0000
0000
0000
,
0002
0000
0000
0303
,
0002
0000
0000
0000
,
2000
0000
0000
3003
,
0020
0000
0000
0000
,
2000
0000
0000
3030
,
2000
0000
0000
0000
,
0002
0000
0000
3003
,
0100
0001
0100
0001
,
0100
0001
0100
0001
,
1000
0100
1000
0100
,
1000
0010
0100
0010
,
0100
0001
0010
0001
,
0100
0010
0100
0010
,
1000
0010
1000
0010
,
1000
1000
0002
0000
0000
0000
0000
0000
,
0000
0000
0003
0000
,
0101
0000
0101
0000
1000
0100
1000
0001
,
0010
0100
1000
0000
0010
1000
0001
0000
,
1010
0000
1010
0000
0001
0010
0001
1000
,
0100
0000
0010
0000
0001
0000
0000
0000
0100
0000
0000
0001
1000
0000
0100
0000
,
2000
0001
0100
3001
,
1000
0100
0010
0001
0100
1000
0100
0010
,
2000
0001
0100
3001
,
1000
0000
0100
0000
0010
0000
0001
0000
0100
0000
0000
0010
1000
0000
1000
0000
,
0002
1000
0100
1003
,
0001
0010
0100
1000
0100
0001
0100
0010
,
0002
1000
0100
1003
,
0001
0000
0010
0000
0100
0000
1000
0000
0100
0000
0000
0010
0001
0000
0001
0000
,
0200
0001
0010
0301
,
1000
0100
0001
0100
1000
0100
0010
0001
,
0200
0001
0010
0301
,
1000
0000
0100
0000
0001
0000
0100
0000
1000
0000
0000
0100
0010
0000
0100
0000
,
1000
0010
1000
0001
0010
0010
0000
0001
,
2000
0001
0100
3001
,
0001
0010
0001
1000
0010
0010
0000
1000
,
0002
0000
1000
0000
0100
0000
1003
1000
,
0010
0100
0001
0000
0100
0001
0010
0000
,
0001
0010
0100
1000
0100
0001
0100
1000
,
0001
0000
0100
0001
0100
1000
0100
0010
,
0100
0000
0000
0000
1010
0000
0000
0000
1010
0000
0000
0001
0100
0000
0001
0000
,
1000
0010
1000
0010
1000
0001
0010
0001
,
0020
0000
0100
0000
1000
0000
1030
0001
,
0100
0010
0000
1000
0100
0001
0100
0000
,
1001
0000
0000
0000
1000
0000
0000
0000
1000
0000
0000
0010
1000
0000
0001
0000
,
0001
0100
0001
0100
0001
1000
0100
1000
,
0200
0000
0010
0000
0001
0000
0301
0001
,
1001
1000
0110
0001
,
0001
0000
0000
0000
1100
0000
0000
0000
1001
0000
0000
0100
1000
0000
0001
0000
,
0100
0010
0100
0000
0100
0001
1000
0000
,
0001
0010
0100
1000
0001
0000
1000
1000
,
0010
0100
0010
0000
0010
1000
0001
0000
,
1000
0100
0010
0001
1000
0000
0001
0001
,
0100
0010
0100
0000
0100
0001
1000
0000
,
0100
0010
0100
1000
0001
0000
1000
1000
,
0010
0100
0010
0000
0010
1000
0001
0000
,
0010
0000
0100
0000
0010
0000
0001
0000
1000
0000
0000
0010
1000
0000
0001
0000
,
0001
0010
0100
1000
0001
0000
0101
0000
,
1100
0000
1001
0000
1100
0000
0010
0001
,
1000
0100
0010
0001
1000
0000
1010
0000
,
0011
0000
1001
0000
0011
0000
0100
1000
,
0001
0010
0100
0000
0010
0001
0100
0000
,
1010
0000
1010
0000
0011
0000
0010
0001
,
1000
0100
0010
0000
0100
1000
0010
0000
,
0100
0100
0100
0000
,
2002
0000
0000
0000
,
0000
0000
3003
0000
;

//---------------dance-single - ----------------
#NOTES:
     dance-single:
     :
     Challenge:
     9:
     0.681,0.612,0.230,0.151,0.061:
0001
0010
0001
0010
0100
1000
0100
1000
,
0001
0010
0100
1000
0001
0000
0101
0000
,
1000
0100
1000
0100
0010
0001
0010
0001
,
1000
0100
0010
0001
1000
0000
1010
0000
,
0100
0001
0100
0001
1000
0100
1000
0100
,
0001
0100
1000
0100
0010
0001
1000
0000
,
0010
1000
0010
1000
0001
0010
0001
0010
,
1000
0000
0010
0000
0001
0000
0010
0000
0100
0000
0000
1000
0001
0000
0100
0000
,
0001
0001
1000
0100
0010
0001
1000
0000
,
0001
0001
1000
0100
0010
0001
1000
0000
,
1100
0000
0001
0100
1000
0000
0101
0000
,
1000
0000
0100
0000
0001
0000
0100
0000
1000
0000
0000
0100
0010
0000
0100
0000
,
1000
0001
1000
0001
0100
0010
0100
0010
,
1000
0100
0001
0100
1000
0001
0010
0100
,
1000
0001
1000
0001
0100
0010
0100
0010
,
1000
0000
0100
0000
0001
0000
0100
0000
1000
0000
0000
0001
0100
0000
0100
0000
,
0010
1000
0010
1000
0001
0010
0001
0010
,
0001
1000
0100
0001
0100
1000
0010
0100
,
0010
1000
0010
1000
0001
0010
0001
0010
,
0001
0000
1000
0000
1010
0000
0000
0000
0101
0000
0000
0010
1000
0000
0001
0000
,
0010
0001
0010
0001
1000
0010
1000
0001
,
0100
1000
0100
0001
0100
0010
1000
1000
,
0010
1000
0010
1000
0001
0010
0001
1000
,
1010
0000
0000
0000
0001
0000
0000
0000
1010
0000
0000
0100
0001
0000
1000
0000
,
0001
0100
0001
0100
1000
0100
0010
1000
,
0100
0010
0001
0100
0010
0100
0001
0001
,
1000
0100
1000
0100
0001
0100
0010
0001
,
0010
0000
0100
0000
2000
0000
0000
0000
3001
0000
0000
0100
0001
0000
1000
0000
,
0200
0000
1000
0000
,
2300
0000
0001
0000
,
3002
0000
0010
0000
,
0203
0000
0010
0000
,
0320
0000
1000
0000
,
2030
0000
0001
0000
,
3002
0000
0100
0000
,
2000
0000
0000
3003
,
0100
1000
0200
0000
0010
0000
0010
0000
,
0310
0001
1000
0001
,
0010
0001
0020
0000
0100
0000
0100
0000
,
0130
1000
0001
1000
,
0010
1000
0020
0000
0100
0000
0100
0000
,
0130
0001
1000
0001
,
0100
0001
0200
0000
0010
0000
0010
0000
,
0310
1000
0002
0000
0200
0000
0000
0000
,
0000
0000
0303
0000
,
0010
0100
0010
1000
0100
0001
0100
1000
,
0010
1010
0101
1001
,
0100
0010
0100
0001
0100
1000
0100
0001
,
0010
0000
0000
0000
0011
0000
0000
0000
1100
0000
0000
0010
0001
0000
1000
0000
,
0010
0100
0010
1000
0100
0001
0100
1000
,
0100
0000
1100
0000
0101
0000
0001
0001
,
0100
0010
0100
0001
0100
1000
0100
0001
,
0100
0000
0000
0000
0101
0000
0000
0000
1100
0000
0000
0010
0001
0000
1000
0000
,
0010
0100
0001
1000
0100
0010
0001
0100
,
1000
0100
0001
0010
0100
0010
0001
0001
,
0100
0010
1000
0001
0010
0100
1000
0001
,
1001
0000
0000
0000
1000
0000
0100
0000
0010
0000
0000
0100
1000
0000
1000
0000
,
0100
0010
0100
0010
0001
1000
0001
1000
,
0100
0001
0100
1000
0001
0010
0001
0001
,
0010
0100
0010
0100
1000
0001
1000
0001
,
0100
0000
1000
0000
0200
0000
0000
0000
0301
0000
0000
0100
0010
0000
1000
0000
,
0001
0100
1000
0100
0001
0200
0000
0010
,
0310
1000
0001
0000
0101
0000
1001
0000
,
1100
0000
1100
0000
0010
0001
0100
1000
,
0100
0000
0010
0000
0000
0000
0001
0000
1000
0000
0000
0010
0100
0000
0001
0000
,
1000
0100
0001
0100
1000
0200
0000
0010
,
0310
0001
1000
0000
1010
0000
1001
0000
,
0011
0000
0011
0000
0100
1000
0100
0001
,
0100
0000
0010
0000
1010
0000
0000
0000
1001
0000
0000
0100
0001
0000
1000
0000
,
0010
0100
0001
0010
0100
0010
0001
1000
,
0100
0001
0100
1000
0100
0010
0001
0001
,
1000
0010
0100
0001
1000
0100
0010
0100
,
1001
0000
0000
0000
0100
0000
1000
0000
0001
0000
0000
0100
0001
0000
1000
0000
,
1000
0100
0010
0100
1000
0001
0010
1000
,
0001
0100
1000
0100
0010
0001
1000
1000
,
1100
0000
0001
0000
0101
0000
1000
0010
,
0100
0000
0000
0000
1002
0000
0000
0000
0103
0000
0000
0010
1000
0000
1000
0000
,
0001
0010
0100
1000
0001
0010
1000
0001
,
0100
1000
0100
0010
0001
1000
0001
0001
,
1000
0010
0100
0001
1000
0010
0001
1000
,
0100
0000
0001
0000
0100
0000
0010
0000
1000
0000
0000
0001
0100
0000
0100
0000
,
0001
0010
0100
1000
0100
0001
0100
1000
,
0001
0010
0100
0010
0001
1000
0001
0001
,
1000
0010
0100
0001
0100
1000
0100
0001
,
1000
0000
0100
0000
0010
0000
0100
0000
1000
0000
0000
0010
0100
0000
0001
0000
,
0001
0100
0010
1000
0010
0001
0010
1000
,
0010
0100
0001
0010
0100
0010
0001
0001
,
1000
0100
0010
0001
0010
1000
0010
0001
,
0010
0000
0100
0000
1000
0000
0100
0000
0010
0000
0000
0100
1000
0000
1000
0000
,
0001
0100
0010
1000
0100
0010
0100
1000
,
0100
0001
1000
0010
0001
0010
0100
1000
,
0001
0100
0010
1000
0100
0010
0100
1000
,
0001
0000
0001
1000
0200
0000
0000
0000
,
0020
0000
0000
0000
,
0000
0000
0330
0000
;

//---------------dance-single - ----------------
#NOTES:
     dance-single:
     :
     Medium:
     6:
     0.480,0.476,0.273,0.065,0.000:
0001
1001
1000
1001
,
0100
0010
0100
0000
0001
0100
0001
0000
,
1000
1001
0001
1001
,
0010
0100
0010
0000
1000
0010
1000
0000
,
0001
0010
0001
0000
0010
0001
0010
0000
,
1000
0100
0001
0100
,
1000
0100
1000
0000
0100
1000
0100
0000
,
1000
0010
0001
0010
,
1001
0000
1000
0000
0010
1000
0001
0000
,
1001
0000
0001
0000
0100
0001
1000
0000
,
1100
0001
1100
0001
,
0011
0100
1000
1001
,
0010
1000
0010
0000
0100
0001
0100
0000
,
0010
0100
0010
0000
1000
0000
0001
0000
,
0010
0001
0010
0000
0100
1000
0100
0000
,
0010
0100
0010
0000
0001
0000
1000
0000
,
0010
0000
1000
0000
0001
0100
0001
0000
,
1000
0100
1000
0000
0001
0000
1000
0000
,
0010
0000
0100
0000
0001
0010
0001
0000
,
1000
0010
1000
0000
0001
0000
0101
0000
,
1000
0000
0010
0000
0100
0010
0100
0000
,
0001
0100
0001
0100
0001
0000
1000
0000
,
0001
0000
0100
0000
0010
0100
0010
0000
,
1001
1000
1000
1010
,
0001
0000
0010
0000
0001
0000
0100
0010
,
0100
0001
0100
1000
,
0001
0000
0010
0000
0001
0000
0100
0010
,
0100
0000
0001
0000
1000
0000
0010
0100
,
0020
0000
0000
0000
,
0000
0000
0000
0030
,
0200
0000
0010
0000
,
0010
0000
0000
0310
,
2000
0000
0000
0000
,
0000
0000
0000
3000
,
0002
0000
1000
0000
,
1000
0000
1000
0000
,
1003
0000
0001
0000
,
1000
0000
0100
0000
,
0010
0000
0001
0000
,
1000
0000
0010
0000
,
0100
0000
0001
0000
,
1000
0000
0100
0000
,
0001
0000
0100
0000
,
1000
0001
2000
0000
0000
0000
0000
0000
,
0000
0000
3000
0000
,
0001
1000
0001
0000
1000
0001
1000
0000
,
0010
1010
0001
0001
,
1000
0001
1000
0000
0001
1000
0001
0000
,
0100
0101
1000
1000
,
0001
0010
0001
0000
1000
0010
0100
0000
,
0001
0101
1000
1100
,
1000
0100
1000
0000
0001
0100
0010
0000
,
1000
1100
0001
0101
,
1200
1000
1000
1300
,
0010
0001
0100
0000
0010
0100
0010
0000
,
1001
0100
0001
0100
,
1000
0000
1001
0000
0001
1000
0001
0000
,
0021
0001
0001
0031
,
0100
1000
0010
0000
0100
0010
0100
0000
,
1001
0100
1000
0100
,
0001
0000
1001
0000
0100
0000
0100
1000
,
0001
0000
0100
0001
0100
0001
0000
1000
,
0100
0001
0100
1000
,
1001
0000
0100
1000
0100
1000
0000
0001
,
0100
1000
0100
0001
,
1001
0000
0010
0001
0010
0001
0000
1000
,
0010
0001
0010
1000
,
1001
0000
0010
1000
0010
1000
0000
0001
,
0010
1000
0010
0001
,
1001
0000
1000
0100
0010
0001
0000
0010
,
0100
0000
1000
0000
0100
0000
0001
0010
,
0100
1000
0000
0010
0100
0000
0001
0000
,
0110
0000
1000
0000
0001
1000
0001
0010
,
0100
1000
0000
0100
0010
0000
0001
0000
,
0110
0000
1000
0000
0001
0000
1000
0001
,
1000
0001
0110
1000
,
0001
0000
0100
0000
0110
0000
0001
0001
,
1000
0010
1000
0000
0010
1000
0001
0000
,
0010
0001
0010
0001
0010
0000
0100
0000
,
1000
0010
1000
0000
0010
1000
0001
0000
,
0010
0001
0010
0001
0010
0000
0001
1000
,
0001
0100
0001
0000
0100
0001
1000
0000
,
0100
1000
0100
1000
0100
0000
1000
1000
,
0001
0100
0001
0000
0100
0001
1000
0000
,
0100
1000
0100
1000
0100
0000
1000
0001
,
1000
0100
0010
0000
0001
0000
0101
0000
,
1000
0100
0010
0001
1000
0000
0001
1000
,
0001
0010
0100
0000
1000
0000
1010
0000
,
0001
0010
0100
1000
0001
0000
1000
0001
,
1000
0100
0010
0000
0001
0000
0011
0000
,
0100
1000
0001
0010
0100
0000
1010
0000
,
0001
0010
0100
0000
1000
0000
1100
0000
,
0010
0001
2000
0000
,
0002
0000
0000
0000
,
0000
0000
3003
0000
;

//---------------dance-single - ----------------
#NOTES:
     dance-single:
     :
     Beginner:
     2:
     0.121,0.167,0.036,0.000,0.000:
1000
0000
0000
0000
,
1000
0000
0000
0000
,
1000
0000
0000
0000
,
1000
0000
0000
0000
,
0001
0000
0000
0000
,
0001
0000
0000
0000
,
0001
0000
0000
0000
,
0001
0000
0000
0000
,
0100
0000
0000
0000
,
0010
0000
0000
0000
,
0100
0000
0000
0000
,
0110
0000
0000
0000
,
1001
0000
0001
0000
,
1000
0000
0000
0000
,
0001
0000
1000
0000
,
0001
0000
0000
0000
,
1000
0000
0001
0000
,
1000
0000
0000
0000
,
0001
0000
1000
0000
,
0001
0000
0000
0000
,
1001
0000
1000
0000
,
0001
0000
0000
0000
,
1000
0000
0001
0000
,
1000
0000
0000
0000
,
0010
0000
0100
0000
,
0010
0000
0000
0000
,
0100
0000
0010
0000
,
0100
0000
0000
0000
,
0001
0000
0000
0000
,
0000
0000
0000
0000
,
0000
0000
0000
0000
,
0000
0000
0000
0000
,
0001
0000
0000
0000
,
0000
0000
0000
0000
,
0000
0000
0000
0000
,
0000
0000
0000
0000
,
1000
0000
0000
0000
,
0000
0000
0000
0000
,
1000
0000
0000
0000
,
0000
0000
0000
0000
,
1000
0000
0000
0000
,
0000
0000
0000
0000
,
1000
0000
0000
0000
,
0000
0000
0000
0000
,
0000
0000
0000
0000
,
1001
0000
0000
0000
,
0001
0000
0000
0000
,
1000
0000
0000
0000
,
0001
0000
0000
0000
,
0100
0000
0000
0000
,
0010
0000
0000
0000
,
0100
0000
0000
0000
,
0010
0000
0000
0000
,
1000
0000
0000
0000
,
0001
0000
0000
0000
,
1000
0000
0000
0000
,
0001
0000
0000
0000
,
0010
0000
0000
0000
,
0100
0000
0000
0000
,
0010
0000
0000
0000
,
0100
0000
0000
0000
,
1000
0000
1000
0000
,
1000
0000
0000
0000
,
0001
0000
0001
0000
,
0001
0000
0000
0000
,
1000
0000
1000
0000
,
1000
0000
0000
0000
,
0001
0000
0001
0000
,
0001
0000
0000
0000
,
0100
0000
0100
0000
,
0100
0000
0000
0000
,
0010
0000
0010
0000
,
0010
0000
0000
0000
,
1000
0000
1000
0000
,
1000
0000
0000
0000
,
0001
0000
1000
0000
,
0001
0000
0000
0000
,
1001
0000
0001
0000
,
1000
0000
0001
0000
,
0100
0000
0010
0000
,
0100
0000
0010
0000
,
1000
0000
0001
0000
,
1000
0000
0001
0000
,
1000
0000
0100
0000
,
1000
0000
0000
0000
,
0001
0000
0010
0000
,
0001
0000
0010
0000
,
0001
0000
1000
0000
,
0001
0000
1000
0000
,
0001
0000
0100
0000
,
0010
0000
1000
0000
,
0100
0000
0010
0000
,
0001
0000
0000
0000
,
0001
0000
0000
0000
;
