#TITLE:one or eight;
#SUBTITLE:;
#ARTIST:sampling masters AYA;
#TITLETRANSLIT:;
#SUBTITLETRANSLIT:;
#ARTISTTRANSLIT:;
#CREDIT:DMAxel;
#BANNER:one or eight.png;
#BACKGROUND:one or eight-bg.png;
#LYRICSPATH:;
#CDTITLE:beatmaniaIIDX.png;
#MUSIC:one or eight.mp3;
#OFFSET:-0.080;
#SAMPLESTART:43.397;
#SAMPLELENGTH:12.000;
#SELECTABLE:YES;
#BPMS:0.000=155.050;
#STOPS:;
#BGCHANGES:;

//---------------dance-single - ----------------
#NOTES:
     dance-single:
     :
     Easy:
     3:
     0.241,0.312,0.031,0.167,0.000: // measure 1
0000
0000
0000
0000
,  // measure 2
0000
0000
0000
0000
,  // measure 3
0000
0000
0000
0000
,  // measure 4
0000
0000
0000
0000
,  // measure 5
0020
0000
0000
0000
,  // measure 6
2030
0000
0000
3000
,  // measure 7
0020
0000
0000
0000
,  // measure 8
0230
0000
0000
0300
,  // measure 9
0020
0000
0000
0000
,  // measure 10
0230
0000
0000
0300
,  // measure 11
0002
0000
0000
0000
,  // measure 12
0203
0000
0000
0300
,  // measure 13
0010
0000
0010
0010
,  // measure 14
0100
0000
0000
0000
,  // measure 15
0001
0000
0001
0001
,  // measure 16
1000
0000
0000
0000
,  // measure 17
0100
0000
1000
1000
,  // measure 18
0010
0000
0000
0000
,  // measure 19
0100
0000
0001
0001
,  // measure 20
0010
0000
0000
0000
,  // measure 21
0001
0000
0001
0000
,  // measure 22
0001
0000
1000
0000
,  // measure 23
1000
0100
1000
0100
,  // measure 24
0010
0001
0010
0001
,  // measure 25
1000
1000
1000
0000
,  // measure 26
0010
0000
0100
0000
,  // measure 27
0001
0001
0001
0000
,  // measure 28
0100
0000
0010
0000
,  // measure 29
1000
0001
1000
1000
,  // measure 30
0010
0100
0010
0000
,  // measure 31
1000
0001
0100
0100
,  // measure 32
0010
0100
0001
0000
,  // measure 33
0010
0001
0100
0100
,  // measure 34
0010
1000
0100
0000
,  // measure 35
1000
0001
0010
0010
,  // measure 36
0002
0000
0000
0000
,  // measure 37
2003
0000
0000
0000
,  // measure 38
3200
0000
0000
0000
,  // measure 39
2300
0000
0000
0000
,  // measure 40
3020
0000
0000
0000
,  // measure 41
0230
0000
0000
0000
,  // measure 42
0302
0000
0000
0000
,  // measure 43
0023
0000
0000
0000
,  // measure 44
0130
0000
0000
0000
,  // measure 45
1001
1000
0010
1000
,  // measure 46
0100
1000
0010
0100
,  // measure 47
0010
0100
0001
0010
,  // measure 48
0001
0001
1000
1000
,  // measure 49
0010
0100
0010
1000
,  // measure 50
0100
0010
0001
0100
,  // measure 51
0010
0010
1000
1000
,  // measure 52
0010
0010
0100
0100
,  // measure 53
0001
0010
0001
0010
,  // measure 54
0100
1000
0010
1000
,  // measure 55
0100
0100
1000
1000
,  // measure 56
0010
0100
0001
0010
,  // measure 57
0001
0001
1000
1000
,  // measure 58
0001
0010
0100
1000
,  // measure 59
0010
0010
0100
0100
,  // measure 60
0110
0000
0000
0000
0000
1001
0000
0000
;

//---------------dance-single - ----------------
#NOTES:
     dance-single:
     :
     Challenge:
     9:
     0.613,0.655,0.126,0.031,0.288: // measure 1
0000
0000
0000
0000
,  // measure 2
0000
0000
0000
0000
,  // measure 3
0000
0000
0000
0000
,  // measure 4
0000
0000
0000
0000
,  // measure 5
0100
0001
0010
0000
0001
0010
0000
0010
,  // measure 6
1000
0000
0100
0000
1000
0000
0000
0000
0010
0000
0010
0000
0100
0000
0001
0100
,  // measure 7
0001
0100
0010
0000
1000
0010
0000
0010
,  // measure 8
0001
0100
0001
0000
0100
0100
0010
1000
,  // measure 9
0010
1000
0100
0000
0001
0100
0000
0100
,  // measure 10
1000
0000
0010
0000
1000
0000
0000
0000
0010
0000
0010
0000
0100
0000
0001
0100
,  // measure 11
0001
0010
0100
0000
1000
0010
0000
0010
,  // measure 12
0001
0000
0000
0001
0000
0000
0001
0000
1000
0000
0000
0000
1000
0000
0000
0000
,  // measure 13
0110
0100
0001
0010
0001
0010
0001
0010
,  // measure 14
0100
1000
0100
0001
0000
0010
0100
1000
,  // measure 15
0010
0010
1000
0100
1000
0100
1000
0100
,  // measure 16
0010
0000
0001
0000
0010
0000
0000
1000
0000
0000
0100
0000
0010
0000
0001
0000
,  // measure 17
0100
0100
0001
0010
0001
0010
0001
0010
,  // measure 18
0100
1000
0100
0001
0000
0010
0100
1000
,  // measure 19
0010
0010
1000
0100
1000
0100
1000
0100
,  // measure 20
0010
0010
0010
0000
0001
1000
0001
0000
,  // measure 21
0010
0000
0001
0000
0010
0000
0001
0000
0010
0000
0000
0100
0000
0000
1000
0000
,  // measure 22
0100
1000
0010
1000
0010
1000
0100
0000
,  // measure 23
0100
0000
1000
0000
0100
0000
1000
0000
0100
0000
0000
0010
0000
0000
0001
0000
,  // measure 24
0010
0001
0100
0001
0100
0001
0010
0000
,  // measure 25
0001
0000
0100
0000
0001
0000
0100
0000
0001
0000
0000
0001
0000
0000
0001
0000
,  // measure 26
0010
0001
0100
0001
0010
0100
1000
0010
,  // measure 27
1000
0000
0100
0000
1000
0000
0100
0000
1000
0000
0000
0100
0000
0000
0010
0000
,  // measure 28
0001
0000
0100
0000
0001
0000
0000
0100
0001
0000
0010
0000
0100
0000
0000
0000
,  // measure 29
0110
0000
0010
0000
1000
0000
0100
0000
1000
0000
0000
0010
0000
0000
0001
0000
,  // measure 30
0010
0000
0100
0000
1000
0000
0001
0000
0100
0001
0000
0000
0100
0000
0010
0000
,  // measure 31
0110
0000
0100
0000
0001
0000
0010
0000
0001
0000
0000
0100
0000
0000
1000
0000
,  // measure 32
0100
0000
0010
0000
0001
0000
1000
0000
0010
0100
0000
0000
0001
0000
0100
0000
,  // measure 33
0110
0000
0010
0000
1000
0000
0100
0000
0100
1000
0000
0100
0000
0000
1000
0000
,  // measure 34
0100
0000
0010
0000
0001
0000
1000
0000
0100
0010
0000
0100
0000
0000
1000
0000
,  // measure 35
0110
0000
0100
0000
0001
0000
0010
0000
0010
0001
0000
0010
0000
0000
0001
0000
,  // measure 36
0020
1000
0000
0030
,  // measure 37
1100
0001
0010
1000
,  // measure 38
0010
0000
0000
0100
0000
0000
0010
0000
0000
0100
0000
0000
0001
0000
0000
0000
,  // measure 39
0011
1000
0100
0001
,  // measure 40
0100
0000
0000
0010
0000
0000
0100
0000
0000
0010
0000
0000
1000
0000
0000
0000
,  // measure 41
1010
0001
0010
1000
,  // measure 42
0010
0000
0000
0100
0000
0000
0010
0000
0000
0100
0000
0000
0001
0000
0000
0000
,  // measure 43
0101
1000
0100
0001
,  // measure 44
0220
0000
0000
0330
,  // measure 45
1000
0000
1000
0000
0010
0000
0100
0000
0000
0001
0000
0000
0010
0100
0010
0000
,  // measure 46
0001
0000
0001
0000
0100
0000
0010
0000
0000
1000
0010
0000
0010
0000
0000
0000
,  // measure 47
1000
0000
1000
0000
0100
0000
0010
0000
0001
0000
0001
0000
0010
0001
0010
0000
,  // measure 48
0001
0000
0010
0100
0000
0010
0100
0000
1000
0000
0010
0000
0100
0010
0100
0000
,  // measure 49
1001
0000
0001
0000
0100
0000
0010
1000
0000
0010
1000
0000
0010
0100
0010
0000
,  // measure 50
1000
0000
0010
0000
1000
0000
1000
0000
0000
0010
0100
0000
0100
0000
0000
0000
,  // measure 51
0001
0000
0001
0000
0010
0000
0100
0000
1000
0000
1000
0000
0100
1000
0100
0000
,  // measure 52
1000
0000
0100
0010
0000
0100
0010
0000
0001
0000
0100
0000
0010
0100
0010
0000
,  // measure 53
1000
0000
0100
0000
0010
0000
0001
0100
0000
0001
0100
0000
0001
0000
0001
0000
,  // measure 54
0010
0100
1000
0010
0100
0010
1000
0000
,  // measure 55
0001
0000
0010
0000
0100
0000
1000
0010
0000
1000
0010
0000
1000
0000
1000
0000
,  // measure 56
0100
0000
0010
0000
0001
0000
0100
0000
0010
0000
0100
0000
0001
0100
0001
0000
,  // measure 57
1000
0000
0100
0000
0010
0000
0001
0010
0000
0001
0010
0000
0100
1000
0100
0000
,  // measure 58
1000
0100
0001
0010
0100
0100
1000
0000
,  // measure 59
0001
0000
0010
0000
0100
0000
1000
0100
0000
1000
0100
0000
0010
0001
0010
0000
,  // measure 60
0101
0000
0010
0100
0010
0100
0000
0010
0000
1000
0010
0000
0000
0000
0000
0000
;

//---------------dance-single - ----------------
#NOTES:
     dance-single:
     :
     Hard:
     8:
     0.553,0.499,0.220,0.063,0.094: // measure 1
0000
0000
0000
0000
,  // measure 2
0000
0000
0000
0000
,  // measure 3
0000
0000
0000
0000
,  // measure 4
0000
0000
0000
0000
,  // measure 5
0001
0010
0001
0000
0100
0001
0000
0010
,  // measure 6
0100
0000
1000
0100
1000
0000
0010
0100
,  // measure 7
0010
0000
1000
0010
0100
0000
0100
0000
,  // measure 8
0101
0101
1010
1010
,  // measure 9
0100
0001
0100
0000
0001
0100
0010
0000
,  // measure 10
1100
1100
0011
0011
,  // measure 11
0100
1000
0100
0000
1000
0010
0100
0000
,  // measure 12
2002
0000
0000
3003
,  // measure 13
0010
0001
0010
0100
0000
0100
0000
0100
,  // measure 14
1000
0010
1000
0010
0100
0000
0011
0000
,  // measure 15
0100
1000
0100
0010
0000
0010
0000
0010
,  // measure 16
0001
0100
0001
0100
0010
0000
1100
0000
,  // measure 17
0010
1000
0010
0100
0000
0100
0000
0100
,  // measure 18
0001
0100
0001
0100
0010
0000
1010
0000
,  // measure 19
0100
0001
0100
0010
0000
0010
0000
0010
,  // measure 20
1000
1000
1000
0000
0001
0001
0001
0000
,  // measure 21
0010
0000
0001
0000
0010
0000
0001
0000
0010
0000
0000
0010
0000
0000
0010
0000
,  // measure 22
0100
1000
0100
1000
0100
0010
0001
0000
,  // measure 23
1000
0100
0000
0000
0100
0010
0000
0000
0010
0100
0000
0000
0100
0001
0000
0000
,  // measure 24
0001
0100
0000
0000
0100
0010
0000
0000
0010
0000
1000
0000
0100
0000
0000
0000
,  // measure 25
1000
0000
0100
0000
1000
0000
0100
0000
1000
0000
0000
1000
0000
0000
1000
0000
,  // measure 26
0010
0100
0100
0001
0010
0100
1000
0000
,  // measure 27
0001
0010
0000
0000
0010
0100
0000
0000
0100
0010
0000
0000
0010
1000
0000
0000
,  // measure 28
1000
0000
0010
0000
1000
0000
0000
0010
0100
0000
0001
0000
0010
0000
0000
0000
,  // measure 29
0001
0100
0001
0100
0010
0010
1000
0100
,  // measure 30
0010
0001
1000
0100
0010
0001
0100
0000
,  // measure 31
0010
1000
0010
1000
0100
0100
1000
0100
,  // measure 32
0010
0001
1000
0100
0010
0001
0100
0000
,  // measure 33
0001
0010
0001
0010
0100
0100
1000
0100
,  // measure 34
0010
0001
1000
0100
0010
0001
0010
0000
,  // measure 35
1000
0100
1000
0100
0010
0010
0001
0010
,  // measure 36
2200
0000
0000
3300
,  // measure 37
1001
0100
0001
0100
,  // measure 38
1001
0010
0001
0010
,  // measure 39
1001
0100
0001
0100
,  // measure 40
1001
0010
1000
0010
,  // measure 41
1001
0100
0001
0100
,  // measure 42
1001
0010
1000
0010
,  // measure 43
1001
0100
0001
0100
,  // measure 44
2002
0000
0000
3003
,  // measure 45
0100
0000
1000
0000
0100
0000
0010
0000
0000
0010
0000
0000
0001
0000
0001
0000
,  // measure 46
0100
0001
0010
0100
1000
1000
0001
0000
,  // measure 47
0010
0000
0001
0000
0010
0000
0100
0000
0000
0100
0000
0000
1000
0000
1000
0000
,  // measure 48
0010
1000
0100
0010
0001
0001
1000
0000
,  // measure 49
0010
0000
1000
0000
0010
0000
0100
0000
0000
0100
0000
0000
0001
0000
0001
0000
,  // measure 50
0010
0001
0010
0100
1000
0001
0001
0000
,  // measure 51
0100
0001
0100
0010
0010
0010
1000
1000
,  // measure 52
0100
1000
0100
0010
0001
1000
1000
0000
,  // measure 53
0001
0100
0010
0100
0010
0100
0010
0100
,  // measure 54
0001
0010
0100
1000
0001
0100
0001
0000
,  // measure 55
1000
0010
0100
0010
0100
0010
0100
0010
,  // measure 56
1000
0100
0010
0001
1000
0010
1000
0000
,  // measure 57
0001
0010
0100
0010
0100
0010
0100
0010
,  // measure 58
0001
0010
0100
1000
0001
0100
0001
0000
,  // measure 59
1000
0100
0010
0100
0010
0100
0010
0100
,  // measure 60
1000
0000
0000
0010
1000
0000
0100
0000
0000
0001
1000
0000
0000
0000
0000
0000
;

//---------------dance-single - ----------------
#NOTES:
     dance-single:
     :
     Beginner:
     1:
     0.070,0.123,0.073,0.000,0.000: // measure 1
0000
0000
0000
0000
,  // measure 2
0000
0000
0000
0000
,  // measure 3
0000
0000
0000
0000
,  // measure 4
0000
0000
0000
0000
,  // measure 5
1000
0000
0000
0000
,  // measure 6
0001
0000
0000
0000
,  // measure 7
1000
0000
0000
0000
,  // measure 8
0001
0000
0000
0000
,  // measure 9
0100
0000
0000
0000
,  // measure 10
0010
0000
0000
0000
,  // measure 11
0100
0000
0000
0000
,  // measure 12
0010
0000
0000
0000
,  // measure 13
1000
0000
0000
0000
,  // measure 14
0000
0000
0000
0000
,  // measure 15
0010
0000
0000
0000
,  // measure 16
0000
0000
0000
0000
,  // measure 17
1000
0000
0000
0000
,  // measure 18
0000
0000
0000
0000
,  // measure 19
0001
0000
0000
0000
,  // measure 20
0100
0000
0000
0000
,  // measure 21
0001
0000
0000
0000
,  // measure 22
0000
0000
0000
0000
,  // measure 23
0001
0000
0000
0000
,  // measure 24
0000
0000
0000
0000
,  // measure 25
0010
0000
0000
0000
,  // measure 26
0000
0000
0000
0000
,  // measure 27
0100
0000
0000
0000
,  // measure 28
0000
0000
0000
0000
,  // measure 29
1001
0000
0000
0000
,  // measure 30
0000
0000
0000
0000
,  // measure 31
0100
0000
0000
0000
,  // measure 32
0000
0000
0000
0000
,  // measure 33
1000
0000
0000
0000
,  // measure 34
0000
0000
0000
0000
,  // measure 35
0001
0000
0000
0000
,  // measure 36
0010
0000
0000
0000
,  // measure 37
1001
0000
0000
0000
,  // measure 38
0000
0000
0000
0000
,  // measure 39
1001
0000
0000
0000
,  // measure 40
0000
0000
0000
0000
,  // measure 41
1001
0000
0000
0000
,  // measure 42
0000
0000
0000
0000
,  // measure 43
1001
0000
0000
0000
,  // measure 44
1000
0000
0000
0000
,  // measure 45
0010
0000
0000
0000
,  // measure 46
0010
0000
0000
0000
,  // measure 47
0100
0000
0000
0000
,  // measure 48
0100
0000
0000
0000
,  // measure 49
0001
0000
0000
0000
,  // measure 50
0001
0000
0000
0000
,  // measure 51
1000
0000
0000
0000
,  // measure 52
1000
0000
0000
0000
,  // measure 53
1001
0000
0000
0000
,  // measure 54
0000
0000
0000
0000
,  // measure 55
0010
0000
0000
0000
,  // measure 56
0000
0000
0000
0000
,  // measure 57
0100
0000
0000
0000
,  // measure 58
0000
0000
0000
0000
,  // measure 59
1000
0000
0000
0000
,  // measure 60
1001
0000
0000
0000
;

//---------------dance-double - ----------------
#NOTES:
     dance-double:
     :
     Easy:
     4:
     0.327,0.374,0.283,0.167,0.000:
00000000
00000000
00000000
00000000
,
00000000
00000000
00000000
00000000
,
00000000
00000000
00000000
00000000
,
00000000
00000000
00000000
00000000
,
10010000
10000000
10000000
10000000
,
00022000
00000000
00000000
00033000
,
00001001
00000001
00000001
00000001
,
00022000
00000000
00000000
00033000
,
10010000
10000000
10000000
10000000
,
00022000
00000000
00000000
00033000
,
00001001
00000001
00000001
00000001
,
00022000
00000000
00000000
00033000
,
00100000
00000000
01000000
01000000
,
10000000
00000000
00000000
00000000
,
00010000
00000000
00010000
00010000
,
10000000
00000000
00000000
00000000
,
01000000
00000000
10000000
10000000
,
00010000
00000000
00000000
00000000
,
00100000
00000000
00001000
00001000
,
00022000
00000000
00000000
00033000
,
00000001
00000000
00000001
00000000
,
00000001
00000000
00001000
00000000
,
00001000
00000100
00001000
00000100
,
00000010
00000001
00000010
00000001
,
00000010
00000100
00001000
00010000
,
01000000
00000000
01000000
00000000
,
00100000
10000000
10000000
00000000
,
01100000
00000000
01100000
00000000
,
00010000
10000000
00010000
00010000
,
01000000
00001000
00010000
00000000
,
00000100
00001000
00000010
00000010
,
00000100
00000010
00001000
00000000
,
00000100
00000100
00010000
00010000
,
00001000
00010000
00100000
00000000
,
01000000
10000000
00100000
00100000
,
20020000
00000000
00000000
30030000
,
11000000
00100000
00010000
00001000
,
00000110
00000001
00000100
00000010
,
00011000
00100000
01000000
10000000
,
01100000
00010000
00001000
00000100
,
00000011
00000100
00001000
00010000
,
01100000
10000000
00100000
01000000
,
00011000
00000010
00000100
00000001
,
00000220
00000000
00000000
00000330
,
00001001
00000001
00000100
00000001
,
00000010
00000100
00001000
00011000
,
00100000
01000000
10000000
10000000
,
00010000
00010000
00100000
00100000
,
00011000
00000010
00000100
00000001
,
00000010
00000100
00001000
00000010
,
00000100
00000100
00000001
00000001
,
00000100
00000100
00000010
00000010
,
00011000
00100000
00010000
00100000
,
01000000
10000000
00100000
10000000
,
01000000
01000000
10000000
10000000
,
00100000
01000000
00010000
00100000
,
00011000
00001000
00000001
00000001
,
00001000
00000100
00000010
00000001
,
00000100
00000100
00000010
00000010
,
00002200
00000000
00000000
00003300
00000000
00011000
00000000
00000000
;

//---------------dance-single - ----------------
#NOTES:
     dance-single:
     :
     Medium:
     6:
     0.434,0.499,0.324,0.283,0.000: // measure 1
0000
0000
0000
0000
,  // measure 2
0000
0000
0000
0000
,  // measure 3
0000
0000
0000
0000
,  // measure 4
0000
0000
0000
0000
,  // measure 5
1001
1000
1000
1000
,  // measure 6
0022
0000
0000
0033
,  // measure 7
1001
0001
0001
0001
,  // measure 8
2200
0000
0000
3300
,  // measure 9
1001
1000
1000
1000
,  // measure 10
0202
0000
0000
0303
,  // measure 11
1001
0001
0001
0001
,  // measure 12
2020
0000
0000
3030
,  // measure 13
0100
0010
0100
0100
,  // measure 14
0010
1000
0010
0000
0100
0001
0100
0000
,  // measure 15
0010
0100
0010
0010
,  // measure 16
0100
0001
0100
0000
0010
1000
0010
0000
,  // measure 17
1001
0000
0100
0001
0010
0001
0010
0000
,  // measure 18
0100
1000
0100
0000
1000
0001
1000
0000
,  // measure 19
1001
0000
0010
1000
0100
1000
0100
0000
,  // measure 20
0010
0001
0010
0000
0001
1000
0001
0000
,  // measure 21
1000
0100
1000
0100
,  // measure 22
1000
0100
0010
0001
,  // measure 23
0010
0001
0010
0000
0001
1000
0001
0000
,  // measure 24
1000
0100
1000
0000
0010
0100
0010
0000
,  // measure 25
1001
0100
0001
0100
,  // measure 26
0001
0010
0100
1000
,  // measure 27
0010
1000
0010
0000
1000
0001
1000
0000
,  // measure 28
0010
0100
0010
0000
0100
0001
0100
0000
,  // measure 29
1001
0000
0100
0010
0010
0000
1000
0000
,  // measure 30
0100
0010
0001
0100
,  // measure 31
1001
0000
0010
0100
0100
0000
0001
0000
,  // measure 32
0010
0100
1000
0010
,  // measure 33
1000
0001
1000
0001
0010
0001
0010
0000
,  // measure 34
0100
1000
0100
0000
1000
0001
1000
0000
,  // measure 35
0001
1000
0001
1000
0100
1000
0100
0000
,  // measure 36
2002
0000
0000
3003
,  // measure 37
0022
0000
0000
0033
,  // measure 38
2020
0000
0000
3030
,  // measure 39
0202
0000
0000
0303
,  // measure 40
2200
0000
0000
3300
,  // measure 41
2002
0000
0000
3003
,  // measure 42
0220
0000
0000
0330
,  // measure 43
2002
0000
0000
0000
,  // measure 44
3003
0000
0000
0000
,  // measure 45
1001
0000
0010
0001
0010
0100
0100
0000
,  // measure 46
1000
0010
1000
0010
1000
0010
1000
0000
,  // measure 47
1001
0000
0100
1000
0100
0010
0010
0000
,  // measure 48
0001
0100
0001
0100
0001
0100
0001
0000
,  // measure 49
1001
0000
0100
0001
0100
0010
0010
0000
,  // measure 50
1000
0100
1000
0100
1000
0100
1000
0000
,  // measure 51
1001
0000
0010
1000
0010
0100
0100
0000
,  // measure 52
0001
0010
0001
0010
0001
0010
0001
0000
,  // measure 53
2001
0000
0000
0010
0000
0010
0000
3010
,  // measure 54
0000
0100
0010
0100
,  // measure 55
1002
0000
0000
0100
0000
0100
0000
0103
,  // measure 56
0000
0010
0100
0010
,  // measure 57
2001
0000
0000
0010
0000
0010
0000
3010
,  // measure 58
0000
0100
0001
0100
,  // measure 59
1001
0000
0010
0000
1000
0010
0100
0000
,  // measure 60
0110
0000
0001
0100
0000
1001
0000
0000
;

//---------------dance-double - ----------------
#NOTES:
     dance-double:
     :
     Medium:
     6:
     0.462,0.530,0.314,0.251,0.000:
00000000
00000000
00000000
00000000
,
00000000
00000000
00000000
00000000
,
00000000
00000000
00000000
00000000
,
00000000
00000000
00000000
00000000
,
10010000
10000000
10000000
10000000
,
00022000
00000000
00000000
00033000
,
00001001
00000001
00000001
00000001
,
00022000
00000000
00000000
00033000
,
10010000
10000000
10000000
10000000
,
00022000
00000000
00000000
00033000
,
10010000
10000000
10000000
10000000
,
02200000
00000000
00000000
03300000
,
00010000
00100000
01000000
01000000
,
10000000
00100000
10000000
00000000
01000000
00100000
01000000
00000000
,
10000000
01000000
00100000
00010000
,
00001000
00010000
00001000
00000000
00000100
00000001
00000100
00000000
,
00001001
00000000
00000010
00001000
00000100
00001000
00000100
00000000
,
00000010
00000001
00000010
00000000
00000001
00001000
00000001
00000000
,
00001001
00000000
00000100
00000001
00000010
00000001
00000010
00000000
,
00000100
00010000
00000100
00000000
00010000
00001000
00010000
00000000
,
00100000
01000000
10000000
01000000
,
00100000
00010000
00100000
01000000
,
10000000
01000000
10000000
00000000
00100000
01000000
00100000
00000000
,
01000000
00001000
01000000
00000000
00010000
00001000
00010000
00000000
,
01010000
00100000
10000000
00100000
,
10000000
01000000
00100000
00010000
,
00001000
00000100
00001000
00000000
00000001
00001000
00000001
00000000
,
00000100
00000010
00000100
00000000
00000010
00001000
00000010
00000000
,
00001001
00000000
00000010
00000100
00000100
00000000
00000001
00000010
,
00000100
00001000
00000100
00001000
00000010
00000000
00000010
00000000
,
00001001
00000000
00000100
00000010
00000010
00000000
00001000
00000100
,
00000010
00000001
00000010
00000001
00000100
00000000
00000100
00000000
,
00000001
00001000
00000001
00001000
00000100
00001000
00000100
00000000
,
00010000
00001000
00010000
00100000
01000000
10000000
00100000
00000000
,
10000000
00010000
10000000
00010000
00100000
00010000
00100000
00000000
,
20020000
00000000
00000000
30030000
,
22000000
00000000
00000000
33000000
,
02200000
00000000
00000000
03300000
,
00220000
00000000
00000000
00330000
,
00022000
00000000
00000000
00033000
,
00002200
00000000
00000000
00003300
,
00000220
00000000
00000000
00000330
,
00002002
00000000
00000000
00000000
,
00003003
00000000
00000000
00000000
,
00001001
00000000
00000010
00000001
00000010
00000100
00000100
00000000
,
00001000
00000010
00001000
00000010
00001000
00000010
00001000
00000000
,
00001001
00000000
00000100
00001000
00000100
00000010
00000010
00000000
,
00000001
00000100
00000001
00000100
00000001
00000100
00000001
00000100
,
00011000
00000000
00100000
10000000
00100000
01000000
01000000
00000000
,
00010000
00100000
00010000
00100000
00010000
00100000
00010000
00000000
,
10010000
00000000
01000000
00010000
01000000
00100000
00100000
00000000
,
10000000
01000000
10000000
01000000
10000000
01000000
10000000
01000000
,
00011000
00000000
00000010
00000100
00000010
00000100
00000010
00000100
,
00000001
00000100
00000010
00000100
,
00001001
00000000
00000100
00000010
00000100
00000010
00000100
00000010
,
00001000
00000010
00000100
00000010
,
00011000
00000000
01000000
00100000
01000000
00100000
01000000
00100000
,
10000000
00100000
10000000
00100000
,
01000000
00010000
01000000
00001000
00100000
00001000
00100000
00000000
,
00011000
00000000
00000100
00000100
00000000
00011000
00000000
00000000
;
