#TITLE:on the bounce;
#SUBTITLE:(FROM NONSTOP MEGAMIX);
#ARTIST:neuras;
#TITLETRANSLIT:;
#SUBTITLETRANSLIT:;
#ARTISTTRANSLIT:;
#CREDIT:DMAxel;
#BANNER:on the bounce (FROM NONSTOP MEGAMIX).png;
#BACKGROUND:on the bounce (FROM NONSTOP MEGAMIX)-bg.png;
#LYRICSPATH:;
#CDTITLE:DanceDanceRevolution X.png;
#MUSIC:on the bounce (FROM NONSTOP MEGAMIX).mp3;
#OFFSET:-0.180;
#SAMPLESTART:12.920;
#SAMPLELENGTH:12.000;
#SELECTABLE:YES;
#BPMS:0.000=75.000,12.000=150.000;
#STOPS:2.000=0.800
,5.000=0.800
;
#BGCHANGES:;

//---------------dance-single - ----------------
#NOTES:
     dance-single:
     :
     Easy:
     4:
     0.350,0.379,0.347,0.059,0.000:
0000
0000
0000
0000
,
0000
0000
0010
0100
,
0110
1000
0100
0010
,
1002
0000
0000
1003
,
0010
0100
0010
1010
,
1001
0001
0010
0101
,
1001
1000
0010
0110
,
1001
0001
1000
0110
,
0001
0010
0001
0100
,
1001
1000
0100
1000
,
0010
0100
0001
0010
,
1001
0100
0010
1000
,
0010
0000
0000
0010
0000
0000
0110
0000
,
0000
1000
0000
0000
1001
0000
0000
0100
,
0000
0000
1100
0000
0000
0010
0000
0000
,
0011
0100
1000
0100
,
1000
0010
0010
1001
,
0000
0100
0001
0010
,
0001
0100
0100
1001
,
0000
0010
1000
0010
,
0100
0001
0001
1001
,
0010
0001
0100
0010
,
1000
0010
0010
1001
,
0100
1000
0100
1000
,
0100
1000
0010
0001
,
0010
0001
0010
0001
,
0010
0001
0100
1000
,
0010
1000
0010
1000
,
0010
1000
0100
0001
,
0100
0001
0100
0001
,
0100
0001
0010
1000
,
0010
0000
0000
0000
0000
0110
0000
0110
,
0000
2000
0000
0000
0000
0000
3000
0000
,
0100
0000
0000
0000
0000
0110
0000
0110
,
0000
0002
0000
0000
0000
0000
0003
0000
,
1000
0000
0010
0000
0000
0110
0000
1001
,
0000
0020
0000
0000
0000
0000
0031
0000
,
0001
0000
0100
0000
0000
0110
0000
0110
,
0000
0200
0000
0000
0000
0000
1300
0000
,
1001
0100
0010
0001
,
0010
0100
1000
0100
,
0010
0001
0010
0100
,
1000
0100
0010
0001
,
1001
0100
0010
1000
,
0010
0100
0001
0100
,
0010
1000
0010
0100
,
0001
0100
0010
1010
,
1001
0010
0001
0010
,
0001
0010
0001
0100
,
1000
0100
1000
0100
,
1000
0100
1000
0010
,
0001
0100
0001
0100
,
0001
0010
1000
0010
,
1000
0010
1000
0010
,
1000
0100
0001
0010
,
0001
0000
0000
0001
0000
0000
1001
0000
,
0000
1000
0000
0000
1001
0000
0000
0010
,
0000
0000
0110
0000
0000
0100
0000
0000
,
0120
0100
0100
0130
;

//---------------dance-single - ----------------
#NOTES:
     dance-single:
     :
     Hard:
     9:
     0.719,0.641,0.783,0.119,0.322:
0000
0000
0000
0000
,
0000
0000
0000
0000
1000
0100
0010
0000
,
0110
0000
1001
0000
0001
0010
0100
0000
,
1000
0100
0010
0001
0010
0100
1001
0000
,
0001
0000
0010
0000
0100
0000
1000
0100
1000
0000
0010
0000
0100
0000
0000
0000
,
1001
0000
0100
0000
0010
0000
0001
0010
0001
0000
0100
0000
0010
0000
1000
0000
,
0100
0000
0010
0000
0001
0000
0100
0010
0100
0000
0001
0000
0100
0000
0000
0000
,
1001
0000
0010
0000
0100
0000
1000
0010
1000
0000
0010
0000
0110
0000
0000
0000
,
1000
0000
0100
0000
0010
0000
0001
0010
0001
0000
0100
0000
0110
0000
0000
0000
,
1001
0000
0010
0000
0100
0000
0010
0001
0010
0000
0100
0000
1001
0000
0000
0000
,
1000
0000
0100
0000
0010
0000
0100
1000
0100
0000
0010
0000
0001
0000
0000
0000
,
1001
0000
0100
0000
0010
0000
0100
0001
0100
0000
0010
0000
1001
0000
0000
0000
,
1100
0000
0000
1010
0000
0000
1001
0000
0000
0101
0000
0000
0011
0000
0000
0110
,
0000
0000
1100
0000
0000
0110
0000
0000
0011
0000
0000
1001
0000
0000
1010
0000
,
0000
0101
0000
0000
0011
0000
0000
1100
0000
0000
0110
0000
1001
0000
0000
0000
,
0100
0000
0100
0000
0010
0000
1000
0001
1000
0000
0010
0000
0100
0000
0000
0000
,
0010
0000
0010
0000
0100
0000
0001
1000
0001
0000
0100
0000
0010
0100
0010
0000
,
1000
0000
0100
0000
1000
0000
0001
1000
0001
0000
0100
0000
0110
0000
0000
0000
,
0100
0000
0100
0000
0010
0000
1000
0001
1000
0000
0010
0000
0100
0010
0100
0000
,
0001
0000
0010
0000
0001
0000
1000
0001
1000
0000
0010
0000
0110
0000
0000
0000
,
0001
0000
0001
0000
0100
0000
0010
1000
0010
0000
1000
0000
1001
0000
0000
0000
,
1000
0100
1000
0000
0010
0000
0100
0001
0100
0000
0001
0000
1001
0000
0000
0000
,
0001
0000
0010
0000
0100
0000
0010
0001
0010
0000
0100
0000
1001
0000
0000
0000
,
0110
0010
0000
1001
0000
0210
0010
0301
,
0000
0000
1000
0000
0010
0000
0100
0001
0100
0000
0010
0000
1010
0000
0000
0000
,
0110
0100
0000
1001
0000
0120
0100
1030
,
0000
0000
0001
0000
0100
0000
0010
1000
0010
0000
0100
0000
0101
0000
0000
0000
,
1001
0001
0000
0110
0000
2001
0001
3100
,
0000
0000
0010
0000
1000
0000
0001
0100
0001
0000
1000
0000
1010
0000
0000
0000
,
1001
1000
0000
0110
0000
1002
1000
0013
,
0000
0100
0001
0010
0100
1000
0010
0000
,
0201
0000
0000
0001
0000
1000
0000
0001
,
0000
1300
0100
0010
0001
0000
0000
0000
,
1020
0000
0000
1000
0000
0001
0000
1000
,
0000
0031
0010
0100
1000
0000
0110
0000
,
0201
0000
0000
1000
0000
0001
0000
1000
,
0000
0301
0010
0100
1000
0000
0110
0000
,
1020
0000
0000
0001
0000
1000
0000
0001
,
0000
1030
0100
0010
0001
0001
0101
0000
,
1001
0000
0001
0000
0010
0000
0100
1000
0010
0000
0100
0000
0001
0000
0010
0001
,
0100
0000
0010
0000
0100
0010
1000
0000
0010
0000
0100
0010
0100
0000
0000
0000
,
1001
0000
1000
0000
0100
0000
0010
0001
0100
0000
0010
0000
1000
0000
0100
1000
,
0010
0000
0100
0000
0010
0100
0001
0000
0100
0000
0010
0100
0010
0000
0000
0000
,
1001
0000
0001
0000
0100
0000
0010
1000
0100
0000
0010
0000
0001
0000
0010
0001
,
0100
0000
0010
0000
1000
0010
0100
0000
0001
0000
0100
0010
0100
0000
0000
0000
,
1001
0000
1000
0000
0010
0000
0100
0001
0010
0000
0100
0000
1000
0000
0010
0100
,
0001
0000
0010
0000
0100
1000
0010
0000
0100
0000
0010
0100
0010
0000
0000
0000
,
1000
0001
1000
0000
0010
0000
0100
0000
0001
0000
0100
0010
0100
0000
0020
0000
,
0000
0000
1030
0000
0100
0000
0010
0001
0010
0000
0001
0000
1001
0000
0000
0000
,
0001
1000
0001
0000
0100
0000
0010
0000
1000
0000
0010
0100
0010
0000
0200
0000
,
0000
0000
0301
0000
0010
0000
0100
1000
0100
0000
1000
0000
1001
0000
0000
0000
,
1000
0001
1000
0001
1000
0000
0010
0000
0100
0000
0002
0000
0000
0000
1000
0000
,
0000
0000
0100
0000
0103
0000
0010
1000
0010
0000
1000
0000
1001
0000
0000
0000
,
1000
0000
0010
0000
0100
0000
0001
0100
0001
0000
0100
0000
0010
1000
0100
0000
,
1000
0000
0010
0100
0001
0000
0100
0000
0010
0100
0010
0000
1001
0000
0000
0000
,
1100
0000
0000
1010
0000
0000
0110
0000
0000
0101
0000
0000
0011
0000
0000
0101
,
0000
0000
0110
0000
0000
1010
0000
0000
1100
0000
0000
0110
0000
0000
0011
0000
,
0000
0110
0000
0000
1100
0000
0000
0101
0000
0000
0110
0000
1001
0000
0000
0000
,
2001
0010
0010
3010
;

//---------------dance-single - ----------------
#NOTES:
     dance-single:
     :
     Challenge:
     10:
     0.867,0.728,0.763,0.119,0.709: // measure 1
0000
0000
0000
0000
,  // measure 2
0000
0000
0000
0000
0000
0000
0000
0000
0001
0010
1100
0000
1010
0000
0101
0000
,  // measure 3
0100
0010
0100
0000
1001
0000
0000
0000
1000
0100
0010
0000
0101
0000
0010
0000
,  // measure 4
1001
0010
0100
1000
0100
0010
2002
3003
,  // measure 5
1100
0000
0100
0000
0010
0000
0001
0010
0001
0000
0100
0000
0010
0100
0010
0000
,  // measure 6
1001
0000
0010
0000
0100
1000
0000
0100
0000
1000
0010
0000
0100
0000
0001
0000
,  // measure 7
0011
0000
0100
0000
1000
0000
0001
0010
0001
0000
0100
0000
0010
0100
0010
0000
,  // measure 8
1001
0000
0100
0000
0010
0001
0000
0100
0000
0010
0100
0000
0001
1000
0001
0000
,  // measure 9
1100
0000
0100
0000
0010
0000
0001
0010
0001
0000
0100
0000
0110
0000
0000
0000
,  // measure 10
1001
0000
0010
0000
0100
0010
0000
0001
0000
0010
0100
0000
1000
0001
1000
0000
,  // measure 11
0101
0000
0010
0000
0100
0000
0010
0001
0010
0000
0100
0000
1000
0010
0100
0000
,  // measure 12
1001
0000
0010
0000
0100
0010
0000
1000
0000
0010
0100
0000
0001
1000
0001
0000
,  // measure 13
1000
0100
0000
0100
0010
0000
0010
0001
0000
0001
0100
0000
0100
0010
0000
0010
,  // measure 14
1000
0000
1000
0100
0000
0100
0010
0000
0010
0001
0000
0001
1000
0000
0100
0010
,  // measure 15
0000
0001
0100
0000
0010
1000
0000
0010
0100
0000
0110
0000
1001
0000
0000
0000
,  // measure 16
0011
0000
0010
0000
0100
1000
0000
0010
0000
0100
0010
0000
0100
0001
0100
0000
,  // measure 17
1010
0000
1000
0000
0100
0010
0000
0001
0000
0100
0010
0000
1000
0010
1000
0000
,  // measure 18
0101
0000
0100
0000
0010
1000
0000
0100
0000
0010
0100
0000
1000
0010
0100
0000
,  // measure 19
1010
0000
0010
0000
0100
0001
0000
0010
0000
0100
0010
0000
0001
0100
0010
0000
,  // measure 20
1001
0000
0100
0000
1000
0010
0000
1000
0000
0010
0100
0000
0010
1000
0100
0000
,  // measure 21
1001
0000
0010
0000
0001
1000
0000
0010
0000
0100
0010
0000
0100
0001
0010
0000
,  // measure 22
0001
0010
0001
0000
0100
0010
0000
1000
0000
0010
0100
0000
0010
0100
0001
0000
,  // measure 23
1000
0100
1000
0000
0010
0100
0000
0001
0000
0100
0010
0000
1000
0000
1001
0000
,  // measure 24
0200
0000
0010
0000
0000
0000
0301
1000
0001
0000
0100
0000
0010
0100
0020
0000
,  // measure 25
0000
0000
1030
0000
0001
0000
0010
0001
0010
0000
0001
0000
0100
0010
0100
0000
,  // measure 26
0020
0000
0100
0000
0000
0000
1030
0001
1000
0000
0010
0000
0100
0010
0200
0000
,  // measure 27
0000
0000
0301
0000
1000
0000
0100
1000
0100
0000
1000
0000
0001
1000
0001
0000
,  // measure 28
1010
0000
1000
0000
0010
0100
0000
0010
1000
0000
0001
0000
0100
0010
0100
0000
,  // measure 29
0001
0000
0010
0000
0100
0000
1000
0010
1000
0000
0001
0000
1000
0001
1000
0000
,  // measure 30
0101
0000
0001
0000
0100
0010
0000
0100
0001
0000
1000
0000
0010
0100
0010
0000
,  // measure 31
0100
0001
1000
0100
0010
0001
0100
0000
,  // measure 32
0020
1000
0000
0001
0000
1000
0000
0031
,  // measure 33
0000
1010
1001
0101
0010
0100
0010
0010
,  // measure 34
0200
0001
0000
1000
0000
0001
0000
1300
,  // measure 35
0000
0101
1001
1010
0100
0010
0100
0100
,  // measure 36
0101
0000
0010
0000
0100
1000
0000
0100
0010
0000
0101
0000
0000
0000
1001
0000
,  // measure 37
0000
1000
0100
0010
0001
0100
0010
0010
,  // measure 38
1010
0000
0100
0000
0010
0001
0000
0010
0100
0000
1010
0000
0000
0000
1001
0000
,  // measure 39
0000
0011
0100
1000
1010
1100
1001
0000
,  // measure 40
1001
0000
1001
0000
0100
0000
0010
0001
0100
0000
0010
0000
1001
0000
0100
1000
,  // measure 41
0010
0000
0101
0000
0010
0100
0001
0000
1010
0000
0010
0100
0010
0000
0000
0000
,  // measure 42
1001
0000
1001
0000
0010
0000
0100
1000
0010
0000
0100
0000
1001
0000
0010
0001
,  // measure 43
0100
0000
1010
0000
0100
0010
1000
0000
0101
0000
0010
0100
0010
0000
0000
0000
,  // measure 44
1001
0000
1001
0000
0010
0100
0000
0001
0000
0010
0100
0000
1001
0000
0100
1000
,  // measure 45
0010
0000
0101
0000
0001
0100
0010
0000
1010
0000
1000
0010
0100
0000
0000
0000
,  // measure 46
1001
0000
1001
0000
0100
0010
0000
1000
0000
0100
0010
0000
1001
0000
0100
0010
,  // measure 47
1000
0000
0101
0000
0010
0001
0100
0000
1010
0000
0100
0010
0100
0010
0100
0000
,  // measure 48
0001
1000
0001
0000
1000
0000
1010
0000
0010
0000
0100
0000
0001
0000
0010
0001
,  // measure 49
0010
0000
1001
0000
0010
0000
0100
1000
0100
0000
1000
0000
1001
0000
0000
0000
,  // measure 50
1000
0001
1000
0000
0010
0000
0101
0000
0001
0000
0100
0010
0100
0000
0010
0000
,  // measure 51
0100
0000
1001
0000
0100
0000
0010
0001
0010
0000
0001
0000
1001
0000
0000
0000
,  // measure 52
0001
1000
0001
1000
0001
0000
1100
0000
1000
0000
0010
0100
0001
0000
1001
0000
,  // measure 53
0010
0001
0100
0000
0010
0000
1000
0100
1000
0000
0011
0000
1001
0000
0000
0000
,  // measure 54
0001
0000
0101
0000
0010
0000
1000
0010
1000
0000
0010
0000
0100
0001
0010
0000
,  // measure 55
0001
0000
0100
0010
1000
0000
0010
0000
0100
0010
0100
0000
1001
0000
0000
0000
,  // measure 56
0001
0010
0000
0010
0100
0000
0100
1000
0000
1000
0010
0000
0010
0100
0000
0100
,  // measure 57
0001
0000
0001
0010
0000
0010
0100
0000
0100
1000
0000
1000
0010
0000
0100
0001
,  // measure 58
0000
0010
0100
0000
1000
0010
0000
0100
0010
0100
0001
0000
1001
0000
0000
0000
,  // measure 59
2002
3000
0200
0300
0020
0030
0103
0000
;

//---------------dance-single - ----------------
#NOTES:
     dance-single:
     :
     Beginner:
     2:
     0.159,0.173,0.099,0.000,0.000:
0000
0000
0000
0000
,
0000
0000
0000
0000
,
0000
0000
0000
0000
,
0010
0000
0000
0100
,
0000
0010
0000
0100
,
0000
0010
0000
1000
,
0000
0001
0000
1000
,
0000
0001
0000
1000
,
0000
0010
0000
0100
,
0000
0010
0000
1000
,
0000
0001
0000
0010
,
0000
0001
0000
1000
,
1001
0000
0000
0000
,
0000
0000
0010
0000
,
0000
0000
0000
0110
,
0000
1000
0000
0001
,
0000
1000
0000
0010
,
0000
0100
0000
0010
,
0000
1000
0000
0010
,
0000
0100
0000
0001
,
0000
0100
0000
0010
,
0000
0100
0000
0010
,
0000
1000
0000
0001
,
0000
1000
0000
0010
,
0000
0100
0000
0001
,
0000
0010
0000
0100
,
0000
1000
0000
0100
,
0000
0010
0000
0001
,
0000
0100
0000
0001
,
0000
1000
0000
0010
,
0000
0100
0000
0100
,
1001
0000
0000
0000
,
0001
0000
0000
0000
,
1001
0000
0000
0000
,
1000
0000
0000
0000
,
1001
0000
0000
0000
,
0001
0000
0000
0000
,
1001
0000
0000
0000
,
1000
0000
0000
0000
,
0010
0010
0000
0100
,
0000
0010
0000
1000
,
0000
0001
0000
1000
,
0000
0100
0000
0010
,
0000
0001
0000
0100
,
0000
0010
0000
1000
,
0000
0010
0000
1000
,
0000
0001
0000
0110
,
0000
0010
0000
0100
,
0000
0010
0000
0100
,
0000
0001
0000
0010
,
0000
0100
0000
1000
,
1001
0001
0000
0010
,
0000
0100
0000
1000
,
0000
0010
0000
1000
,
0000
0001
0000
0100
,
1001
0000
0000
0010
,
0000
0010
0000
0100
,
0000
0100
0000
0100
,
1001
0000
0000
0000
;

//---------------dance-single - ----------------
#NOTES:
     dance-single:
     :
     Medium:
     7:
     0.466,0.437,0.178,0.040,0.089:
0000
0000
0000
0000
,
0000
0000
0000
0000
1000
0100
0010
0000
,
0110
0000
1001
0000
0001
0010
0100
0000
,
2001
0000
0000
3001
,
0100
0010
0100
0001
0100
1000
0100
0000
,
1001
0000
0010
1000
0010
0001
0010
0000
,
0100
1000
0100
0010
0100
0001
0100
0000
,
1001
0000
0010
1000
0010
0100
0010
0000
,
0100
0001
0100
0010
0100
1000
0100
0000
,
1001
0000
0010
0001
0010
1000
0010
0000
,
0100
0001
0100
0010
0100
1000
0100
0000
,
1001
0000
0010
0001
0010
0000
1001
0000
,
0100
0000
0000
0100
0000
0000
0100
0000
0000
0100
0000
0000
0100
0000
0000
0100
,
0000
0000
0010
0000
0000
0010
0000
0000
0010
0000
0000
0010
0000
0000
0010
0000
,
0000
0010
0000
0000
1000
0000
0000
1000
0000
0000
1000
0000
0001
0000
0000
0000
,
1000
0100
0010
0001
0000
0100
0001
0100
,
0001
0000
0100
0010
0000
0010
0100
0000
,
0001
0010
0100
1000
0000
0010
1000
0010
,
1000
0000
0010
0100
0000
0100
0010
0000
,
1000
0100
0010
0001
0000
0010
0001
0010
,
0001
0000
0100
0010
0000
0010
0100
0000
,
0001
0010
0100
1000
0000
0100
1000
0100
,
1000
0000
0010
0100
0000
0100
0010
0000
,
1000
0010
0000
0100
0000
0010
0000
0100
,
0000
0010
0000
1000
0100
0010
0001
0000
,
0001
0100
0000
0010
0000
0100
0000
0010
,
0000
0100
0000
0001
0010
0100
1000
0000
,
1000
0010
0000
0100
0000
0010
0000
1000
,
0000
0001
0000
1000
0100
0010
0001
0000
,
0001
0100
0000
0010
0000
0100
0000
0010
,
0000
1000
0000
0001
0010
0100
1000
0000
,
0200
0000
0000
0000
0000
1000
0000
1300
,
0000
1000
0100
0010
0001
0000
0000
0000
,
0020
0000
0000
0000
0000
0001
0000
0031
,
0000
0001
0010
0100
1000
0000
0000
0000
,
0010
1000
0000
0100
0000
1100
0000
1001
,
0000
1000
0100
0010
0001
0000
0000
0000
,
0100
0001
0000
0010
0000
0011
0000
1001
,
0000
0010
0000
1000
0010
1000
0010
0000
,
1000
0000
1000
0000
0010
0000
0000
0100
0000
0000
0010
0000
1000
0000
1000
0000
,
0000
0001
0001
0000
0100
0100
0110
0000
,
0001
0000
0001
0000
0100
0000
0000
0010
0000
0000
0100
0000
0001
0000
0001
0000
,
0000
1000
1000
0000
0010
0010
0110
0000
,
1000
0000
1000
0000
0010
0000
0000
0100
0000
0000
0010
0000
1000
0000
1000
0000
,
0000
0001
0001
0000
0100
0100
0110
0000
,
0001
0000
0001
0000
0100
0000
0000
0010
0000
0000
0100
0000
0001
0000
0001
0000
,
0000
1000
1000
0000
0010
0010
0110
0000
,
0001
0100
0000
0010
0000
0100
0000
0010
,
0000
1000
0000
1000
0100
0010
0001
0000
,
1000
0010
0000
0100
0000
0010
0000
0100
,
0000
0001
0000
0001
0010
0100
1000
0000
,
0001
1000
0001
0100
0000
0010
0000
0100
,
0000
0001
0000
0001
0010
0100
1000
0000
,
0010
0100
0000
0010
0000
0100
0000
0010
,
0000
1000
0000
1000
0100
0010
0001
0000
,
0100
0000
0000
0100
0000
0000
0100
0000
0000
0100
0000
0000
0100
0000
0000
0100
,
0000
0000
0010
0000
0000
0010
0000
0000
0010
0000
0000
0010
0000
0000
0010
0000
,
0000
0010
0000
0000
1000
0000
0000
1000
0000
0000
0001
0000
1001
0000
0000
0000
,
0210
0010
0010
0310
;
