#TITLE:miss you;
#SUBTITLE:;
#ARTIST:m-flo♥melody. & 山本領平;
#TITLETRANSLIT:;
#SUBTITLETRANSLIT:;
#ARTISTTRANSLIT:m-flo loves melody. & yamamoto ryohei;
#CREDIT:DMAxel;
#BANNER:miss you.png;
#BACKGROUND:miss you-bg.png;
#LYRICSPATH:miss you.lrc;
#CDTITLE:avex.png;
#MUSIC:miss you.mp3;
#OFFSET:0.420;
#SAMPLESTART:87.241;
#SAMPLELENGTH:12.000;
#SELECTABLE:YES;
#BPMS:0.000=88.130,34.000=176.250;
#STOPS:;
#BGCHANGES:0.420=miss you.avi=1.000=1=1=0,
99999=-nosongbg-=1.000=0=0=0 // don't automatically add -songbackground-
;

//---------------dance-single - ----------------
#NOTES:
     dance-single:
     :
     Easy:
     2:
     0.176,0.194,0.089,0.018,0.000: // measure 1
0000
0000
0000
0000
,  // measure 2
0000
0000
0000
0000
,  // measure 3
0000
0000
0000
0000
,  // measure 4
0000
0000
0000
0000
,  // measure 5
0000
0000
0001
0000
,  // measure 6
0000
0000
1000
0000
,  // measure 7
0000
0000
0001
0000
,  // measure 8
0000
0000
1000
0000
,  // measure 9
0000
0000
0010
0000
,  // measure 10
0100
0000
0010
0000
,  // measure 11
0100
0000
0001
0000
,  // measure 12
1000
0000
0001
0000
,  // measure 13
1000
0000
0010
0000
,  // measure 14
0100
0000
0010
0000
,  // measure 15
0000
0000
1000
0000
,  // measure 16
0001
0000
1000
0000
,  // measure 17
0000
0000
0010
0000
,  // measure 18
1000
0000
0010
0000
,  // measure 19
1000
0000
0000
0000
,  // measure 20
0001
0000
0100
0000
,  // measure 21
0001
0000
0010
0000
,  // measure 22
0100
0000
1000
0000
,  // measure 23
0001
0000
1000
0000
,  // measure 24
0100
0000
0010
0000
,  // measure 25
0001
0000
1000
0000
,  // measure 26
0001
0000
0100
0000
,  // measure 27
0100
0000
0010
0000
,  // measure 28
0010
0000
1000
0000
,  // measure 29
0100
0000
0010
0000
,  // measure 30
0001
0000
1000
0000
,  // measure 31
0001
0000
1000
0000
,  // measure 32
0010
0000
0100
0000
,  // measure 33
0010
0000
1000
0000
,  // measure 34
0010
0000
0100
0000
,  // measure 35
0010
0000
0100
0000
,  // measure 36
0001
0000
0100
0000
,  // measure 37
0010
0000
0100
0000
,  // measure 38
0001
0000
0010
0000
,  // measure 39
0100
0000
1000
0000
,  // measure 40
0001
0000
1000
0000
,  // measure 41
0010
0000
0100
0000
,  // measure 42
0010
0000
1000
0000
,  // measure 43
0010
0000
0100
0000
,  // measure 44
0001
0000
0100
0000
,  // measure 45
0010
0000
1000
0000
,  // measure 46
0100
0000
0010
0000
,  // measure 47
0001
0000
0010
0000
,  // measure 48
0100
0000
1000
0000
,  // measure 49
0001
0000
1000
0000
,  // measure 50
0001
0000
0001
0000
,  // measure 51
1000
0000
1000
0000
,  // measure 52
0010
0000
0010
0000
,  // measure 53
0100
0000
0100
0000
,  // measure 54
0010
0000
1000
0000
,  // measure 55
0100
0000
0010
0000
,  // measure 56
0001
0000
1000
0000
,  // measure 57
0001
0000
1001
0000
,  // measure 58
0010
0000
1001
0000
,  // measure 59
0000
0000
1001
0000
,  // measure 60
0100
0000
1001
0000
,  // measure 61
0000
0000
1001
0000
,  // measure 62
0010
0000
0001
0000
,  // measure 63
0010
0000
0100
0000
,  // measure 64
1000
0000
0010
0000
,  // measure 65
0010
0000
1001
0000
,  // measure 66
0100
0000
1001
0000
,  // measure 67
0000
0000
1001
0000
,  // measure 68
0010
0000
1001
0000
,  // measure 69
0010
0000
0001
0000
,  // measure 70
0010
0000
0100
0000
,  // measure 71
1000
0000
0010
0000
,  // measure 72
1000
0000
0010
0000
,  // measure 73
2002
0000
3003
0000
;

//---------------dance-single - ----------------
#NOTES:
     dance-single:
     :
     Hard:
     7:
     0.511,0.518,0.330,0.071,0.000: // measure 1
0000
0000
0000
0000
,  // measure 2
0000
0000
0000
0000
,  // measure 3
0000
0000
0000
0000
,  // measure 4
0000
0000
0000
0000
,  // measure 5
0000
0000
1000
0100
,  // measure 6
0010
0001
0001
0010
,  // measure 7
0100
1000
1000
0100
,  // measure 8
0010
0001
0001
0010
,  // measure 9
0100
1000
0100
1000
,  // measure 10
0010
1000
0100
0010
,  // measure 11
0001
0000
0010
0001
,  // measure 12
0100
0001
0010
0100
,  // measure 13
1000
0000
0100
1000
,  // measure 14
0010
1000
0100
0010
,  // measure 15
0001
0000
0010
0001
,  // measure 16
1000
0000
0001
0000
1000
0000
0020
0200
,  // measure 17
0000
0000
0330
0000
1000
0010
1000
0000
,  // measure 18
0001
0100
0001
0000
0100
0010
0100
0000
,  // measure 19
0001
0000
1001
0000
0100
1000
0100
0000
,  // measure 20
0010
0001
0010
0000
0001
1000
0001
0000
,  // measure 21
1000
0000
1001
0000
0100
0000
1000
0100
,  // measure 22
0010
0000
0001
0000
0100
0000
0001
0010
,  // measure 23
0100
0000
1000
0000
0010
0000
0100
0001
,  // measure 24
0100
0000
0010
1000
0010
0000
1000
0000
,  // measure 25
1001
0000
0100
0000
1000
0100
0010
0000
,  // measure 26
0001
0000
0100
0000
0001
0010
0100
0000
,  // measure 27
1000
0100
0010
0000
2001
0000
0000
0001
,  // measure 28
0000
0000
3001
0000
1002
0000
0000
1000
,  // measure 29
0000
0000
1003
0000
0001
0010
0100
0000
,  // measure 30
1001
0000
1000
0100
0010
0000
1001
0000
,  // measure 31
0100
1000
0010
0000
2001
0000
0000
0001
,  // measure 32
0000
0000
3001
0000
1002
0000
0000
1000
,  // measure 33
0000
0000
1003
0000
0001
0010
0001
0100
,  // measure 34
0001
0000
1000
0100
1000
0010
1000
0000
,  // measure 35
0010
0100
0010
0100
0001
0010
0001
0100
,  // measure 36
0001
0000
1000
0100
1000
0010
1000
0000
,  // measure 37
0010
0100
0010
0100
0001
0010
0001
0100
,  // measure 38
0001
0000
1000
0100
1000
0010
1000
0000
,  // measure 39
0110
0000
0001
0100
0001
0010
0001
0000
,  // measure 40
1000
0100
1000
0010
1000
0000
0010
1000
,  // measure 41
0100
1010
0011
0100
,  // measure 42
1000
0000
0100
0000
1000
0000
0100
0010
,  // measure 43
0001
0000
0100
0000
0001
0000
0010
0100
,  // measure 44
1000
0000
0100
0000
1000
0010
0100
0000
,  // measure 45
0001
0000
0100
0000
1001
0000
0100
1000
,  // measure 46
0010
0100
0010
0000
0100
0000
0001
0000
,  // measure 47
1001
0000
0010
0001
0100
0010
0100
0000
,  // measure 48
1001
0000
0100
0000
1000
0010
1000
0010
,  // measure 49
1000
0110
1001
0100
,  // measure 50
1000
0000
0100
1000
0100
0010
0001
0100
,  // measure 51
0010
0000
0100
0000
0001
0010
0001
0010
,  // measure 52
0100
0000
1001
0000
0100
1000
0100
0010
,  // measure 53
0001
0110
1001
0010
,  // measure 54
0001
0000
0100
0001
0100
0001
0010
0100
,  // measure 55
1000
0000
0010
0100
0010
0000
1000
0001
,  // measure 56
1000
0010
1000
0001
0000
0110
0000
1000
,  // measure 57
0100
0010
0001
0000
1001
0000
0100
1000
,  // measure 58
0100
1000
0010
0000
1001
0000
0100
0001
,  // measure 59
0010
0001
0010
0000
1001
0000
0010
1000
,  // measure 60
0100
1000
0100
0000
1001
0000
0100
0001
,  // measure 61
0010
0100
1000
0000
1001
0000
0100
1000
,  // measure 62
0010
0000
0101
0000
1000
0100
0010
0001
,  // measure 63
0100
0010
0100
0010
0100
0000
1001
0000
,  // measure 64
0100
0001
0010
0000
1100
0000
1001
0100
,  // measure 65
1000
0100
0010
0001
1000
0001
0000
0100
,  // measure 66
0010
0000
1100
0000
1001
0000
0010
0001
,  // measure 67
0010
0100
1000
0010
1000
0010
0100
0010
,  // measure 68
1000
0101
1001
0100
,  // measure 69
0001
0010
0100
1000
0100
0000
1000
0010
,  // measure 70
0100
0010
0100
0001
0000
0100
0001
0010
,  // measure 71
0100
1000
0010
0000
0110
0000
1001
0000
,  // measure 72
0011
0000
0100
1000
0010
0000
0100
0002
,  // measure 73
0000
2000
3003
0000
;

//---------------dance-single - ----------------
#NOTES:
     dance-single:
     :
     Challenge:
     8:
     0.605,0.548,0.268,0.018,0.004: // measure 1
0000
0000
0000
0000
,  // measure 2
0000
0000
0000
0000
,  // measure 3
0000
0000
0000
0000
,  // measure 4
0000
0000
0000
0000
,  // measure 5
0000
0000
0000
0000
0001
0010
0100
0010
,  // measure 6
0010
0000
0001
0010
1000
0100
0010
0100
,  // measure 7
0100
0000
1000
0100
0001
0010
0100
0010
,  // measure 8
0001
0010
0100
1000
0100
0001
0100
1000
,  // measure 9
0100
0000
0000
0012
0000
0000
0000
0000
1003
0000
0100
0000
0010
0000
0001
0000
,  // measure 10
0100
0010
1000
0100
0010
0001
0100
0010
,  // measure 11
1000
0000
0010
1000
0100
1000
0010
0100
,  // measure 12
0001
1000
0010
0100
0001
1000
0100
0010
,  // measure 13
0000
0100
1000
0000
0010
0100
0001
1000
,  // measure 14
0010
0100
0001
1000
0010
0100
0010
0100
,  // measure 15
0000
0001
0100
0010
1000
0100
0010
0001
,  // measure 16
1000
0100
0010
0001
0100
0010
0100
0020
,  // measure 17
0000
0000
1030
0000
0010
0100
0001
0010
,  // measure 18
0100
0000
1000
0010
1000
0100
0010
0001
,  // measure 19
1000
0000
1001
0000
0100
0010
1000
0100
,  // measure 20
0010
0000
0001
0100
0001
0010
0100
1000
,  // measure 21
0001
0000
1001
0000
0010
0000
0001
0010
,  // measure 22
0100
0010
0001
0010
1000
0000
0010
0100
,  // measure 23
0001
0000
1001
0000
0100
0001
0010
0100
,  // measure 24
1000
0000
0100
0010
0001
0010
0100
0000
,  // measure 25
1001
0000
0010
0000
0001
0010
0100
0010
,  // measure 26
0001
0000
0010
0100
1000
0100
0010
0001
,  // measure 27
0010
0100
1000
0000
1001
0000
0010
0001
,  // measure 28
0000
0001
0100
0000
1001
0000
0010
1000
,  // measure 29
0000
1000
0100
0000
1000
0100
1000
0100
,  // measure 30
0010
0000
0001
0010
0100
1000
0100
1000
,  // measure 31
0010
0001
0100
0000
1001
0000
0100
0001
,  // measure 32
0000
0001
0010
0000
1001
0000
0010
1000
,  // measure 33
0000
1000
0100
0000
1000
0100
0010
0001
,  // measure 34
0100
0010
0100
0001
0010
0100
1000
0010
,  // measure 35
0100
0001
0010
1000
0000
0100
1000
0010
,  // measure 36
1000
0100
0001
0010
0001
0100
0001
0010
,  // measure 37
0001
0010
0100
1000
0000
0100
1000
0010
,  // measure 38
1000
0000
0001
0010
0001
0100
0001
0010
,  // measure 39
0100
0000
1000
0010
1000
0100
1000
0010
,  // measure 40
0001
0010
0001
0100
0001
0010
0100
1000
,  // measure 41
0010
0000
0100
0001
0110
0000
1000
0010
,  // measure 42
0100
0000
0001
0100
0010
0100
0001
0010
,  // measure 43
0100
0000
1000
0010
0100
0010
1000
0100
,  // measure 44
0010
0000
0001
0100
0010
1000
0100
0010
,  // measure 45
0001
0000
0010
0000
1001
0000
0010
0001
,  // measure 46
0100
0010
0100
0001
0000
0001
0010
0100
,  // measure 47
1000
0000
0100
1000
0010
1000
0100
0010
,  // measure 48
0001
0000
0010
0001
0100
0010
0100
0010
,  // measure 49
0100
1001
1100
0010
,  // measure 50
0001
0000
0010
0001
0010
0100
1000
0010
,  // measure 51
0100
0000
0010
0000
1000
0100
1000
0100
,  // measure 52
0010
0000
1001
0000
0010
0001
0010
0100
,  // measure 53
1000
0000
0110
0000
1001
0000
0100
1000
,  // measure 54
0010
0000
0010
1000
0010
1000
0100
0010
,  // measure 55
0001
0000
0100
0010
0100
0000
0001
1000
,  // measure 56
0001
0100
0001
1000
0000
0110
0000
0001
,  // measure 57
0010
0100
1000
0010
1000
0100
0010
0001
,  // measure 58
0010
0001
0100
0000
1001
0000
0010
1000
,  // measure 59
0100
1000
0100
0010
0001
0010
0100
0010
,  // measure 60
0001
0010
0100
0000
1001
0000
0010
1000
,  // measure 61
0100
0010
0001
0000
1001
0000
0010
0001
,  // measure 62
0100
0000
1010
0000
0001
0010
0100
1000
,  // measure 63
0010
0100
0010
0100
0010
0000
1001
0000
,  // measure 64
0010
1000
0100
0000
1001
0000
0100
0010
,  // measure 65
0001
0010
0100
1000
0001
1000
0000
0010
,  // measure 66
0100
0000
0011
0000
1001
0000
0100
1000
,  // measure 67
0100
0010
0001
0100
0001
0100
0010
0100
,  // measure 68
0001
1010
1001
0010
,  // measure 69
1000
0100
0010
0001
0000
0010
0001
0100
,  // measure 70
0010
0100
0010
1000
0000
0010
1000
0100
,  // measure 71
0010
0001
0100
0000
0110
0000
1001
0000
,  // measure 72
1100
0000
0010
0001
0100
0001
0010
0100
,  // measure 73
0000
1000
0001
0000
0000
0000
0000
0000
;

//---------------dance-single - ----------------
#NOTES:
     dance-single:
     :
     Beginner:
     1:
     0.096,0.129,0.009,0.000,0.000: // measure 1
0000
0000
0000
0000
,  // measure 2
0000
0000
0000
0000
,  // measure 3
0000
0000
0000
0000
,  // measure 4
0000
0000
0000
0000
,  // measure 5
0000
0000
1000
0000
,  // measure 6
0000
0000
1000
0000
,  // measure 7
0000
0000
0001
0000
,  // measure 8
0000
0000
0001
0000
,  // measure 9
0000
0000
0000
1000
,  // measure 10
0000
0000
0000
1000
,  // measure 11
0000
0000
0000
0010
,  // measure 12
0000
0000
0000
0010
,  // measure 13
0000
0000
0000
1000
,  // measure 14
0000
0000
0000
1000
,  // measure 15
0000
0000
0000
0010
,  // measure 16
0000
0000
0000
0010
,  // measure 17
0000
0000
0000
1000
,  // measure 18
0000
0000
0000
1000
,  // measure 19
0000
0000
0000
0001
,  // measure 20
0000
0000
0000
0001
,  // measure 21
0000
0000
0000
0100
,  // measure 22
0000
0000
0000
0100
,  // measure 23
0000
0000
0000
0010
,  // measure 24
0000
0000
0000
0010
,  // measure 25
0000
0000
0000
0100
,  // measure 26
0000
0000
0000
0100
,  // measure 27
0000
0000
0000
0010
,  // measure 28
0000
0000
0000
0010
,  // measure 29
0000
0000
0000
1000
,  // measure 30
0000
0000
0000
1000
,  // measure 31
0000
0000
0000
0001
,  // measure 32
0000
0000
0000
0001
,  // measure 33
0000
0000
0000
1000
,  // measure 34
0000
0000
0000
1000
,  // measure 35
0000
0000
0000
0010
,  // measure 36
0000
0000
0000
0010
,  // measure 37
0000
0000
0000
1000
,  // measure 38
0000
0000
0000
1000
,  // measure 39
0000
0000
0000
0001
,  // measure 40
0000
0000
0000
0001
,  // measure 41
0000
0000
0000
0100
,  // measure 42
0000
0000
0000
0100
,  // measure 43
0000
0000
0000
0010
,  // measure 44
0000
0000
0000
0010
,  // measure 45
0000
0000
0000
0100
,  // measure 46
0000
0000
0000
0100
,  // measure 47
0000
0000
0000
0010
,  // measure 48
0000
0000
0000
0010
,  // measure 49
0000
0000
0000
1000
,  // measure 50
0000
0000
0000
1000
,  // measure 51
0000
0000
0000
0001
,  // measure 52
0000
0000
0000
0001
,  // measure 53
0000
0000
0000
1000
,  // measure 54
0000
0000
0000
1000
,  // measure 55
0000
0000
0000
0001
,  // measure 56
0000
0000
0000
0001
,  // measure 57
0000
0000
1001
0000
,  // measure 58
0000
0000
0000
0000
,  // measure 59
0000
0000
0010
0000
,  // measure 60
0000
0000
0000
0000
,  // measure 61
0000
0000
0001
0000
,  // measure 62
1000
0000
0001
0000
,  // measure 63
0000
0000
0000
0100
,  // measure 64
0000
0010
0000
0100
,  // measure 65
0000
0000
0000
0001
,  // measure 66
0000
1000
0000
0001
,  // measure 67
0000
0000
0000
1000
,  // measure 68
0000
0001
0000
1000
,  // measure 69
0000
0000
0000
0010
,  // measure 70
0000
0010
0000
0100
,  // measure 71
0000
0100
0000
0001
,  // measure 72
0000
0001
0000
1000
,  // measure 73
0000
0001
0000
0000
;

//---------------dance-single - ----------------
#NOTES:
     dance-single:
     :
     Medium:
     5:
     0.302,0.322,0.062,0.000,0.000: // measure 1
0000
0000
0000
0000
,  // measure 2
0000
0000
0000
0000
,  // measure 3
0000
0000
0000
0000
,  // measure 4
0000
0000
0000
0000
,  // measure 5
0000
0000
0001
0010
,  // measure 6
0100
1000
1000
0100
,  // measure 7
0010
0001
0001
0010
,  // measure 8
0100
1000
1000
0010
,  // measure 9
0100
0001
0100
0010
,  // measure 10
0100
0010
1000
0000
,  // measure 11
0000
0001
0010
0100
,  // measure 12
1000
0010
0100
0001
,  // measure 13
0000
0100
0010
1000
,  // measure 14
0100
0010
0001
0100
,  // measure 15
0000
0010
1000
0100
,  // measure 16
0010
0001
0100
0010
,  // measure 17
0000
0000
0100
0010
,  // measure 18
1000
0000
0010
0100
,  // measure 19
0001
0010
0000
0001
,  // measure 20
1000
0010
1000
0100
,  // measure 21
1000
1000
1001
0010
,  // measure 22
0001
0100
0001
0010
,  // measure 23
0100
0000
1000
0010
,  // measure 24
0100
0000
0010
1000
,  // measure 25
0100
0010
0000
0001
,  // measure 26
1000
0001
0100
0010
,  // measure 27
1000
0100
1000
0000
,  // measure 28
0100
0000
0010
0000
,  // measure 29
0001
0000
0010
0001
,  // measure 30
0100
0010
0100
0010
,  // measure 31
1000
0100
1000
0000
,  // measure 32
0010
0000
0100
0000
,  // measure 33
0001
0000
0100
0010
,  // measure 34
0100
0010
1000
0001
,  // measure 35
1000
0000
0000
0001
,  // measure 36
1000
0001
1000
0010
,  // measure 37
0100
0010
0000
1000
,  // measure 38
1000
0000
0010
0100
,  // measure 39
0001
0000
0010
0010
,  // measure 40
0001
0010
0100
1000
,  // measure 41
0010
0100
0001
0000
,  // measure 42
1000
0000
0010
1000
,  // measure 43
0010
0000
0100
0001
,  // measure 44
0100
0000
0010
0100
,  // measure 45
0010
0000
1000
0000
,  // measure 46
0010
0000
0100
0001
,  // measure 47
0100
0001
0010
0100
,  // measure 48
1000
0000
0010
1000
,  // measure 49
0010
0010
0100
0000
,  // measure 50
0001
0000
0010
0100
,  // measure 51
1000
0000
0100
0010
,  // measure 52
0001
0000
0010
0100
,  // measure 53
1000
0010
0100
0000
,  // measure 54
0010
0000
1000
0100
,  // measure 55
0010
0001
0010
0100
,  // measure 56
1000
0010
0100
0100
,  // measure 57
0001
0010
1001
0100
,  // measure 58
0010
0100
0010
0000
,  // measure 59
1000
0010
1001
0010
,  // measure 60
0100
0010
0100
0000
,  // measure 61
0001
0010
1001
0100
,  // measure 62
0010
0100
0001
0010
,  // measure 63
0100
1000
1000
0100
,  // measure 64
0010
0001
0100
0100
,  // measure 65
0001
0010
1001
0100
,  // measure 66
0010
0100
0010
0000
,  // measure 67
1000
0100
1001
0010
,  // measure 68
0100
0010
0100
0000
,  // measure 69
0001
1000
0001
0010
,  // measure 70
0100
1000
0100
0001
,  // measure 71
0010
1000
0100
0100
,  // measure 72
1000
0010
0001
0100
,  // measure 73
1000
1001
0000
0000
;
