#TITLE:masquerade;
#SUBTITLE:;
#ARTIST:TËЯRA;
#TITLETRANSLIT:;
#SUBTITLETRANSLIT:;
#ARTISTTRANSLIT:TERRA;
#CREDIT:DMAxel;
#BANNER:masquerade.png;
#BACKGROUND:masquerade-bg.png;
#LYRICSPATH:masquerade.lrc;
#CDTITLE:pop'n music.png;
#MUSIC:masquerade.mp3;
#OFFSET:-10.360;
#SAMPLESTART:41.820;
#SAMPLELENGTH:12.000;
#SELECTABLE:YES;
#BPMS:0.000=120.000;
#STOPS:;
#BGCHANGES:;

//---------------dance-single - ----------------
#NOTES:
     dance-single:
     :
     Easy:
     3:
     0.251,0.291,0.133,0.091,0.000:
1000
1000
1000
1000
,
1000
0001
0001
0001
,
1000
1000
1000
1000
,
0001
0001
0001
0001
,
1001
1000
0001
1000
,
0010
0100
0010
0100
,
0001
0100
0001
0100
,
0010
1000
0010
1000
,
1001
0001
1000
0001
,
0100
0010
1000
0100
,
0010
0001
1000
0001
,
1000
0100
1000
0000
,
1001
0001
1000
0001
,
1000
0100
1000
0100
,
0010
0001
0010
0001
,
2000
0000
3001
0000
,
1002
0000
0000
0000
,
2003
0000
0000
0000
,
3001
0100
0010
1000
,
0002
0000
1003
0000
,
1000
0001
1000
0010
,
0100
0001
0100
0010
,
1000
0100
0010
0001
,
1000
0000
0000
0000
0001
1000
0001
0000
,
1001
0000
0000
0000
0010
0100
0010
0000
,
0110
0000
0000
0000
1000
0001
1000
0000
,
1001
0000
0000
0000
0100
0010
0100
0000
,
0110
0001
1000
0000
,
0002
0000
2003
0000
,
3002
0000
2003
0000
,
3020
0000
0000
0000
,
0130
0010
0100
0010
,
0100
0001
1000
0100
,
1000
0001
0010
0001
,
0010
0100
0010
0100
,
1000
0001
1000
0000
,
1001
0000
0000
0000
,
0001
0000
0000
0000
,
0001
0000
0001
0000
,
1000
0000
1000
0000
,
1001
0010
0100
1000
,
0001
1000
0001
1000
,
0100
0010
0001
0100
,
0010
0000
0000
0000
0100
0010
0100
0000
,
0110
0000
0000
0000
0001
1000
0001
0000
,
1001
0000
0000
0000
1000
0001
1000
0000
,
1001
0000
0000
0000
0010
0100
0010
0000
,
0110
0000
1000
0001
,
1000
0001
1000
0000
0001
1000
0001
0000
,
0100
0010
0100
0000
0010
0100
0010
0000
,
0100
0001
1000
0001
,
0100
0010
1000
0000
,
1001
0001
1000
0001
,
0220
0000
0000
0000
,
0330
0000
0000
0000
;

//---------------dance-single - ----------------
#NOTES:
     dance-single:
     :
     Medium:
     6:
     0.396,0.381,0.091,0.133,0.066:
0001
0000
0001
0000
0001
1000
0001
0000
,
1000
0000
1000
0000
1000
0001
1000
0000
,
0001
0000
0001
0000
0001
1000
0001
0000
,
1000
0000
1000
0000
1000
0001
1000
0001
,
0100
0010
0100
0000
0010
0100
0010
0000
,
1000
0010
1000
0000
0001
0010
0001
0000
,
0200
0000
0010
0000
0310
1000
0100
0001
,
0200
0000
0010
0000
0310
1000
0100
0001
,
0100
0010
0100
0000
0010
1000
0001
0010
,
0100
0000
1000
0001
1000
0000
0010
0100
,
0010
0000
0100
0001
1000
0100
0010
0000
,
0001
0000
0000
1000
0000
0000
0010
0000
0100
0000
0000
0000
0001
0000
0100
0000
,
1000
0001
1000
0000
0010
0100
0010
0000
,
0100
0001
1000
0100
0010
0000
0001
1000
,
0001
0000
0100
0010
0100
0000
0010
1000
,
0001
0000
0000
0001
0000
0000
1000
0000
0002
0000
0000
0000
0000
0000
0003
0000
,
1001
0000
1000
0000
1000
0100
0010
0001
,
1000
0000
1000
0000
1000
0001
0010
0100
,
1000
0001
1001
0001
,
0001
0010
0100
1000
0001
0100
0010
0100
,
0001
0010
0100
0000
1000
0001
1000
0000
,
0100
0010
0001
0100
0010
0100
0001
0000
,
1001
0000
0001
0010
0100
1000
0001
0000
,
1001
0000
0000
0010
1000
0100
0010
0001
,
1000
0000
0010
0100
0000
0000
0010
0000
1000
0000
0100
0000
0010
0000
0001
0000
,
1000
0000
0010
0100
0000
0000
0010
0000
1000
0000
0100
0000
0010
0000
0001
0000
,
1000
0000
0010
0100
0000
0000
0010
0000
1000
0000
0100
0000
0010
0000
0001
0000
,
1000
0100
0001
0100
1000
0000
0001
0001
,
0001
0000
0000
0100
0000
0000
0002
0000
0000
0000
0000
0000
0000
0000
0003
0000
,
1000
0000
0000
0010
0000
0000
2000
0000
0000
0000
0000
0000
0000
0000
3000
0000
,
0010
0000
0100
0000
0010
0000
0000
0200
0000
0000
0000
0000
0000
0000
0000
0000
,
0310
0000
0100
0000
0010
0000
0000
0200
0000
0000
0000
0000
0000
0000
0000
0000
,
0310
0100
0010
0000
1000
0010
1000
0000
,
0001
0010
0001
0000
0100
0010
0100
0000
,
0010
1000
0010
0000
0100
0001
0010
0100
,
1000
0001
1000
0001
1000
0000
0000
0000
,
2002
0000
3000
0000
,
2003
0000
0000
0000
,
3002
0000
0203
0000
,
0320
0000
2030
0000
,
3001
0100
0001
1000
0100
1000
0001
0000
,
1000
0010
1000
0001
0010
0000
0010
0000
,
1001
0001
1001
1000
,
1001
0000
0001
1000
0001
0010
0100
1000
,
0001
0000
0100
0010
0000
0000
0100
0000
0001
0000
0010
0000
0100
0000
1000
0000
,
0010
0000
0100
0010
0000
0000
0100
0000
0001
0000
0010
0000
0100
0000
1000
0000
,
0001
0000
0100
0010
0000
0000
0000
0000
0100
0000
0001
0000
0010
0000
0100
0000
,
1000
0000
0010
0100
0000
0010
0000
0000
0100
0000
0001
0000
0010
0000
0100
0000
,
1001
1000
0001
0000
1000
0100
0010
0001
,
0010
0100
0000
0010
0100
1000
0001
1000
,
1001
0000
0010
0100
0001
0010
0100
1000
,
0001
0000
0000
0100
0000
0000
0001
0000
1000
0000
0000
0000
0010
0000
1000
0000
,
0010
0000
0000
1000
0000
0000
0001
0000
0010
0000
0001
0000
1000
0000
0010
0000
,
0220
0000
0000
0000
,
0330
0000
0000
0000
;

//---------------dance-single - ----------------
#NOTES:
     dance-single:
     :
     Hard:
     8:
     0.530,0.537,0.182,0.216,0.435:
1001
0000
1000
0000
1000
0100
0010
0000
,
0001
0000
0001
0000
0001
0010
0100
0000
,
1000
0000
1000
0000
1000
0100
0010
0001
,
1000
0000
0000
0000
1000
0000
0000
0000
1000
0000
0001
0000
0100
0001
0100
0001
,
0100
0000
0010
0000
1000
0000
0000
0001
0000
0010
0000
0001
1000
0000
0001
0000
,
0100
0000
0010
0000
1000
0000
0000
0001
0000
0010
0000
0001
1000
0000
0001
0000
,
0100
0000
1000
0000
0010
0000
0000
0100
0000
0001
0000
0100
0010
0000
1000
0000
,
0100
0000
0001
0000
0010
0000
0000
0100
0000
1000
0000
0010
0100
0000
0001
0000
,
1001
0100
0010
0001
0100
1000
0100
0010
,
0001
0100
0001
1000
0100
0000
1000
0100
,
0001
0100
1000
0000
0001
0100
1000
0100
,
0001
0000
0000
0100
0000
0000
0001
0000
1000
0000
0100
0000
1000
0000
0100
0000
,
0010
0001
1000
0100
0001
0100
1000
0001
,
1000
0000
0000
0010
0000
0000
1000
0000
0001
0000
1000
0000
0100
0000
0010
0000
,
1001
0000
0000
0001
0000
0000
1000
0000
0100
0000
0010
0000
0001
0000
0100
0000
,
0110
0000
0000
0110
0000
0000
1000
0000
0002
0000
0000
0000
0000
0000
0003
0000
,
0201
0000
0000
0301
1000
0100
0010
0001
,
0200
0000
0010
0000
0310
1000
0100
0010
,
0002
0000
0103
0010
2000
0000
3100
0010
,
0002
0000
0000
1000
0000
0000
1003
0000
0001
0000
1000
0100
1000
0100
1000
0000
,
1001
0010
0100
1000
0001
0100
1000
0100
,
0001
0100
0010
0100
0001
1000
0001
0100
,
0110
0000
0000
0001
0000
0000
1000
0000
0010
0000
0100
0000
0001
0000
1000
0000
,
1001
0000
0000
0000
0000
0000
0001
0000
0100
0000
1000
0000
0100
0010
0100
0010
,
0100
0000
1000
0001
0000
0001
0000
0000
0001
0100
0001
0000
0100
0000
0010
0000
,
0100
0000
0001
1000
0000
1000
0000
0000
1000
0010
1000
0000
0010
0000
0100
0000
,
0110
0000
1000
0001
0000
0001
0000
0000
0110
0000
1000
0000
0100
0000
0001
0000
,
0100
0000
0000
0010
0000
0000
1000
0000
0001
1000
0000
0000
0010
0100
0010
0100
,
0020
0000
0000
0230
0000
0000
0302
0000
0000
1003
0000
1000
0001
0000
0001
0000
,
0200
0000
0000
0320
0000
0000
2030
0000
0000
3001
0000
0001
1000
0000
1000
0000
,
0000
0010
0100
0010
0100
0010
0000
1000
0000
0010
0000
0100
0000
0001
0000
0000
,
0000
0100
0010
0100
0010
0100
0000
0001
0000
0100
0000
0010
1000
0010
1000
0000
,
1001
0000
0100
0000
0010
0000
0001
0000
0000
1000
0000
1000
0001
0000
0001
0000
,
0010
0001
0010
0000
0100
0000
1000
0000
0000
0001
0000
0001
1000
0000
1000
0000
,
0000
0001
0100
0001
0100
0001
0000
1000
0000
0100
0000
0010
0000
0001
1000
0001
,
0000
1000
0010
1000
0010
1000
0000
0001
0000
0100
0000
0010
0000
0000
0000
0000
,
2002
0000
0000
3000
0103
0000
0001
0000
,
2000
0000
0000
3001
,
0100
0100
0200
0000
,
0320
0000
0230
0000
,
0301
0000
0100
0000
0010
0000
1000
0000
0010
0100
0010
0000
1000
0000
0001
0000
,
0200
0000
0000
0001
0000
0000
0301
0000
1000
0000
0010
0200
0000
0000
0310
0000
,
1001
0000
0000
0001
0000
0000
1000
0000
1100
0000
0000
0000
0001
0000
0010
0000
,
0011
0000
0000
0000
0100
0000
1000
0000
0001
0000
1000
0000
0010
0100
0010
0100
,
0010
0000
1000
0001
0000
0001
0100
0000
0001
1000
0000
0100
0000
0000
1000
0000
,
0001
0000
0100
0001
0000
0001
1000
0000
0100
1000
0100
0000
1000
0000
0001
0000
,
1001
0000
0001
1000
0000
1000
0010
0000
1001
0000
0100
0000
0010
0000
0001
0000
,
1000
0000
0010
1000
0000
1000
0001
0000
1000
0000
0010
0100
0010
0100
0010
0000
,
1001
0000
1000
0001
0000
0001
0100
0000
0010
1000
0010
0000
1000
0000
0001
0000
,
0100
0000
0001
0000
1000
0100
1000
0100
1000
0000
0001
0000
0100
0000
0010
0000
,
0110
0001
0010
0100
1001
0100
0010
0001
,
0200
0000
0000
0320
0000
0000
1030
0000
0001
1000
0000
0000
0010
0000
0010
0100
,
0010
0000
1000
0002
0000
0000
0103
0000
0010
1000
0000
0002
0000
0000
1003
0000
,
2002
0000
0000
0000
,
3003
0000
0000
0000
;

//---------------dance-single - ----------------
#NOTES:
     dance-single:
     :
     Challenge:
     9:
     0.642,0.627,0.199,0.149,0.713: // measure 1
1000
0100
1000
0100
1000
0100
1000
0100
,  // measure 2
0001
0100
0001
0100
0001
0100
0001
0100
,  // measure 3
1000
0010
1000
0010
1000
0010
1000
0010
,  // measure 4
0001
0000
0010
0000
0001
0000
0010
0000
1000
0010
0000
1000
0001
0010
0001
0010
,  // measure 5
0001
0000
0100
0010
0000
0100
0000
0001
0000
1000
0000
0100
1000
0100
1000
0000
,  // measure 6
0010
0000
0100
0010
0000
1000
0000
0100
0000
1000
0000
0001
0010
0001
0010
0000
,  // measure 7
0001
0000
1000
0010
0000
0100
0000
0010
0000
1000
0000
0001
0010
0000
0001
0000
,  // measure 8
1000
0000
0010
0100
0000
0001
0000
0010
0000
0001
1000
0010
1000
0010
1000
0000
,  // measure 9
1001
0000
0010
0000
0100
0000
1000
0010
1000
0000
0100
0000
0010
0000
0001
0000
,  // measure 10
0100
0001
0100
0000
0010
0000
1000
0000
0010
0100
0010
0000
1000
0000
0100
0000
,  // measure 11
0001
0000
0100
0010
0100
0000
0001
0000
1000
0000
0010
0100
0010
0000
1000
0000
,  // measure 12
0001
0000
0000
0100
0001
0000
1000
0000
0100
0000
1000
0000
0001
0100
0001
0100
,  // measure 13
0001
0000
0010
0000
0100
0000
1000
0010
1000
0000
0010
0000
0100
0000
0001
0100
,  // measure 14
0001
0000
0000
0100
0001
0000
1000
0000
0100
0000
1000
0001
1000
0001
1000
0000
,  // measure 15
1001
0000
0000
0010
1000
0000
0001
0010
0001
0000
0100
0001
0000
1000
0010
0000
,  // measure 16
0110
0000
0000
0110
0000
0000
0101
0000
2002
0000
0000
0000
0000
0000
3003
0000
,  // measure 17
1200
0000
0000
1300
0001
0100
1000
0100
,  // measure 18
0010
0000
0001
1000
0001
0000
0000
0000
0101
0000
1000
0000
0100
0000
0010
0000
,  // measure 19
0110
0000
0001
0100
0110
0000
1000
0010
,  // measure 20
0110
0000
0000
0000
0000
1000
0001
0000
0100
0000
0001
0010
0100
1000
0001
0000
,  // measure 21
1001
0000
0001
0000
1000
0100
1000
0100
1000
0000
0001
0000
0100
0000
0010
0000
,  // measure 22
2000
0000
0000
0000
3001
0100
0001
0000
1000
0000
0100
0000
0001
0000
0100
0000
,  // measure 23
1010
0000
0000
0001
0000
0000
1000
0000
0100
0000
0001
1000
0001
0000
1000
0000
,  // measure 24
1001
0000
0001
0000
1000
0100
1000
0000
0001
0100
0001
0000
0100
0010
0100
0010
,  // measure 25
0100
0001
1000
0010
0000
0010
1000
0000
0001
0010
0001
0010
0001
0000
1000
0000
,  // measure 26
0010
1000
0001
0100
0000
0100
0001
0000
1000
0100
1000
0100
1000
0000
0010
0000
,  // measure 27
0110
0000
0001
1000
0000
1000
0001
0000
0100
0010
0100
0010
0100
0000
0001
0000
,  // measure 28
1000
0000
0010
0100
0000
0100
0010
0000
1000
0001
0000
0001
1000
0100
0010
0001
,  // measure 29
0100
0000
0001
0100
0000
0001
0200
0000
0000
0301
0000
0001
1000
0000
1000
0000
,  // measure 30
0010
0000
1000
0010
0000
1000
0020
0000
0000
1030
0000
1000
0001
0000
0001
0000
,  // measure 31
0100
0001
0100
0001
1000
0100
0000
1000
0001
1000
0000
0010
0100
0010
0100
0001
,  // measure 32
0000
0100
0001
0100
0001
1000
0000
0010
0100
0010
0000
0100
0001
1000
0100
0010
,  // measure 33
0001
0000
0100
0001
0000
0001
2000
0000
0000
3001
0000
0100
0010
0000
0010
0000
,  // measure 34
1000
0000
0010
1000
0000
1000
0002
0000
0000
1003
0000
0010
0100
0000
0100
0000
,  // measure 35
0001
0100
0001
1000
0100
1000
0000
0001
0100
0001
0000
0100
0010
1000
0100
1000
,  // measure 36
0000
0100
1000
0100
1000
0001
0000
0100
0001
1000
0000
1000
0000
0000
0000
0000
,  // measure 37
1002
0000
0000
1003
0010
0100
0001
1000
,  // measure 38
2000
0000
0001
0000
0001
0000
0000
3000
,  // measure 39
0002
0203
0302
2003
,  // measure 40
3010
0000
0000
0010
0000
0000
0100
0000
0002
0000
0000
0000
0000
0000
0000
0000
,  // measure 41
1003
0000
0010
1000
0010
0000
1000
0000
0010
0100
0010
0000
1000
0000
0001
0000
,  // measure 42
0200
0000
0000
0001
0000
0000
0301
0000
1000
0000
0010
0100
0010
0000
0010
0000
,  // measure 43
1001
0000
0000
0010
1000
0000
0001
0000
1001
0000
0000
0100
0001
0000
1000
0000
,  // measure 44
1001
0000
0000
0010
1000
0000
0001
0000
0010
0000
0001
0000
1000
0010
1000
0010
,  // measure 45
1000
0010
0100
0001
0000
0001
1000
0000
0010
0100
0010
0100
0010
0000
1000
0000
,  // measure 46
0001
0100
0010
1000
0000
1000
0010
0000
0100
0010
0100
0010
0100
0000
0001
0000
,  // measure 47
1001
0000
1000
0001
0000
0001
0010
0000
0001
1000
0001
1000
0001
0000
0100
0000
,  // measure 48
0001
0100
0001
1000
0000
1000
0100
0000
1000
0001
1000
0001
0100
0001
0100
0000
,  // measure 49
1001
0000
0001
1000
0000
1000
0100
0000
1000
0001
1000
0000
0001
0000
0100
0000
,  // measure 50
0001
0100
0001
0000
0100
0010
0100
0010
0100
0000
0001
0000
1000
0100
1000
0000
,  // measure 51
1100
0000
0010
0001
0011
0000
0100
1000
,  // measure 52
0010
0000
0100
0010
0100
0000
0001
0100
0001
1000
0000
0100
0000
1000
0100
0010
,  // measure 53
0001
0000
0100
0001
0000
0001
1000
0000
0010
1000
0000
0100
0000
1000
0001
0000
,  // measure 54
2002
0000
0000
0000
,  // measure 55
3003
0000
0000
0000
;

//---------------dance-single - ----------------
#NOTES:
     dance-single:
     :
     Beginner:
     1:
     0.077,0.110,0.041,0.000,0.000:
1000
0000
0000
0000
,
1000
0000
0000
0000
,
1000
0000
0000
0000
,
1000
0000
0000
0000
,
0001
0000
0000
0000
,
0001
0000
0000
0000
,
0001
0000
0000
0000
,
0001
0000
0000
0000
,
0100
0000
0000
0000
,
0010
0000
0000
0000
,
0100
0000
0000
0000
,
0010
0000
0000
0000
,
1000
0000
0000
0000
,
0001
0000
0000
0000
,
1000
0000
0000
0000
,
1001
0000
0000
0000
,
0001
0000
0000
0000
,
0000
0000
0000
0000
,
0010
0000
0000
0000
,
0000
0000
0000
0000
,
0100
0000
0000
0000
,
0000
0000
0000
0000
,
1000
0000
0000
0000
,
0001
0000
0000
0000
,
1001
0000
0000
0000
,
1000
0000
0000
0000
,
0001
0000
0000
0000
,
1000
0000
0000
0000
,
0010
0000
0000
0000
,
0010
0000
0000
0000
,
0010
0000
0000
0000
,
0010
0000
0000
0000
,
0100
0000
0000
0000
,
0010
0000
0000
0000
,
0100
0000
0000
0000
,
0100
0000
0000
0000
,
1001
0000
0000
0000
,
0000
0000
0000
0000
,
0001
0000
0001
0000
,
0001
0000
0000
0000
,
1001
0000
1000
0000
,
0001
0000
0000
0000
,
1000
0000
0001
0000
,
1000
0000
0000
0000
,
0001
0000
0100
0000
,
0010
0000
1000
0000
,
0001
0000
1000
0000
,
0001
0000
0000
0000
,
1000
0000
0010
0000
,
0100
0000
0001
0000
,
1000
0000
0001
0000
,
1000
0000
0000
0000
,
0001
0000
1000
0000
,
1001
0000
0000
0000
;
