#TITLE:marlie-chang;
#SUBTITLE:(K-darta Mix);
#ARTIST:Yuji Kano feat. sasazuka ittukenya;
#TITLETRANSLIT:;
#SUBTITLETRANSLIT:;
#ARTISTTRANSLIT:;
#CREDIT:DMAxel;
#BANNER:marlie-chang (K-darta mix).png;
#BACKGROUND:marlie-chang (K-darta mix)-bg.png;
#LYRICSPATH:;
#CDTITLE:Beatmania.png;
#MUSIC:marlie-chang (K-darta mix).mp3;
#OFFSET:-2.340;
#SAMPLESTART:44.235;
#SAMPLELENGTH:12.000;
#SELECTABLE:YES;
#BPMS:0.000=120.060;
#STOPS:;
#BGCHANGES:;

//---------------dance-single - ----------------
#NOTES:
     dance-single:
     :
     Easy:
     2:
     0.160,0.185,0.062,0.103,0.000: // measure 1
0000
0000
0000
0000
,  // measure 2
0000
0000
0000
0000
,  // measure 3
0000
0000
0000
0000
,  // measure 4
0000
0000
0000
0000
,  // measure 5
0000
0000
0000
0000
,  // measure 6
1000
1000
0001
0000
,  // measure 7
0100
0100
0010
0000
,  // measure 8
1000
1000
0100
0000
,  // measure 9
0020
0000
0000
0000
,  // measure 10
0031
0001
1000
0000
,  // measure 11
0100
0100
1000
0000
,  // measure 12
0010
0010
0100
0000
,  // measure 13
0001
1000
0000
0000
,  // measure 14
1001
0000
0010
0000
,  // measure 15
0100
0100
0100
0100
,  // measure 16
1001
0000
0010
0000
,  // measure 17
0100
0100
0010
0010
,  // measure 18
1001
0000
0100
0000
,  // measure 19
0010
0010
0100
0100
,  // measure 20
1001
0000
0010
0000
,  // measure 21
0200
0000
0000
0000
,  // measure 22
0302
0000
0000
0000
,  // measure 23
2003
0000
0000
0000
,  // measure 24
3200
0000
0000
0000
,  // measure 25
0320
0000
0000
0000
,  // measure 26
0031
0000
1000
0000
,  // measure 27
0001
0000
0100
0000
,  // measure 28
0010
0000
0010
0000
,  // measure 29
1001
0000
0000
0000
,  // measure 30
0100
0000
0100
0000
,  // measure 31
0020
0000
0000
0000
,  // measure 32
1030
0000
1000
0000
,  // measure 33
0002
0000
0000
0000
,  // measure 34
0013
0000
0010
0000
,  // measure 35
0020
0000
0000
0000
,  // measure 36
0031
0000
1000
0000
,  // measure 37
2000
0000
0000
0000
,  // measure 38
3100
0100
1000
0000
,  // measure 39
0010
0010
0100
0000
,  // measure 40
0001
0001
0010
0001
,  // measure 41
1000
1000
0100
0000
,  // measure 42
1000
1000
0010
0000
,  // measure 43
0100
0100
0010
0000
,  // measure 44
1000
0100
1000
0001
,  // measure 45
0100
0100
0010
0010
,  // measure 46
1001
0000
0000
0000
;

//---------------dance-single - ----------------
#NOTES:
     dance-single:
     :
     Hard:
     6:
     0.341,0.370,0.031,0.092,0.000: // measure 1
0000
0000
0000
0000
,  // measure 2
0000
0000
0000
0000
,  // measure 3
0000
0000
0000
0000
,  // measure 4
0000
0000
0000
0000
,  // measure 5
0000
0000
0000
0000
,  // measure 6
0001
0000
0010
0000
0100
1000
0100
0000
,  // measure 7
1000
0000
0100
0000
0010
0001
0010
0000
,  // measure 8
0001
0000
0100
0000
0010
1000
0010
0000
,  // measure 9
2000
0000
3100
0010
,  // measure 10
0001
0100
0010
0000
0010
0000
0010
0000
,  // measure 11
0100
0010
1000
0000
1000
0000
1000
0000
,  // measure 12
0010
0100
0001
0000
0001
0000
0001
0000
,  // measure 13
0200
0320
0000
0000
,  // measure 14
1030
0100
1000
0001
,  // measure 15
0100
0010
1000
0100
0010
0001
0100
0010
,  // measure 16
1000
0000
0100
0000
1000
0010
0100
0001
,  // measure 17
0020
0000
0002
0033
,  // measure 18
1100
0010
0001
0010
,  // measure 19
0001
0010
0100
1000
0010
0100
0010
0100
,  // measure 20
0002
0000
0000
0000
0103
0010
0100
0010
,  // measure 21
1000
0000
1001
0000
0010
0100
0001
0000
,  // measure 22
2000
0010
0010
3010
,  // measure 23
0002
0100
0100
0103
,  // measure 24
0010
0000
0010
0100
0010
0000
1000
0000
,  // measure 25
0002
1000
1000
1003
,  // measure 26
0001
0010
0100
0000
0100
0010
0001
0000
,  // measure 27
1000
0100
0010
0000
0010
0100
1000
0000
,  // measure 28
0001
0000
0100
0010
0100
0000
0010
0000
,  // measure 29
1000
0100
0010
0001
0010
0100
1000
0000
,  // measure 30
0010
0000
0100
0000
0010
0000
1000
0001
,  // measure 31
0000
0001
0010
0100
1000
0100
0010
0001
,  // measure 32
0100
0001
0010
0001
0100
0001
0010
0001
,  // measure 33
1000
0100
0010
0001
,  // measure 34
0100
0010
0100
0000
0100
0010
1000
0001
,  // measure 35
0000
0001
0010
0100
1000
0100
0010
0001
,  // measure 36
1000
0100
1000
0010
1000
0100
1000
0010
,  // measure 37
1000
0100
0010
0001
,  // measure 38
1000
0100
0010
0000
0010
0100
1000
0000
,  // measure 39
0001
0010
0100
0000
0100
0010
0001
0000
,  // measure 40
0100
0000
0001
0010
0100
1000
0100
0000
,  // measure 41
1000
0100
0010
0001
0010
0100
1000
0000
,  // measure 42
0001
0100
0010
0000
0010
0100
0001
0000
,  // measure 43
1000
0010
0100
0000
0100
0010
1000
0000
,  // measure 44
0010
0000
1000
0100
0010
0001
0010
0000
,  // measure 45
0001
0010
0100
1000
0100
0010
0001
0100
,  // measure 46
1001
0000
0000
0000
;

//---------------dance-single - ----------------
#NOTES:
     dance-single:
     :
     Challenge:
     7:
     0.433,0.439,0.185,0.144,0.103: // measure 1
0000
0000
0000
0000
,  // measure 2
0000
0000
0000
0000
,  // measure 3
0000
0000
0000
0000
,  // measure 4
0000
0000
0000
0000
,  // measure 5
0000
0000
0000
0000
,  // measure 6
1000
0100
1000
0010
1000
0100
1000
0000
,  // measure 7
0001
0010
0001
0100
0001
0010
0001
0000
,  // measure 8
1000
0010
1000
0001
1000
0010
1000
0000
,  // measure 9
0001
0100
0001
1000
0001
0100
0001
0000
,  // measure 10
1000
0000
0100
0000
1000
0000
0010
0000
0100
0010
0000
0000
0100
0000
0000
0000
,  // measure 11
0001
0000
0010
0000
0001
0000
0100
0000
0010
0100
0000
0000
0010
0000
0000
0000
,  // measure 12
1000
0000
0010
0000
0100
0000
0001
0000
0100
0010
0000
0000
0100
0000
0000
0000
,  // measure 13
0002
0000
0023
0000
0230
0000
2300
0000
3001
0010
0000
0000
0011
0000
0000
0000
,  // measure 14
0100
1000
0100
0000
0100
1000
0010
0000
,  // measure 15
0010
1000
0100
0001
0100
1000
0001
1000
,  // measure 16
0020
0000
0130
0000
0001
0010
1000
0010
,  // measure 17
0001
0000
0010
0000
0001
1000
0000
0001
1000
0000
0010
0000
0100
0000
0010
0000
,  // measure 18
1001
1100
0011
1001
,  // measure 19
0010
0001
0100
1000
0100
0001
1000
0001
,  // measure 20
2000
0000
0000
0000
3001
0100
1000
0100
,  // measure 21
0001
0000
0100
0000
0010
0100
0000
0010
0100
0000
0001
0000
1000
0000
0100
0000
,  // measure 22
0002
0000
0010
0000
1000
0010
1003
0000
,  // measure 23
2000
0000
0010
0000
0001
0010
3001
0000
,  // measure 24
0002
0000
0100
0000
1000
0100
1003
0000
,  // measure 25
2000
0000
0100
0000
0001
0100
3001
0000
,  // measure 26
1000
0100
0001
0100
1000
0100
0010
0000
,  // measure 27
0001
0010
1000
0010
0001
0010
0100
0000
,  // measure 28
1001
0000
0010
0100
0001
0010
1000
0000
,  // measure 29
0001
0100
1000
0100
0001
0100
0010
0000
,  // measure 30
0200
0000
0001
0000
1000
0000
0301
1000
,  // measure 31
0000
1000
0100
0010
0001
0010
0001
0010
,  // measure 32
1000
0100
0001
0100
1000
0100
0010
0001
,  // measure 33
0010
0000
0001
0000
1000
0100
0000
1000
0001
0000
1000
0000
0001
0000
0000
0000
,  // measure 34
0010
0001
0010
0000
0010
0001
0100
1000
,  // measure 35
0000
0000
1000
0000
0100
0000
0010
0000
0001
0010
0000
0000
0011
0000
0000
0000
,  // measure 36
1000
0100
0001
0100
1000
0100
0010
0001
,  // measure 37
0010
0000
0001
0000
1000
0000
0100
0000
1000
0010
0000
0000
1010
0000
0000
0000
,  // measure 38
1002
0000
0010
0000
1000
0010
1003
0000
,  // measure 39
2001
0000
0010
0000
0001
0010
3001
0000
,  // measure 40
1001
0000
1000
0100
0001
0100
1000
0000
,  // measure 41
1002
0000
0100
0000
1000
0100
1003
0000
,  // measure 42
1100
0000
0000
0000
0011
0000
0000
0000
0100
0010
0000
0000
1000
0000
0000
0000
,  // measure 43
0101
0000
0000
0000
1010
0000
0000
0000
0010
0100
0000
0000
0001
0000
0000
0000
,  // measure 44
1001
0000
0010
0100
0001
0000
1001
0000
,  // measure 45
0001
0010
0000
0000
0001
0010
0000
0000
0100
1000
0100
1000
0001
1000
0001
1000
,  // measure 46
0001
0000
0000
0000
;

//---------------dance-single - ----------------
#NOTES:
     dance-single:
     :
     Medium:
     5:
     0.275,0.324,0.041,0.072,0.000: // measure 1
0000
0000
0000
0000
,  // measure 2
0000
0000
0000
0000
,  // measure 3
0000
0000
0000
0000
,  // measure 4
0000
0000
0000
0000
,  // measure 5
0000
0000
0000
0000
,  // measure 6
0001
1000
0010
0010
,  // measure 7
0100
0010
1000
1000
,  // measure 8
0010
0100
0001
0001
,  // measure 9
1000
0001
1000
1000
,  // measure 10
0010
0010
0100
0010
,  // measure 11
1000
1000
0001
0100
,  // measure 12
0010
0010
1000
0100
,  // measure 13
2000
0000
0000
0000
,  // measure 14
3001
0001
0100
0100
,  // measure 15
0010
1000
0100
0000
0010
0001
0100
0000
,  // measure 16
1001
0100
1000
1000
,  // measure 17
0010
0100
0010
0000
1000
0001
1000
0000
,  // measure 18
0010
0010
0100
0100
,  // measure 19
0001
0010
0100
0000
1000
0100
0010
0000
,  // measure 20
1001
0000
0100
0000
0010
1000
0100
0010
,  // measure 21
0001
0100
0010
0010
,  // measure 22
2000
0000
0001
3001
,  // measure 23
0020
0000
0100
0130
,  // measure 24
1000
0100
0010
0001
,  // measure 25
2000
0000
0001
3001
,  // measure 26
0100
0000
0010
0000
1000
0100
1000
0000
,  // measure 27
0010
0000
0100
0000
0001
0010
0001
0000
,  // measure 28
1000
0010
0100
0001
,  // measure 29
0010
0100
1000
0000
0100
0010
0001
0000
,  // measure 30
1001
0100
0010
0010
,  // measure 31
1000
0100
0010
0001
,  // measure 32
0100
0010
0100
0000
0001
1000
0001
0000
,  // measure 33
1000
1000
0010
0010
,  // measure 34
0100
0010
0100
0000
0001
0010
0001
0010
,  // measure 35
0000
0100
1000
0000
0100
0000
0010
0000
,  // measure 36
0001
0100
0001
0000
1000
0100
1000
0000
,  // measure 37
0010
0010
0100
0100
,  // measure 38
0002
0000
1000
1003
,  // measure 39
2000
0000
0001
3001
,  // measure 40
0100
0100
0010
0010
,  // measure 41
2000
0000
0001
3001
,  // measure 42
0010
0000
0001
0000
0100
0010
0100
0000
,  // measure 43
0010
0000
1000
0000
0010
0100
0010
0000
,  // measure 44
1000
0100
0010
0001
,  // measure 45
0100
0010
0100
0010
0100
0001
1000
0000
,  // measure 46
1001
0000
0000
0000
;

//---------------dance-single - ----------------
#NOTES:
     dance-single:
     :
     Beginner:
     1:
     0.097,0.185,0.082,0.000,0.000:
0000
0000
0000
0000
,
0000
0000
0000
0000
,
0000
0000
0000
0000
,
0000
0000
0000
0000
,
0000
0000
0000
0000
,
1000
0000
0000
0000
,
0100
0000
0000
0000
,
1000
0000
0000
0000
,
0010
0000
0000
0000
,
0100
0000
0000
0000
,
0010
0000
0000
0000
,
0100
0000
0000
0000
,
0001
0000
0000
0000
,
1001
0000
0000
0000
,
1000
0000
0000
0000
,
0100
0000
0000
0000
,
1000
0000
0000
0000
,
0010
0000
0000
0000
,
0100
0000
0000
0000
,
0001
0000
0000
0000
,
0010
0000
0000
0000
,
0001
0000
0001
0000
,
0001
0000
0001
0000
,
1000
0000
1000
0000
,
1000
0000
1000
0000
,
0010
0000
0010
0000
,
0010
0000
0010
0000
,
0100
0000
0100
0000
,
0100
0000
0100
0000
,
1001
0000
0000
0000
,
0010
0000
0000
0000
,
1001
0000
0000
0000
,
0100
0000
0000
0000
,
0001
0000
0010
0000
,
0100
0000
0000
0000
,
1000
0000
0100
0000
,
0010
0000
0000
0000
,
1001
0000
0001
0000
,
1001
0000
1000
0000
,
1001
0000
0001
0000
,
1001
0000
1000
0000
,
0010
0000
0100
0000
,
0010
0000
0100
0000
,
0001
0000
1000
0000
,
0001
0000
0000
0000
,
1001
0000
0000
0000
;
