#TITLE:jet coaster☆girl;
#SUBTITLE:;
#ARTIST:TOMOSUKE feat. Three Berry Icecream;
#TITLETRANSLIT:jet coaster girl;
#SUBTITLETRANSLIT:;
#ARTISTTRANSLIT:;
#CREDIT:DMAxel;
#BANNER:jet coaster girl.png;
#BACKGROUND:jet coaster girl-bg.png;
#LYRICSPATH:jet coaster girl.lrc;
#CDTITLE:GUITAR FREAKS & drummania.png;
#MUSIC:jet coaster girl.mp3;
#OFFSET:-8.340;
#SAMPLESTART:46.278;
#SAMPLELENGTH:12.000;
#SELECTABLE:YES;
#BPMS:0.000=177.000;
#STOPS:;
#BGCHANGES:;

//---------------dance-single - ----------------
#NOTES:
     dance-single:
     :
     Easy:
     4:
     0.303,0.329,0.102,0.113,0.000: // measure 1
0001
1000
0001
0000
,  // measure 2
0100
0001
0100
1000
,  // measure 3
0100
0000
0001
0100
,  // measure 4
1000
0100
0010
0001
,  // measure 5
1000
0100
0000
1000
,  // measure 6
0000
0100
0000
1000
,  // measure 7
0000
0001
0000
0100
,  // measure 8
0000
0001
0000
0010
,  // measure 9
0000
0001
0000
1000
,  // measure 10
0000
0001
0000
0010
,  // measure 11
0000
0001
0000
1000
,  // measure 12
0000
0001
1000
0001
,  // measure 13
1000
0100
1000
0001
,  // measure 14
0100
0001
1000
0100
,  // measure 15
1000
0001
0100
0001
,  // measure 16
1000
0100
0010
0001
,  // measure 17
1000
0100
1000
0001
,  // measure 18
0100
0001
1000
0100
,  // measure 19
1000
0001
0010
0001
,  // measure 20
1000
0100
0010
0001
,  // measure 21
2001
0000
0002
0000
,  // measure 22
0000
0000
3003
0000
,  // measure 23
0020
0000
0200
0000
,  // measure 24
0000
0000
0330
0000
,  // measure 25
2001
0000
0002
0000
,  // measure 26
0000
0000
3003
0000
,  // measure 27
0001
0000
0000
0000
1000
0000
0000
0001
,  // measure 28
0000
1000
0000
0001
0000
1000
0000
0000
,  // measure 29
0001
0100
0001
0100
,  // measure 30
0001
1000
0100
0010
,  // measure 31
0001
1000
0001
1000
,  // measure 32
0100
0010
0100
1000
,  // measure 33
0010
1000
0010
1000
,  // measure 34
0010
1000
0001
0010
,  // measure 35
0100
0000
1001
0000
0000
0000
0000
1000
,  // measure 36
0000
0001
0000
1000
0000
0001
0000
2000
,  // measure 37
0000
0000
0000
0000
3001
0000
0000
1000
,  // measure 38
0000
0001
0000
0010
0000
0100
0000
0000
,  // measure 39
1000
1001
0000
0000
,  // measure 40
0000
0000
0000
0000
,  // measure 41
1001
0000
0000
0000
0020
0000
0000
0031
,  // measure 42
0000
1000
0000
0100
0000
0010
0000
0000
,  // measure 43
0001
1001
0000
0000
,  // measure 44
0000
0000
0000
0000
,  // measure 45
1001
0000
0000
0000
1000
0000
0000
0002
,  // measure 46
0000
0000
1003
0000
,  // measure 47
0010
0100
0010
0100
,  // measure 48
0010
1000
0010
1000
,  // measure 49
0001
0100
0001
0100
,  // measure 50
0001
1000
0001
0000
,  // measure 51
0100
0010
0100
0010
,  // measure 52
1000
0010
1000
0010
,  // measure 53
0100
0001
0100
0001
,  // measure 54
1000
1001
0000
0000
,  // measure 55
0010
0100
0010
1000
,  // measure 56
0001
0100
1000
0100
,  // measure 57
0001
0000
1000
0100
,  // measure 58
0010
0001
1000
0010
,  // measure 59
0100
0010
0100
0001
,  // measure 60
0010
1000
0010
0001
,  // measure 61
0000
0010
0001
1000
,  // measure 62
0100
0010
0100
0110
,  // measure 63
2002
0000
0000
0000
,  // measure 64
0000
0000
0000
0000
,  // measure 65
0000
3003
0000
0000
;

//---------------dance-single - ----------------
#NOTES:
     dance-single:
     :
     Medium:
     6:
     0.436,0.461,0.338,0.164,0.000: // measure 1
0001
0000
1001
0000
1000
0010
0100
0001
,  // measure 2
0000
0010
0000
0100
0000
1000
0000
0001
,  // measure 3
2000
0000
0000
0000
3001
0100
0010
1000
,  // measure 4
0000
0100
0000
0010
0000
0001
1000
0000
,  // measure 5
1001
0010
0100
1000
,  // measure 6
0001
0100
0010
0100
,  // measure 7
0001
1000
0001
1000
,  // measure 8
0100
0010
0001
1000
,  // measure 9
0010
0100
0001
0100
,  // measure 10
0010
0100
0001
0010
,  // measure 11
0100
1000
0001
1000
,  // measure 12
0100
0010
0001
1001
,  // measure 13
1000
1100
1000
1100
,  // measure 14
0001
0101
0001
0101
,  // measure 15
1000
1001
0001
1001
,  // measure 16
0010
0110
0110
0110
,  // measure 17
0001
0011
0001
0011
,  // measure 18
1000
1010
1000
1010
,  // measure 19
0001
1001
1000
1001
,  // measure 20
1000
0000
0001
0000
0100
0010
0100
0000
,  // measure 21
0002
0000
0000
0000
2003
0000
0000
0001
,  // measure 22
0000
0001
3000
0100
0000
0010
0000
0000
,  // measure 23
2000
0000
0000
0000
3002
0000
0000
1000
,  // measure 24
0000
1003
0000
0010
0000
0100
0000
0000
,  // measure 25
2001
0000
3020
0000
,  // measure 26
0100
0000
0130
0000
,  // measure 27
0001
0000
0000
0000
1000
0010
0000
0100
,  // measure 28
0000
0001
0000
1000
0000
0010
0000
0000
,  // measure 29
1001
0000
0010
0000
0001
0010
0001
0000
,  // measure 30
1000
0000
0010
0100
0010
0000
1000
0000
,  // measure 31
0001
0000
0010
0000
0001
0000
1000
0010
,  // measure 32
0000
0100
0000
0001
0000
1000
0000
0001
,  // measure 33
1000
0000
0100
0000
1000
0100
1000
0000
,  // measure 34
0001
0000
0100
0010
0100
0000
0001
0000
,  // measure 35
1000
0000
1001
0000
0000
0100
0010
0100
,  // measure 36
0000
0001
0000
0010
0000
0100
0000
1001
,  // measure 37
0000
0000
0000
0000
0100
1000
0000
0001
,  // measure 38
0000
0100
0000
0010
0000
1000
0000
0000
,  // measure 39
0110
0220
0000
0000
,  // measure 40
0000
0000
0000
0330
,  // measure 41
1001
0000
0000
0000
0001
0100
0010
1000
,  // measure 42
0000
0010
0000
0100
0000
0001
0000
0000
,  // measure 43
1001
2002
0000
0000
,  // measure 44
0000
0000
0000
3003
,  // measure 45
0110
0000
0001
0000
1000
0001
0000
0200
,  // measure 46
0000
0000
0301
0000
0001
1000
0001
0000
,  // measure 47
1000
0001
0000
0100
0000
0100
0000
0100
,  // measure 48
0001
1000
0000
0010
0000
0010
0000
0010
,  // measure 49
1000
0001
0000
0001
0000
0001
0000
0001
,  // measure 50
1000
0100
0000
0100
0000
0100
0000
0100
,  // measure 51
1000
0010
0000
0010
0000
0010
0000
0010
,  // measure 52
1000
0001
0000
0001
0000
0001
0000
0001
,  // measure 53
1000
0000
0001
0010
0100
1000
0001
0000
,  // measure 54
1001
1001
0000
0000
,  // measure 55
1000
0000
1001
0000
1000
0010
0100
0001
,  // measure 56
0000
0010
0000
0100
0000
1000
0000
0002
,  // measure 57
0000
0000
1003
0000
0001
0100
0010
1000
,  // measure 58
0000
0100
0000
0010
0000
0001
1000
0000
,  // measure 59
0010
0000
0110
0000
1000
0100
0010
0001
,  // measure 60
0000
0100
0000
0010
0000
1000
0000
0002
,  // measure 61
0000
0000
1003
0000
0001
0010
0100
1000
,  // measure 62
0000
0010
0000
0100
0000
0001
1000
0000
,  // measure 63
2002
0000
0000
0000
,  // measure 64
0000
0000
0000
0000
,  // measure 65
0000
3003
0000
0000
;

//---------------dance-single - ----------------
#NOTES:
     dance-single:
     :
     Hard:
     8:
     0.552,0.559,0.543,0.133,0.000: // measure 1
1001
0000
0100
0000
0010
1000
0100
0010
,  // measure 2
0000
0101
0000
0010
0000
0101
0000
2001
,  // measure 3
0000
0000
3010
0000
0100
0001
0010
0100
,  // measure 4
0000
1010
0000
0100
0000
1000
0001
0100
,  // measure 5
0101
0000
1000
0000
0001
0000
0100
0001
,  // measure 6
0000
1000
0000
0100
0000
1000
0000
0001
,  // measure 7
0100
0002
0000
1000
0000
1003
0000
0010
,  // measure 8
1000
0001
0000
0001
0000
0010
0100
1000
,  // measure 9
0001
0000
0100
0000
0001
0000
0100
0010
,  // measure 10
0000
1000
0000
0100
0000
1000
0000
0001
,  // measure 11
0000
1000
0010
2000
0000
0001
0000
3001
,  // measure 12
0000
0100
0001
1000
0100
0000
1100
0000
,  // measure 13
0001
0000
0101
0000
1000
0100
1100
0000
,  // measure 14
0001
0000
0011
0000
1000
0010
1010
0000
,  // measure 15
0010
0110
1000
1001
,  // measure 16
0010
0100
0110
0000
1001
0000
1001
0000
,  // measure 17
0010
0100
0001
0000
0001
1000
0100
0000
,  // measure 18
0010
0001
1001
0000
0100
0010
1000
0000
,  // measure 19
1000
0001
0100
0000
0010
1000
1001
0000
,  // measure 20
0010
0100
0001
0000
0001
1000
0010
0000
,  // measure 21
2001
0000
0100
0000
,  // measure 22
0000
0001
0000
0000
3001
0000
0101
0000
,  // measure 23
1002
0000
0000
0000
0100
0000
0000
1000
,  // measure 24
0000
1000
0003
1000
0010
0100
0010
0000
,  // measure 25
2001
0000
0000
0000
0100
0000
0000
0001
,  // measure 26
0000
0001
0000
3001
0100
0000
0010
0000
,  // measure 27
1001
0000
0000
0000
0100
1000
0000
0001
,  // measure 28
0000
0101
0000
1000
0000
1100
0000
0001
,  // measure 29
0100
0001
0000
1000
0000
0100
1000
0001
,  // measure 30
0000
0100
0001
1000
0100
1000
0000
0001
,  // measure 31
0100
0001
0000
1000
0000
0100
0000
0010
,  // measure 32
0100
1000
0000
0010
0100
0001
0000
1000
,  // measure 33
0010
1000
0000
0001
0000
0010
0001
1000
,  // measure 34
0000
0010
1000
0001
0010
0001
0000
1000
,  // measure 35
0010
1000
1001
0000
1000
0001
0010
0100
,  // measure 36
0000
1100
0000
0101
0000
0101
0000
1001
,  // measure 37
0000
0000
0100
0000
0001
1000
0000
1001
,  // measure 38
0000
0001
0000
0101
0000
1100
0000
0000
,  // measure 39
1001
0000
1001
0000
0100
1000
0000
0001
,  // measure 40
0000
0001
0100
0001
1000
0100
1000
0000
,  // measure 41
1001
0000
0000
0000
0100
0001
1000
0100
,  // measure 42
0000
1000
0000
0100
1000
0001
0001
0000
,  // measure 43
1001
0000
1001
0000
0100
0001
1000
0100
,  // measure 44
0001
0100
1000
0001
0100
0001
1000
0000
,  // measure 45
1001
0000
0001
0000
1000
0100
1000
0001
,  // measure 46
0000
0100
0001
0100
0001
1000
1000
0000
,  // measure 47
0010
2000
0000
0001
0000
3001
0000
0001
,  // measure 48
0100
0020
0000
1000
0000
1030
0000
1000
,  // measure 49
0001
0200
0000
0001
0000
0301
0000
0001
,  // measure 50
1000
0100
0000
1000
0001
0100
0001
1000
,  // measure 51
0100
0020
0000
0001
0000
0031
0000
0001
,  // measure 52
0010
0200
0000
1000
0000
1300
0000
1000
,  // measure 53
0001
0100
0001
0000
0100
1000
0100
0010
,  // measure 54
0110
0110
0000
0000
,  // measure 55
0001
0000
0101
0000
1000
0100
0001
0100
,  // measure 56
0000
1010
0000
0001
0000
1010
0000
1001
,  // measure 57
0000
0000
1001
0000
0001
0100
1000
0100
,  // measure 58
0000
0010
0000
0101
0000
0010
0100
0001
,  // measure 59
1000
0000
1010
0000
0001
0010
1000
0010
,  // measure 60
0000
0100
0000
0101
0000
1000
0000
1001
,  // measure 61
0000
0000
1001
0000
1000
0010
0001
0010
,  // measure 62
0000
0100
0000
1010
0000
0100
1000
0001
,  // measure 63
2002
0000
0000
0000
,  // measure 64
0000
0000
0000
0000
,  // measure 65
0000
3003
0000
0000
;

//---------------dance-single - ----------------
#NOTES:
     dance-single:
     :
     Beginner:
     1:
     0.067,0.127,0.051,0.000,0.000: // measure 1
0001
0000
0000
0000
,  // measure 2
0000
0000
0000
0000
,  // measure 3
0001
0000
0000
0000
,  // measure 4
0000
0000
0000
0000
,  // measure 5
1001
0000
0000
0000
,  // measure 6
0000
0000
0000
0000
,  // measure 7
1000
0000
0000
0000
,  // measure 8
0001
0000
0000
0000
,  // measure 9
1000
0000
0000
0000
,  // measure 10
0000
0000
0000
0000
,  // measure 11
0001
0000
0000
0000
,  // measure 12
1000
0000
0000
0000
,  // measure 13
0001
0000
0000
0000
,  // measure 14
0000
0000
0000
0000
,  // measure 15
0001
0000
0000
0000
,  // measure 16
1000
0000
0000
0000
,  // measure 17
0001
0000
0000
0000
,  // measure 18
0000
0000
0000
0000
,  // measure 19
1000
0000
0000
0000
,  // measure 20
0001
0000
0000
0000
,  // measure 21
1001
0000
0000
0000
,  // measure 22
0000
0000
0000
0000
,  // measure 23
0100
0000
0000
0000
,  // measure 24
0000
0000
0000
0000
,  // measure 25
0110
0000
0000
0000
,  // measure 26
0000
0000
0000
0000
,  // measure 27
0010
0000
0000
0000
,  // measure 28
0000
0000
0000
0000
,  // measure 29
0100
0000
0000
0000
,  // measure 30
0000
0000
0000
0000
,  // measure 31
0010
0000
0000
0000
,  // measure 32
0000
0000
0000
0000
,  // measure 33
1000
0000
0000
0000
,  // measure 34
0000
0000
0000
0000
,  // measure 35
0001
0000
0000
0000
,  // measure 36
1000
0000
0000
0000
,  // measure 37
0000
0000
0000
0000
,  // measure 38
1000
0000
0000
0000
,  // measure 39
1001
0000
0000
0000
,  // measure 40
0000
0000
0000
0000
,  // measure 41
1000
0000
0000
0000
,  // measure 42
0000
0000
0000
0000
,  // measure 43
0001
0000
0000
0000
,  // measure 44
0000
0000
0000
0000
,  // measure 45
1000
0000
0000
0000
,  // measure 46
0000
0000
0000
0000
,  // measure 47
0001
0000
0000
0000
,  // measure 48
0001
0000
0000
0000
,  // measure 49
0001
0000
0000
0000
,  // measure 50
0001
0000
0000
0000
,  // measure 51
1000
0000
0000
0000
,  // measure 52
1000
0000
0000
0000
,  // measure 53
1000
0000
0000
0000
,  // measure 54
1001
0000
0000
0000
,  // measure 55
0100
0000
0000
0000
,  // measure 56
0000
0000
0000
0000
,  // measure 57
0010
0000
0000
0000
,  // measure 58
0000
0000
0000
0000
,  // measure 59
0100
0000
0000
0000
,  // measure 60
0000
0000
0000
0000
,  // measure 61
0010
0000
0000
0000
,  // measure 62
0000
0000
0000
0000
,  // measure 63
0001
0000
0000
0000
;
