#TITLE:hora de verdad;
#SUBTITLE:;
#ARTIST:Vandalusia改;
#TITLETRANSLIT:;
#SUBTITLETRANSLIT:;
#ARTISTTRANSLIT:Vandalusia KAI;
#CREDIT:DMAxel;
#BANNER:hora de verdad.png;
#BACKGROUND:hora de verdad-bg.png;
#LYRICSPATH:;
#CDTITLE:pop'n music.png;
#MUSIC:hora de verdad.mp3;
#OFFSET:-0.380;
#SAMPLESTART:45.557;
#SAMPLELENGTH:12.000;
#SELECTABLE:YES;
#BPMS:0.000=140.000,32.000=280.000,233.000=140.000,253.000=280.000;
#STOPS:;
#BGCHANGES:;

//---------------dance-single - ----------------
#NOTES:
     dance-single:
     :
     Easy:
     5:
     0.414,0.542,0.351,0.108,0.000:
0000
0000
0000
0000
,
0000
0000
0000
0000
,
0000
0000
0000
0000
,
0000
0000
0000
0000
,
0000
0000
0000
0000
,
0000
0000
0000
0000
,
0000
0000
0000
0000
,
0000
0000
0000
0000
,
1001
0000
0000
0000
,
0000
0000
0000
0000
,
0000
0000
0000
0000
,
0110
0000
0000
0000
,
0000
0000
1001
0000
,
0000
1001
0000
0000
,
1001
0000
0000
0000
,
0000
0000
1010
0000
,
0000
0011
0000
0000
,
1001
0000
0000
0110
,
0000
0000
2002
0000
,
0000
0000
0000
3003
,
0010
0100
0010
0100
,
0000
0100
0001
0000
,
0001
1000
0000
0000
,
0001
1000
0001
1000
,
0010
0100
1001
0000
,
0000
0100
0100
0100
,
0010
0000
0000
0100
,
0010
0100
0010
0000
,
0010
1000
0000
1000
,
0001
0000
0001
1000
,
0001
1000
0010
0100
,
0010
1000
0100
0010
,
0101
0000
0000
1001
,
0000
0000
0000
0000
,
0000
0110
0000
0000
,
0000
0000
0000
1001
,
0000
0000
0000
0000
,
0000
0101
0000
0000
,
0010
1000
0010
1000
,
0100
0010
0001
0100
,
0001
0100
0010
0100
,
0010
1000
0100
0010
,
0001
0010
1100
0000
,
0000
0011
0000
1000
,
1001
0000
0000
0100
,
0010
0100
0001
0000
,
0001
1000
0000
1000
,
0010
0100
0010
0100
,
0001
0010
0100
1000
,
0010
0100
0001
0010
,
0100
1000
0100
1001
,
0000
0001
0100
0000
,
0100
0010
0000
0010
,
1000
0010
0100
0010
,
1000
0100
0010
0001
,
0010
1001
0000
0100
,
1001
0000
0010
1001
,
0000
0000
1001
0000
,
0000
0110
0000
0000
,
0000
0000
0000
0000
,
0000
0000
0000
0000
,
0000
0000
0000
0000
,
0000
0000
0000
0000
,
1000
1000
0001
0000
0010
0000
1000
0000
,
0100
1000
0010
1000
,
0001
0100
0001
0010
,
0001
1000
0001
1000
,
0100
1000
0010
1000
,
0010
0100
0010
0100
,
0001
0010
0001
1000
,
0100
0010
0001
0010
,
0100
1000
0010
1000
,
0100
1000
0001
0022
,
0000
0033
2002
0000
,
3003
2200
0000
3300
,
1001
1000
0100
0001
,
0010
0001
0010
0001
,
0100
0001
1000
0100
,
1000
0010
1000
0010
,
0100
0010
1000
0100
,
1000
0010
1000
0001
,
0100
0001
0010
0001
,
0100
0010
1000
0010
,
1000
0100
1000
0001
,
0010
0001
1000
0020
,
0000
0000
0100
0000
,
0100
0230
0000
0000
,
0301
0010
0100
2001
,
0000
0000
0001
0000
,
0001
3002
0000
0000
,
1003
0100
0010
1001
,
0000
0000
0100
1000
,
0010
0101
0000
0000
,
0010
0001
0100
1010
,
0000
0000
1100
0000
,
0000
0011
0000
0000
,
1001
0000
0000
0010
,
0001
0100
0001
0000
,
0001
1000
0000
1000
,
0100
1000
0001
1000
,
1000
0100
1000
0010
,
0100
0010
1000
0100
,
0010
0001
0010
0100
,
1000
0010
0100
0000
,
0100
0001
0000
0001
,
1000
0010
0100
0010
,
1000
0100
0010
0001
,
0010
0100
1000
0010
,
1001
0000
0100
1001
,
0000
0000
1001
0000
;

//---------------dance-single - ----------------
#NOTES:
     dance-single:
     :
     Hard:
     9:
     0.707,0.796,0.522,0.108,0.032:
0000
0000
0000
0000
,
0000
0000
0000
0000
,
0000
0000
0000
0000
,
0000
0000
0000
0000
,
0000
0000
0000
0000
,
0000
0000
0000
0000
,
0000
0000
0000
0000
,
0000
0000
1100
0000
,
1001
0001
0001
0010
,
0100
1000
0100
0010
,
0001
0110
1000
1001
,
1001
1000
1000
0100
,
0010
0001
0101
0000
,
0000
1100
1000
0001
,
1000
0010
1000
0000
0000
0000
0001
0000
,
1000
0000
0001
0000
0100
0001
0100
0000
,
0000
0001
0100
0010
,
1010
0000
0010
0011
,
0000
0001
1001
0000
,
0000
1000
0100
0011
,
1001
0000
0010
0001
0010
0001
0010
0000
,
0000
0001
1000
0001
2000
0000
0000
0000
,
0100
3100
0000
0000
,
1000
0000
0010
0100
0010
0100
0010
0000
,
1000
0000
0100
0000
0101
0000
0001
1000
,
0001
1000
1000
0010
,
0110
0000
0001
1000
,
0100
1000
0100
1000
0100
0000
0000
1000
,
0001
1000
0002
0000
0000
0000
0010
0000
,
0013
0000
0001
0010
,
0100
1000
0100
0001
,
0010
1010
1000
0001
,
0001
0100
1000
1002
,
0000
1000
1000
1003
,
0010
2001
0000
0001
,
0001
3001
0100
1002
,
0000
1000
1000
1003
,
0100
2001
0000
0001
,
0001
0000
3001
0000
0010
0100
0010
0100
,
0010
0100
1000
0010
,
1000
0001
1000
0001
1000
0000
0010
0000
,
0100
0000
0001
0000
1000
0100
1000
0100
,
1000
0000
0010
0100
0010
0100
0010
0000
,
1000
0001
1000
0001
1000
0000
1010
0000
,
1001
0000
0000
1001
,
0100
0001
0100
0001
0100
0000
0000
0001
,
0100
0001
2000
0000
0000
0000
3010
0100
,
0010
1000
0100
0001
,
1000
0100
1000
0100
1000
0000
1000
0000
,
0001
0000
0100
0010
0100
0010
0100
0001
,
0100
0001
0100
0001
1000
0100
1000
0000
,
0010
1000
0010
1000
0010
0000
0000
1000
,
0010
1000
0002
0000
0000
0000
0103
0010
,
0100
0001
0010
1000
,
0010
0100
0010
0100
0010
0000
1000
0100
,
1000
0100
1000
0000
0000
0000
1010
0000
,
1010
0000
0011
0011
,
0000
0000
1001
0000
,
0000
1100
0000
0000
,
0000
0000
0000
0000
,
0000
0000
0000
0000
,
0000
0000
0000
0000
,
1000
0010
0000
0010
0000
0010
0100
0010
0000
1000
0000
0001
0000
1000
0000
0000
,
1001
1001
0000
0000
0000
0000
0100
0010
,
0100
0010
1000
0100
1000
0000
0001
1000
,
0001
1000
0001
0000
0010
0000
0100
0000
,
0010
0000
0100
1000
0100
1000
0100
0000
,
1000
0001
1000
0000
0010
0000
0010
0000
,
0010
0100
0010
0100
0010
1000
0001
1000
,
0001
0010
0001
0010
0001
0000
0100
0010
,
0100
0000
0001
0100
0001
0100
0001
1000
,
0001
0000
0100
0010
0100
0000
0001
1000
,
0001
0100
0001
0100
0001
0000
1100
0000
,
0010
0001
1100
0010
,
0001
1100
0010
0001
,
1001
1001
1001
1001
,
0010
0100
0010
0000
1000
0010
1000
0010
,
1000
0001
1000
0000
0010
0100
0010
0000
,
1000
0001
1000
0010
1000
0010
1000
0000
,
0001
0010
0001
0000
0001
0000
1000
0100
,
1000
0000
1000
0000
0001
1000
0001
0000
,
0010
0100
1000
1001
,
0010
1000
0010
1000
0100
1000
0100
0000
,
0010
0000
1001
0000
0100
0001
0100
0001
,
0010
0001
0010
0000
0100
0000
1001
0000
,
0010
1000
0010
0000
1000
0000
1000
0000
,
0001
0000
1001
0000
0100
0001
0100
0000
,
0101
0101
1100
1001
,
0010
0001
0010
0000
0001
0000
0001
0000
,
1000
0000
1001
0000
0100
1000
0100
0000
,
1100
1100
0101
1001
,
0000
0000
0001
0100
0001
0000
1000
0000
,
0100
0000
0001
0000
0000
0000
1000
0010
,
1000
0001
0010
1010
,
1000
0001
1000
0001
1000
0000
0010
0100
,
0010
0100
0010
0000
1000
0100
1000
0000
,
1001
0001
1000
0011
,
0010
1000
0010
1000
0010
0000
0000
1000
,
0100
1000
0002
0000
0000
0000
0103
0010
,
0100
0001
0010
0001
1000
0100
1000
0000
,
0010
1000
0010
1000
0001
0000
0001
0000
,
1000
0000
0010
0100
0010
1000
0100
1000
,
0100
1000
0001
1000
0001
0010
0001
0000
,
0100
0001
0100
0001
0100
0000
0000
0001
,
0010
0001
2000
0000
0000
0000
3010
0100
,
0010
1000
0100
1000
0001
0010
0001
0000
,
0100
0010
0100
0001
0100
0010
1000
0100
,
0010
0001
1000
0000
0000
0000
1010
0000
,
1010
0000
0011
0011
,
0000
0000
2002
0000
,
0000
0000
3003
0000
;

//---------------dance-single - ----------------
#NOTES:
     dance-single:
     :
     Medium:
     7:
     0.523,0.646,0.369,0.108,0.023:
0000
0000
0000
0000
,
0000
0000
0000
0000
,
0000
0000
0000
0000
,
0000
0000
0000
0000
,
0000
0000
0000
0000
,
0000
0000
0000
0000
,
0000
0000
0000
0000
,
0000
0000
0000
0000
,
1001
0010
0100
0001
,
1000
0010
1000
0001
,
0100
0001
1000
1001
,
1001
0100
0010
0100
,
0010
1000
1100
0000
,
0000
0011
0001
1000
,
1001
0001
0100
0010
,
1000
0001
0100
0010
,
1000
0001
0100
0010
,
1010
0000
0100
0101
,
0000
0010
1001
0000
,
0000
0000
1000
0010
,
1001
0001
0100
0010
,
0100
0000
0001
1000
0002
0000
0000
0000
,
1000
1003
0000
0000
,
1001
1000
0010
0100
,
0010
0000
1000
0000
1001
0000
1000
0001
,
1000
0010
0010
0010
,
0110
0000
1000
0001
,
1000
0001
0100
0010
,
1000
0001
2000
0000
0000
0000
0001
0000
,
3001
0000
1000
0001
,
1000
0001
0100
0010
,
0100
0001
0010
1000
,
2200
0000
3300
2001
,
0000
0000
0000
0000
,
3001
0010
0100
1000
,
0100
0010
0001
1002
,
0000
0000
0000
0000
,
1003
0100
0010
0001
,
0100
0000
0010
0000
0100
0010
0100
0000
,
0000
0001
1000
0001
,
1000
0001
1000
0000
0000
0000
0010
0000
,
0100
0000
0010
0000
0100
0010
0100
0000
,
0000
0000
0001
1000
0001
0000
0000
0000
,
0100
0010
0100
0000
0001
0000
0100
0000
,
1000
0010
0001
1001
,
1000
0001
0010
0001
,
1000
0010
2000
0000
0000
0000
0001
0000
,
3001
0010
0100
1000
,
0001
0100
0001
1000
,
0001
1001
0100
1000
,
0100
0010
0001
1001
,
1000
0010
1000
0001
,
1000
0002
0000
1000
,
1003
0100
0010
0001
,
0100
0010
0100
0001
,
0100
1001
0000
0010
,
0101
0000
0100
1010
,
0000
0000
0110
0000
,
0000
1001
0000
0000
,
0000
0000
0000
0000
,
0000
0000
0000
0000
,
0000
0000
0000
0000
,
0000
1000
0000
0001
0000
1000
0000
0001
0000
1000
0000
0000
0000
0000
0000
0000
,
1001
1001
0000
0000
0000
0000
1000
0000
,
0001
0010
0100
1000
,
0010
1000
0100
1000
,
0010
1000
0100
0001
,
1000
0001
0100
0001
,
0100
0001
0100
1000
,
0010
1000
0100
1000
,
0100
0001
0010
0001
,
0010
1000
0010
1000
,
0100
1000
0001
0101
,
0000
0000
1100
0000
,
0000
0110
0000
0000
,
1000
0010
0100
1001
,
0010
0100
1000
0010
,
0100
0010
1000
0100
,
1000
0010
0100
0010
,
1000
0100
0010
0001
,
0100
0010
0100
0001
,
1000
0001
0010
0011
,
0000
0001
1000
0100
,
1000
1100
0000
1000
,
0001
0010
0001
1001
,
0001
1000
0001
0000
0100
0000
0100
0000
,
0100
0000
1001
0000
1000
0001
1000
0000
,
0010
0010
0010
1001
,
0001
1000
0001
0000
0010
0000
0010
0000
,
0010
0000
1001
0000
1000
0001
1000
0000
,
0100
0000
0010
0000
0001
0100
0001
0000
,
0000
0000
1000
0100
1000
0000
0000
0000
,
0000
0000
0001
0000
0000
0000
0001
1000
,
0001
0000
0000
1000
,
1000
0010
1000
0010
1000
0000
0001
0010
,
0001
0010
0001
0000
0000
0000
1000
0000
,
1001
0000
0000
0010
,
0100
1000
0010
1000
,
0001
1000
0002
0000
0000
0000
1000
0000
,
1003
0000
0000
0100
,
0010
0001
0100
0001
,
0100
0000
0010
0000
0000
0100
0000
0000
,
0010
1000
0001
1000
,
0001
0100
0001
0000
0001
0000
0100
0000
,
0010
0100
0020
0000
0000
0000
0100
0000
,
0130
0001
1000
1100
,
0000
1000
0001
0010
,
1000
0100
0000
0001
,
0101
0000
1000
1100
,
0000
0000
2002
0000
,
0000
0000
3003
0000
;

//---------------dance-single - ----------------
#NOTES:
     dance-single:
     :
     Beginner:
     3:
     0.165,0.296,0.126,0.000,0.000:
0000
0000
0000
0000
,
0000
0000
0000
0000
,
0000
0000
0000
0000
,
0000
0000
0000
0000
,
0000
0000
0000
0000
,
0000
0000
0000
0000
,
0000
0000
0000
0000
,
0000
0000
0000
0000
,
1000
0000
0000
0000
,
0000
0000
0000
0000
,
0000
0000
0000
0000
,
1000
0000
0000
0000
,
0000
0000
0001
0000
,
0000
0001
0000
0000
,
0001
0000
0000
0000
,
0000
0000
1000
0000
,
0000
0000
0000
0000
,
0001
0000
0000
0001
,
0000
0000
1000
0000
,
0000
0000
0000
0000
,
1001
0000
0000
0001
,
0000
0000
1000
0000
,
0000
0000
0000
0000
,
0010
0000
0000
0100
,
0000
0000
0010
0000
,
0000
0010
0000
0000
,
0010
0000
0000
0100
,
0000
0000
0100
0000
,
0000
0100
0000
0000
,
0000
0000
0000
0001
,
0000
0000
0001
0000
,
0000
1000
0000
0000
,
0001
0000
0000
1001
,
0000
0000
0000
0000
,
0000
1000
0000
0000
,
0000
0000
0000
0001
,
0000
0000
0000
0000
,
0000
0001
0000
0000
,
0000
0000
0000
0100
,
0000
0000
0010
0000
,
0000
0100
0000
0000
,
0001
0000
0000
1000
,
0000
0000
0001
0000
,
0000
1000
0000
0000
,
0001
0000
0000
1001
,
0000
0000
1000
0000
,
0000
0010
0000
0000
,
1000
0000
0000
0001
,
0000
0000
1000
0000
,
0000
0001
0000
0000
,
0001
0000
0000
0000
,
0001
0000
1000
0000
,
0000
1000
0000
0000
,
1000
0000
0000
0001
,
0000
0000
0010
0000
,
0000
0001
0000
0000
,
1001
0000
0000
1001
,
0000
0000
1000
0000
,
0000
0000
0000
0000
,
0000
0000
0000
0000
,
0000
0000
0000
0000
,
0000
0000
0000
0000
,
0000
0000
0000
0000
,
0000
0000
0000
0001
,
0000
0000
1000
0000
,
0000
0001
0000
0000
,
0010
0000
0000
0001
,
0000
0000
1000
0000
,
0000
0001
0000
0000
,
1000
0000
0000
0001
,
0000
0000
0001
0000
,
0000
1000
0000
0000
,
1000
0000
0000
0001
,
0000
0000
0010
0000
,
0000
0100
0000
0000
,
1000
0000
0000
1001
,
0000
0000
1000
0000
,
0000
0010
0000
0000
,
1000
0000
0000
0001
,
0000
0000
1000
0000
,
0000
0001
0000
0000
,
1000
0000
0000
0010
,
0000
0000
1000
0000
,
0000
0001
0000
0000
,
0100
0000
0000
0001
,
0000
0000
0001
0000
,
0000
1000
0000
0000
,
1001
0000
0000
1000
,
0000
0000
1000
0000
,
0000
0001
0000
0000
,
0001
0000
0000
1001
,
0000
0000
0010
0000
,
0000
1001
0000
0000
,
0100
0000
0000
1001
,
0000
0000
0100
0000
,
0000
1000
0000
0000
,
0001
0000
0000
0010
,
0000
0000
0010
0000
,
0000
0001
0000
0000
,
0000
0000
0000
0100
,
0000
0000
0010
0000
,
0000
0100
0000
0000
,
0000
0000
0000
1001
,
0000
0000
1000
0000
,
0000
0001
0000
0000
,
1000
0000
0000
0010
,
0000
0000
0010
0000
,
0000
0100
0000
0000
,
0110
0000
0000
0110
,
0000
0000
1001
0000
;

//---------------dance-single - ----------------
#NOTES:
     dance-single:
     :
     Challenge:
     10:
     0.892,1.000,0.729,0.135,0.032: // measure 1
0000
0000
0000
0000
,  // measure 2
0000
0000
0000
0000
,  // measure 3
0000
0000
0000
0000
,  // measure 4
0000
0000
0000
0000
,  // measure 5
0010
0022
0033
0010
,  // measure 6
2020
0000
3030
0100
,  // measure 7
0110
0202
0000
0303
,  // measure 8
1100
0100
1001
0000
,  // measure 9
1001
0000
0001
0010
0001
0000
1000
0000
,  // measure 10
1000
0100
0001
0100
,  // measure 11
1000
0011
0100
1001
,  // measure 12
1001
0000
1000
0100
1000
0000
0001
0000
,  // measure 13
0001
0000
0100
0010
0100
0000
0001
0000
,  // measure 14
1000
0000
0100
1000
0100
1000
0100
0010
,  // measure 15
0001
0010
0001
0000
0000
0000
0010
0001
,  // measure 16
0010
0001
0010
0100
1000
0100
1000
0000
,  // measure 17
0000
0000
0010
0100
0010
0100
0010
0000
,  // measure 18
1001
0000
0010
0001
0010
0000
1001
0000
,  // measure 19
0100
1000
0100
0000
1000
0001
1000
0000
,  // measure 20
1000
0001
1000
0000
1010
0000
1010
0000
,  // measure 21
1001
0000
0100
0001
0100
0001
0100
0000
,  // measure 22
0000
0001
0100
0010
2000
0000
0001
0000
,  // measure 23
3001
0100
0001
0000
0001
0000
1000
0000
,  // measure 24
1000
0010
1000
0100
0010
0001
0100
0000
,  // measure 25
0100
0000
0001
0000
1001
0000
0001
0010
,  // measure 26
0001
0101
0101
0110
,  // measure 27
0110
0000
1000
1001
,  // measure 28
0010
1000
0010
1000
0010
0000
0000
1000
,  // measure 29
0010
0100
0002
0000
1000
0000
1003
0010
,  // measure 30
1000
0000
1000
0000
0001
0010
0100
1000
,  // measure 31
0001
0010
0001
0010
0001
1000
0010
0100
,  // measure 32
0001
1000
0001
0010
0100
0010
0001
1000
,  // measure 33
0002
1000
1003
0110
,  // measure 34
0010
1000
0010
0000
1000
0000
1000
0000
,  // measure 35
0001
0000
0110
0000
0100
0001
0100
0000
,  // measure 36
0001
0001
1000
0110
,  // measure 37
0010
1000
0010
0000
1000
0000
1000
0000
,  // measure 38
0001
0000
0110
0000
0100
0010
0100
0001
,  // measure 39
1000
0100
0010
0001
1000
0010
1000
0010
,  // measure 40
1000
0000
0010
0000
0010
0100
0001
0000
,  // measure 41
0100
0001
0100
0001
0100
0000
0010
0000
,  // measure 42
0010
0100
0001
0000
1000
0100
1000
0100
,  // measure 43
1000
0010
0100
0001
0010
0100
0010
0001
,  // measure 44
1000
0001
1000
0001
1000
0100
0010
0001
,  // measure 45
1000
0001
0010
0100
1000
0000
1001
0000
,  // measure 46
0100
1000
0100
1000
0100
0000
0000
1000
,  // measure 47
0010
0100
0002
0000
1000
0000
1003
0010
,  // measure 48
1000
0010
0100
0001
0010
0100
1000
0000
,  // measure 49
0100
0010
0001
0010
0100
0000
1000
0000
,  // measure 50
1001
0000
0001
0010
0001
0010
0100
1000
,  // measure 51
0010
0100
0001
1000
0001
0010
0001
0000
,  // measure 52
0100
0001
0100
0001
0100
0000
0000
0001
,  // measure 53
0100
0010
2000
0000
0001
0000
3001
0100
,  // measure 54
0001
0100
0010
1000
0100
0010
0001
0000
,  // measure 55
0010
0100
1000
0010
0100
0001
0010
0100
,  // measure 56
1000
0010
1000
0000
0000
0000
1010
0000
,  // measure 57
1001
0000
0011
1001
,  // measure 58
0000
0000
1001
0000
,  // measure 59
0000
0110
0000
0000
,  // measure 60
0000
0000
0000
0000
,  // measure 61
0000
0000
0000
0000
,  // measure 62
0000
0000
0000
0000
,  // measure 63
0001
0100
0000
0100
0000
0010
0100
0010
0000
0100
0001
1000
0000
1100
0000
0000
,  // measure 64
1001
1001
1000
0100
0010
0001
0100
0001
,  // measure 65
0100
0001
0100
0010
1000
0010
1000
0001
,  // measure 66
1000
0100
0010
0001
0010
0001
1000
0100
,  // measure 67
1000
0100
1000
0010
0100
0001
0100
0001
,  // measure 68
0100
0010
1000
0010
1000
0001
1000
0100
,  // measure 69
0010
0001
0010
0100
0010
0001
0010
0100
,  // measure 70
1000
0100
0010
0100
1000
0000
0001
1000
,  // measure 71
0001
0000
0001
0010
0100
1000
0001
1000
,  // measure 72
0010
0100
0001
1000
0100
1000
0100
1000
,  // measure 73
0001
0100
0001
0100
0001
0010
0100
0000
,  // measure 74
1000
0100
1000
0000
1001
0000
0001
0010
,  // measure 75
0001
0000
1001
0000
1000
0010
1000
0000
,  // measure 76
0110
0110
0110
1001
,  // measure 77
0001
0010
0100
1000
0010
1000
0010
0100
,  // measure 78
0001
0010
0100
1000
0001
0010
0001
0010
,  // measure 79
0100
1000
0100
1000
0010
0100
0001
0100
,  // measure 80
0001
0100
0001
1000
0010
1000
0010
0100
,  // measure 81
0010
0100
0010
1000
0100
0010
0001
0010
,  // measure 82
0100
1000
0100
0010
0001
0000
1001
0000
,  // measure 83
0010
1000
0010
0000
0110
0000
0011
0000
,  // measure 84
1001
0000
1001
0000
0100
0001
0100
0000
,  // measure 85
0110
1100
1001
1001
,  // measure 86
1000
0001
0010
0000
0011
0000
0011
0000
,  // measure 87
1010
0000
1001
0000
0001
1000
0100
0000
,  // measure 88
1100
1100
0101
1001
,  // measure 89
1000
0001
0100
0000
0101
0000
0101
0000
,  // measure 90
1100
0000
1001
0000
0001
1000
0010
0000
,  // measure 91
1000
0100
0010
0001
0100
0001
1000
0000
,  // measure 92
1000
0010
1000
0100
1000
0000
1010
0000
,  // measure 93
0110
0000
0101
0000
0001
0100
0001
0010
,  // measure 94
0001
0101
0110
1010
,  // measure 95
1000
0010
0100
0001
0010
0100
0010
0001
,  // measure 96
0010
0100
1000
0100
0010
0100
1000
0000
,  // measure 97
1001
0110
0110
1001
,  // measure 98
0010
0001
0010
0001
0010
0000
0001
0100
,  // measure 99
0010
1000
0002
0000
1000
0000
1003
0100
,  // measure 100
1000
0010
0100
0001
0010
0100
1000
0000
,  // measure 101
1000
0010
0100
0001
1000
0000
1100
0000
,  // measure 102
1100
0000
0001
0100
0010
1000
0100
0010
,  // measure 103
0100
1000
0100
0010
0001
0000
1001
0000
,  // measure 104
0100
1000
0100
1000
0100
0000
1000
0010
,  // measure 105
0100
0001
2000
0000
0001
0000
3001
0010
,  // measure 106
0001
0100
0010
1000
0100
0010
0001
1000
,  // measure 107
0001
0010
0100
1000
0010
1000
0010
0100
,  // measure 108
0001
0010
0100
0000
0000
0000
1100
0000
,  // measure 109
1001
0000
0101
1001
,  // measure 110
0000
0000
2002
0000
,  // measure 111
0000
0000
3003
0000
;

//---------------dance-double - ----------------
#NOTES:
     dance-double:
     :
     Easy:
     6:
     0.444,0.547,0.414,0.162,0.000:
00000000
00000000
00000000
00000000
,
00000000
00000000
00000000
00000000
,
00000000
00000000
00000000
00000000
,
00000000
00000000
00000000
00000000
,
00000000
00000000
00000000
00000000
,
00000000
00000000
00000000
00000000
,
00000000
00000000
00000000
00000000
,
00000000
00000000
00000000
00000000
,
00011000
00000000
00010000
00000000
,
00010000
00000000
00010000
00000000
,
00010000
00000000
00010000
00000000
,
01100000
00000000
10000000
00000000
,
10000000
00000000
11000000
00000000
,
00000000
00110000
00000000
00000000
,
00011000
00000000
00001000
00000000
,
00001000
00000000
00000110
00000000
,
00000000
00000011
00000000
00000000
,
00001001
00000000
00000000
00000110
,
00000000
00000000
00002002
00000000
,
00000000
00000000
00000000
00003003
,
00000010
00000100
00000010
00000100
,
00000000
00000100
00000001
00000000
,
00000001
00001000
00000000
00000000
,
00000001
00000010
00000100
00000010
,
00000100
00001000
00110000
00010000
,
10000000
00100000
10000000
01000000
,
01000000
00000000
00000000
10000000
,
00100000
01000000
00100000
00000000
,
00100000
10000000
00000000
10000000
,
00010000
00000000
10000000
01000000
,
00100000
01000000
00100000
00010000
,
00001000
00000100
00001000
00010000
,
00110000
00000000
00000000
00220000
,
00000000
00000000
00000000
00000000
,
00330000
01100000
10000000
01000000
,
00100000
00010000
00001000
00002200
,
00000000
00000000
00000000
00000000
,
00003300
00000110
00000001
00000010
,
00000100
00001000
00010000
00100000
,
00000000
00010000
10000000
01000000
,
10000000
00010000
00000000
00100000
,
00001000
00010000
00001000
00011000
,
00000000
00000000
00001100
00000000
,
00000000
00000011
00000000
00000001
,
00001001
00000000
00000000
00000100
,
00000010
00000100
00000001
00000000
,
00000001
00001000
00000000
00001000
,
00000010
00000100
00000001
00001001
,
00000010
00000100
00001000
00010000
,
00100000
01000000
00100000
00010000
,
00001000
00000100
00001000
00110000
,
00000000
00010000
00001000
00000000
,
00001000
00010000
00000000
00010000
,
00001000
00000000
00001000
00000100
,
00000010
00000001
00000010
00000001
,
00001000
00001000
00000000
00000100
,
00011000
00000000
00100000
00011000
,
00000000
00000000
00001100
00000000
,
00000000
00001001
00000000
00000000
,
00000000
00000000
00000000
00000000
,
00000000
00000000
00000000
00000000
,
00000000
00000000
00000000
00000000
,
00000000
00000000
00000000
00000000
,
00000110
00000110
00000000
00000000
00000000
00000000
00000001
00000000
,
00000010
00000001
00001000
00000001
,
00001000
00000100
00001000
00000010
,
00001000
00000001
00001000
00000001
,
00000010
00000100
00001000
00000100
,
00001000
00010000
00100000
00010000
,
00001000
00010000
00100000
01000000
,
10000000
00100000
10000000
01000000
,
10000000
00010000
00100000
00010000
,
10000000
00010000
00100000
00220000
,
00000000
00330000
00022000
00000000
,
00033000
00002200
00000000
00003300
,
00001001
00000001
00000001
00001001
,
00000010
00000001
00001000
00000001
,
00000010
00000100
00001000
00000100
,
00001000
00010000
00100000
00010000
,
00001000
00010000
00100000
01000000
,
10000000
00100000
10000000
01000000
,
00100000
00010000
01000000
01010000
,
00000000
00010000
00100000
00010000
,
00001000
00001010
00000000
00000010
,
00000001
00000010
00000100
00012000
,
00000000
00000000
00013000
00100000
,
00010000
00200000
00000000
00000000
,
01300000
10000000
00100000
00021000
,
00000000
00000000
00031000
00000100
,
00001000
00000200
00000000
00000000
,
00000310
00000001
00000010
00011000
,
00000000
00000000
00100000
01000000
,
00100000
00011000
00000000
00000000
,
00000100
00000010
00000100
00011000
,
00000000
00000000
01010000
00000000
,
00000000
01100000
00000000
00000000
,
10010000
00000000
00000000
00100000
,
01000000
00100000
01000000
00000000
,
01000000
00010000
00000000
10000000
,
00010000
00100000
00010000
00001000
,
00000100
00001000
00000010
00001000
,
00000100
00000010
00000001
00000100
,
00000010
00000100
00000001
00000100
,
00000010
00000100
00000001
00000000
,
00000100
00000001
00000000
00000001
,
00001000
00000010
00001000
00000010
,
00000100
00001000
00010000
00100000
,
00010000
00001000
00000000
00000100
,
00011000
00000000
00100000
00011000
,
00000000
00000000
00022000
00000000
,
00000000
00000000
00033000
00000000
;
